VERSION	0.00.00	1.03.00
FES_MODE	0
BPM_DEF	120.000	120.000	120.000	120.000
MET_DEF	4	4
RESOLUTION	384
CLK_DEF	384
COMPATIBLE_CODE	MA2

BPM	0	0	120.000

TAP	1	0	0
TAP	1	192	0
TAP	2	0	1
TAP	2	192	1
TAP	3	0	2
TAP	3	192	2
TAP	4	0	3
TAP	4	192	3
TAP	5	0	4
TAP	5	96	4
TAP	5	192	4
TAP	6	0	5
TAP	6	96	5
TAP	6	192	4
TAP	6	192	5
TAP	7	0	6
TAP	7	96	6
TAP	7	192	6
TAP	8	0	7
TAP	8	96	7
TAP	8	192	0
TAP	8	192	7
TAP	9	0	0
TAP	9	96	0
TAP	9	192	0
TAP	10	0	1
TAP	10	96	1
TAP	10	192	0
TAP	10	192	1
TAP	11	0	2
TAP	11	96	2
TAP	11	192	2
HLD	12	0	3	192
HLD	12	0	4	192
BRK	13	0	3
BRK	13	0	4
TAP	14	0	4
TAP	14	192	4
TAP	15	0	5
TAP	15	192	5
TAP	16	0	6
TAP	16	192	6
TAP	17	0	7
TAP	17	192	7
TAP	18	0	6
TAP	18	0	7
TAP	18	192	6
TAP	18	192	7
TAP	19	0	4
TAP	19	0	5
TAP	19	192	4
TAP	19	192	5
TAP	20	0	2
TAP	20	0	3
TAP	20	192	2
TAP	20	192	3
TAP	21	0	0
TAP	21	0	1
BRK	21	192	0
BRK	21	192	1
STR	22	0	1
SI_	22	0	1	96	288	5
STR	24	0	6
SI_	24	0	6	96	288	2
TAP	26	0	0
TAP	26	192	0
HLD	27	0	0	192
TAP	28	0	2
TAP	28	192	2
HLD	29	0	2	192
TAP	30	0	4
TAP	30	192	4
HLD	31	0	4	192
TAP	32	0	6
TAP	32	96	6
TAP	32	192	7
TAP	32	288	7
TAP	33	0	0
TAP	33	0	7
TAP	33	192	0
TAP	33	192	7
STR	34	0	7
SI_	34	0	7	96	288	3
STR	36	0	0
SI_	36	0	0	96	288	4
STR	38	0	6
SI_	38	0	6	96	288	3
STR	40	0	1
SI_	40	0	1	96	288	4
HLD	42	0	3	192
HLD	42	0	4	192
HLD	43	0	2	192
HLD	43	0	5	192
TAP	44	0	3
TAP	44	0	4
TAP	44	96	3
TAP	44	96	4
TAP	44	192	2
TAP	44	192	5
TAP	45	0	1
TAP	45	96	1
TAP	45	192	0
TAP	45	288	0
TAP	46	0	0
TAP	46	0	7
TAP	46	96	0
TAP	46	96	7
TAP	46	192	1
TAP	46	192	6
TAP	47	0	7
TAP	47	96	7
TAP	47	192	6
TAP	47	288	6
TAP	48	0	5
TAP	48	96	5
TAP	48	192	3
TAP	48	192	4
TAP	49	0	2
TAP	49	0	3
TAP	49	96	2
TAP	49	96	3
TAP	49	192	4
TAP	49	192	5
TAP	49	288	4
TAP	49	288	5
TAP	50	0	3
TAP	50	96	4
BRK	50	192	3
TAP	51	0	3
TAP	51	96	3
TAP	51	192	4
TAP	51	288	4
TAP	52	0	3
TAP	52	0	4
TAP	52	96	3
TAP	52	96	4
TAP	52	192	2
TAP	52	192	5
TAP	53	0	6
TAP	53	96	6
TAP	53	192	7
TAP	53	288	7
TAP	54	0	0
TAP	54	0	7
TAP	54	96	0
TAP	54	96	7
TAP	54	192	1
TAP	54	192	6
TAP	55	0	0
TAP	55	96	0
TAP	55	192	1
TAP	55	288	1
TAP	56	0	2
TAP	56	96	2
TAP	56	192	3
TAP	56	192	4
TAP	57	0	4
TAP	57	0	5
TAP	57	96	4
TAP	57	96	5
TAP	57	192	2
TAP	57	192	3
TAP	57	288	2
TAP	57	288	3
TAP	58	0	4
TAP	58	96	3
BRK	58	192	4
STR	59	0	3
SI_	59	0	3	96	288	0
STR	59	0	4
SI_	59	0	4	96	288	7

T_REC_TAP	140
T_REC_BRK	6
T_REC_XTP	0
T_REC_HLD	9
T_REC_XHO	0
T_REC_STR	8
T_REC_BST	0
T_REC_XST	0
T_REC_TTP	0
T_REC_THO	0
T_REC_SLD	8
T_REC_ALL	171
T_NUM_TAP	148
T_NUM_BRK	6
T_NUM_HLD	9
T_NUM_SLD	8
T_NUM_ALL	171
T_JUDGE_TAP	154
T_JUDGE_HLD	36
T_JUDGE_SLD	8
T_JUDGE_ALL	198
TTM_EACHPAIRS	40
TTM_SCR_TAP	74000
TTM_SCR_BRK	15600
TTM_SCR_HLD	9000
TTM_SCR_SLD	12000
TTM_SCR_ALL	110600
TTM_SCR_S	106700
TTM_SCR_SS	110000
TTM_RAT_ACV	10054

