VERSION	0.00.00	1.03.00
FES_MODE	0
BPM_DEF	188.000	188.000	188.000	188.000
MET_DEF	4	4
RESOLUTION	384
CLK_DEF	288
COMPATIBLE_CODE	MA2

BPM	0	0	188.000
MET	0	0	4	3
MET	9	288	4	4
MET	11	288	4	3
MET	70	96	4	4

HLD	1	192	4	192
TAP	1	192	5
TAP	1	288	3
TAP	2	0	2
TAP	2	96	2
HLD	2	96	3	192
TAP	2	192	4
TAP	2	288	5
HLD	3	0	4	192
TAP	3	0	6
TAP	3	96	3
TAP	3	192	1
TAP	3	288	1
HLD	3	288	3	192
TAP	4	0	4
TAP	4	96	6
TAP	4	192	5
HLD	4	192	7	192
TAP	4	288	0
TAP	5	0	2
HLD	5	96	0	192
TAP	5	96	2
TAP	5	192	7
TAP	5	288	5
TAP	6	0	4
HLD	6	0	7	192
TAP	6	96	0
TAP	6	192	3
HLD	6	288	0	192
TAP	6	288	3
TAP	7	0	7
TAP	7	96	4
TAP	9	288	0
TAP	9	300	1
TAP	9	300	7
TAP	9	312	2
TAP	9	312	6
TAP	9	324	3
TAP	9	324	5
BST	9	336	4
SSL	9	336	4	96	96	0
STR	10	192	1
SCR	10	192	1	96	48	4
STR	10	192	7
SCL	10	192	7	96	48	4
STR	10	288	1
SI_	10	288	1	96	48	5
STR	10	288	7
SI_	10	288	7	96	48	3
TAP	11	0	1
TAP	11	0	7
BRK	11	96	0
BRK	11	192	0
TAP	11	288	5
TAP	11	300	4
TAP	12	0	3
TAP	12	0	6
TAP	12	48	2
TAP	12	96	1
TAP	12	96	7
TAP	12	192	1
TAP	12	204	0
TAP	12	288	2
TAP	12	288	7
TAP	12	336	6
TAP	13	0	3
TAP	13	0	5
STR	13	96	0
SI_	13	96	0	96	48	4
TAP	13	96	4
STR	13	192	3
SI_	13	192	3	96	48	7
TAP	13	288	0
TAP	14	0	5
TAP	14	48	4
TAP	14	96	3
TAP	14	144	2
TAP	14	192	1
TAP	14	192	5
TAP	14	240	0
TAP	14	288	6
TAP	14	300	7
TAP	15	0	0
TAP	15	0	5
TAP	15	48	1
TAP	15	96	2
TAP	15	96	4
TAP	15	192	2
TAP	15	204	3
TAP	15	288	1
TAP	15	288	4
TAP	16	0	0
TAP	16	0	6
TAP	16	96	3
STR	16	96	7
SI_	16	96	7	96	48	3
STR	16	192	4
SI_	16	192	4	96	48	0
TAP	16	288	7
TAP	17	0	2
TAP	17	48	3
TAP	17	96	4
TAP	17	144	5
TAP	17	192	6
TAP	17	240	7
STR	17	288	0
SI_	17	288	0	96	48	2
STR	18	0	0
SI_	18	0	0	96	48	4
TAP	18	0	3
TAP	18	96	5
STR	18	192	7
SI_	18	192	7	96	48	5
TAP	18	288	4
STR	18	288	7
SI_	18	288	7	96	48	3
TAP	19	0	2
HLD	19	96	0	96
HLD	19	192	7	96
TAP	19	288	1
TAP	19	336	2
TAP	20	0	3
TAP	20	48	4
TAP	20	96	5
TAP	20	144	6
TAP	20	192	0
TAP	20	192	7
TAP	20	288	2
TAP	20	288	5
TAP	21	0	3
TAP	21	24	4
TAP	21	48	3
TAP	21	72	4
TAP	21	96	3
TAP	21	120	4
TAP	21	144	3
TAP	21	168	4
TAP	21	192	2
TAP	21	192	5
TAP	21	240	2
TAP	21	264	3
TAP	21	288	2
TAP	21	312	3
TAP	21	336	2
TAP	21	360	3
TAP	22	0	1
TAP	22	24	4
TAP	22	48	0
TAP	22	72	5
TAP	22	96	7
TAP	22	120	6
TAP	22	144	7
TAP	22	168	6
TAP	22	192	7
TAP	22	216	6
TAP	22	240	7
TAP	22	264	6
TAP	22	288	7
TAP	22	312	6
TAP	22	336	7
TAP	22	360	6
TAP	23	0	0
TAP	23	48	2
TAP	23	48	3
TAP	23	96	4
TAP	23	96	5
TAP	23	144	6
TAP	23	144	7
BRK	23	192	0
BRK	23	192	4
TAP	23	288	1
STR	23	288	7
SI_	23	288	7	96	48	3
STR	24	0	0
SI_	24	0	0	96	48	2
TAP	24	0	7
TAP	24	96	0
STR	24	96	6
SI_	24	96	6	96	48	4
TAP	24	192	6
TAP	24	192	7
TAP	24	264	7
TAP	24	288	7
TAP	24	336	0
TAP	24	336	6
TAP	25	0	1
TAP	25	0	5
STR	25	96	1
SI_	25	96	1	96	48	5
TAP	25	96	3
STR	25	192	0
SI_	25	192	0	96	48	6
TAP	25	192	1
TAP	25	288	0
STR	25	288	2
SI_	25	288	2	96	48	4
TAP	26	0	0
TAP	26	0	2
TAP	26	48	0
TAP	26	96	7
TAP	26	144	6
TAP	26	192	1
TAP	26	192	5
TAP	26	240	4
STR	26	288	3
SI_	26	288	3	96	48	7
TAP	26	288	5
TAP	27	0	3
STR	27	0	4
SI_	27	0	4	96	48	6
STR	27	96	2
SI_	27	96	2	96	48	0
TAP	27	96	4
TAP	27	192	2
TAP	27	192	3
TAP	27	288	2
HLD	27	288	4	96
TAP	28	0	6
STR	28	96	5
SI_	28	96	5	96	48	1
TAP	28	96	7
STR	28	192	4
SI_	28	192	4	96	48	2
TAP	28	192	5
TAP	28	288	4
STR	28	288	6
SI_	28	288	6	96	48	0
TAP	29	0	4
TAP	29	0	6
TAP	29	48	4
TAP	29	96	3
TAP	29	144	2
TAP	29	192	1
TAP	29	240	0
STR	29	288	7
SI_	29	288	7	96	48	3
STR	30	0	1
SI_	30	0	1	96	48	5
TAP	30	0	7
TAP	30	96	1
HLD	30	96	6	96
STR	30	192	2
SI_	30	192	2	96	48	6
TAP	30	288	2
STR	30	288	4
SI_	30	288	4	96	48	0
HLD	31	0	1	96
TAP	31	0	4
STR	31	96	5
SI_	31	96	5	96	48	1
STR	31	192	3
SI_	31	192	3	96	48	7
TAP	31	192	5
TAP	31	288	3
TAP	31	288	4
TAP	31	336	5
TAP	32	0	6
TAP	32	48	7
TAP	32	96	0
TAP	32	144	1
TAP	32	192	2
TAP	32	192	5
TAP	32	288	0
TAP	32	288	7
TAP	33	0	4
TAP	33	24	3
TAP	33	48	4
TAP	33	72	3
TAP	33	96	4
TAP	33	120	3
TAP	33	144	4
TAP	33	168	3
TAP	33	192	2
TAP	33	192	5
TAP	33	240	6
TAP	33	264	4
TAP	33	288	5
TAP	33	312	3
TAP	33	336	4
TAP	33	360	2
TAP	34	0	3
TAP	34	24	1
TAP	34	48	3
TAP	34	72	1
TAP	34	96	4
TAP	34	120	0
TAP	34	144	4
TAP	34	168	0
TAP	34	192	4
TAP	34	216	0
TAP	34	240	4
TAP	34	264	0
TAP	34	288	5
TAP	34	312	1
TAP	34	336	6
TAP	34	360	2
TAP	35	0	7
TAP	35	24	3
TAP	35	48	7
TAP	35	72	3
TAP	35	96	7
TAP	35	120	3
TAP	35	144	7
TAP	35	168	3
TAP	35	192	7
TAP	35	216	3
TAP	35	240	7
TAP	35	264	3
BRK	35	288	7
TAP	35	300	6
TAP	35	312	5
TAP	35	324	4
TAP	35	336	3
TAP	35	348	2
TAP	35	360	1
TAP	35	372	0
TAP	36	0	7
TAP	36	12	6
TAP	36	24	5
TAP	36	36	4
TAP	36	48	3
TAP	36	60	2
TAP	36	72	1
TAP	36	84	0
TAP	36	96	7
TAP	36	108	6
TAP	36	120	5
TAP	36	132	4
TAP	36	144	3
TAP	36	156	2
TAP	36	168	1
TAP	36	180	0
BRK	36	192	4
TAP	36	204	5
TAP	36	216	6
TAP	36	228	7
TAP	36	240	0
TAP	36	252	1
TAP	36	264	2
TAP	36	276	3
TAP	36	288	4
TAP	36	300	5
TAP	36	312	6
TAP	36	324	7
TAP	36	336	0
TAP	36	348	1
TAP	36	360	2
TAP	36	372	3
TAP	37	0	4
TAP	37	12	5
TAP	37	24	6
TAP	37	36	7
TAP	37	48	0
TAP	37	60	1
TAP	37	72	2
TAP	37	84	3
BRK	37	96	7
TAP	38	96	1
TAP	38	128	0
TAP	38	160	2
TAP	38	192	7
TAP	38	224	3
TAP	38	256	6
HLD	38	288	4	192
TAP	38	320	5
TAP	38	352	6
TAP	39	0	7
TAP	39	32	0
TAP	39	64	1
TAP	39	96	2
TAP	39	128	3
TAP	39	160	4
TAP	39	192	5
TAP	39	288	6
TAP	39	320	0
TAP	39	352	5
TAP	40	0	1
TAP	40	32	4
TAP	40	64	2
HLD	40	96	3	192
TAP	40	128	2
TAP	40	160	1
TAP	40	192	0
TAP	40	224	7
TAP	40	256	6
TAP	40	288	5
TAP	40	320	4
TAP	40	352	3
TAP	41	0	2
TAP	41	96	3
TAP	41	128	5
TAP	41	160	2
TAP	41	192	6
TAP	41	224	1
TAP	41	256	7
HLD	41	288	0	192
TAP	41	320	7
TAP	41	352	6
TAP	42	0	5
TAP	42	32	4
TAP	42	64	3
TAP	42	96	2
TAP	42	128	1
TAP	42	160	0
HLD	42	192	7	192
TAP	42	224	0
TAP	42	256	1
TAP	42	288	2
TAP	42	320	3
TAP	42	352	4
TAP	43	0	5
TAP	43	32	6
TAP	43	64	7
HLD	43	96	0	192
TAP	43	128	7
TAP	43	160	6
TAP	43	192	5
TAP	43	224	4
TAP	43	256	3
TAP	43	288	2
TAP	43	320	1
TAP	43	352	0
TAP	44	0	3
TAP	44	0	7
TAP	44	192	1
BRK	44	204	0
TAP	44	288	2
STR	44	288	5
SCR	44	288	5	96	96	0
STR	45	0	0
SUL	45	0	0	96	96	4
TAP	45	32	1
TAP	45	64	2
TAP	45	96	3
STR	45	192	2
SCL	45	192	2	96	96	7
STR	45	288	7
SUR	45	288	7	96	96	3
TAP	45	320	6
TAP	45	352	5
TAP	46	0	4
STR	46	96	5
SCR	46	96	5	96	96	1
STR	46	192	1
SUL	46	192	1	96	96	4
TAP	46	224	2
TAP	46	256	3
TAP	46	288	4
STR	47	0	2
SCL	47	0	2	96	96	6
STR	47	96	6
SUR	47	96	6	96	96	3
TAP	47	128	5
TAP	47	160	4
TAP	47	192	3
TAP	47	288	4
TAP	47	336	4
TAP	48	0	2
TAP	48	0	4
TAP	48	48	2
TAP	48	48	4
TAP	48	96	1
TAP	48	96	4
TAP	48	144	1
TAP	48	144	4
TAP	48	192	0
TAP	48	192	4
TAP	48	240	0
TAP	48	240	4
TAP	48	288	0
TAP	48	288	5
TAP	48	336	0
TAP	48	336	5
TAP	49	0	0
TAP	49	0	6
TAP	49	48	0
TAP	49	48	6
TAP	49	96	7
TAP	49	112	6
TAP	49	128	5
TAP	49	144	0
TAP	49	160	1
TAP	49	176	2
STR	49	192	6
SI_	49	192	6	96	48	2
TAP	49	208	5
TAP	49	224	4
TAP	49	240	1
TAP	49	256	2
TAP	49	272	3
TAP	49	288	6
TAP	50	0	0
TAP	50	16	1
TAP	50	32	2
TAP	50	48	7
TAP	50	64	6
TAP	50	80	5
STR	50	96	1
SI_	50	96	1	96	48	5
TAP	50	112	2
TAP	50	128	3
TAP	50	144	6
TAP	50	160	5
TAP	50	176	4
TAP	50	192	1
HLD	50	288	6	48
HLD	50	336	7	48
HLD	51	0	0	48
HLD	51	48	1	48
HLD	51	96	2	48
TAP	51	144	3
HLD	51	192	1	48
HLD	51	240	0	48
HLD	51	288	7	48
HLD	51	336	6	48
HLD	52	0	5	48
TAP	52	48	4
HLD	52	96	6	48
HLD	52	144	0	48
HLD	52	192	2	48
HLD	52	240	4	48
HLD	52	288	6	48
TAP	52	336	0
HLD	53	0	1	48
HLD	53	48	7	48
HLD	53	96	5	48
HLD	53	144	3	48
HLD	53	192	1	48
TAP	53	240	7
TAP	53	288	5
TAP	53	336	4
TAP	54	0	3
TAP	54	0	7
TAP	54	48	2
TAP	54	96	1
TAP	54	96	4
TAP	54	144	0
TAP	54	192	2
TAP	54	240	3
TAP	54	288	0
TAP	54	288	4
TAP	54	336	5
TAP	55	0	3
TAP	55	0	6
TAP	55	48	7
TAP	55	96	2
TAP	55	120	3
TAP	55	144	2
TAP	55	168	3
TAP	55	192	2
TAP	55	216	3
TAP	55	240	2
TAP	55	264	3
TAP	55	288	1
TAP	55	312	4
TAP	55	336	0
TAP	55	360	5
TAP	56	0	7
TAP	56	24	6
TAP	56	48	7
TAP	56	72	6
TAP	56	96	7
TAP	56	120	6
TAP	56	144	7
TAP	56	168	6
TAP	56	192	7
TAP	56	216	6
TAP	56	240	7
TAP	56	264	6
STR	56	288	7
SI_	56	288	7	96	48	3
TAP	56	336	7
STR	57	0	6
SI_	57	0	6	96	48	2
TAP	57	48	6
STR	57	96	0
SI_	57	96	0	96	48	4
TAP	57	144	0
STR	57	192	5
SI_	57	192	5	96	48	1
TAP	57	240	5
STR	57	288	3
SI_	57	288	3	96	48	7
TAP	57	336	3
STR	58	0	4
SI_	58	0	4	96	48	0
TAP	58	48	4
STR	58	96	1
SI_	58	96	1	96	48	5
TAP	58	144	1
TAP	58	192	1
STR	58	192	6
SI_	58	192	6	96	48	2
TAP	58	240	6
STR	58	288	0
SI_	58	288	0	96	48	4
TAP	58	288	6
TAP	58	336	0
TAP	59	0	0
STR	59	0	7
SI_	59	0	7	96	48	3
TAP	59	48	7
STR	59	96	2
SI_	59	96	2	96	48	6
TAP	59	96	7
TAP	59	144	2
TAP	59	192	2
STR	59	192	5
SI_	59	192	5	96	48	1
TAP	59	240	5
TAP	59	288	3
TAP	59	288	5
TAP	59	336	3
TAP	60	0	2
TAP	60	48	1
TAP	60	96	0
TAP	60	144	7
TAP	60	192	6
TAP	60	240	6
TAP	60	240	7
TAP	60	288	0
TAP	60	288	5
TAP	60	336	1
TAP	60	336	4
TAP	61	0	2
TAP	61	0	3
TAP	61	48	2
TAP	61	96	1
TAP	61	120	0
TAP	61	144	1
TAP	61	168	0
TAP	61	192	1
TAP	61	216	0
TAP	61	240	1
TAP	61	264	0
TAP	61	288	2
TAP	61	312	7
TAP	61	336	3
TAP	61	360	6
TAP	62	0	4
TAP	62	24	5
TAP	62	48	3
TAP	62	72	6
TAP	62	96	4
TAP	62	120	5
TAP	62	144	2
TAP	62	168	7
TAP	62	192	4
TAP	62	216	5
TAP	62	240	1
TAP	62	264	0
STR	62	288	4
SCR	62	288	4	96	768	3
STR	64	96	4
SCR	64	96	4	96	720	3
STR	65	336	4
SCR	65	336	4	96	312	3
STR	66	192	4
SCR	66	192	4	96	288	3
STR	67	48	4
SCR	67	48	4	96	240	3
STR	67	288	4
SCR	67	288	4	96	216	3
STR	68	144	4
SCR	68	144	4	96	192	3
STR	69	0	4
SCR	69	0	4	96	168	3
BST	70	0	0
SF_	70	0	0	96	48	4
TAP	70	96	0
TAP	70	192	6
TAP	70	240	0
TAP	70	240	5
HLD	70	288	0	48
HLD	70	288	5	48
TAP	71	0	2
TAP	71	0	7
HLD	71	48	2	48
HLD	71	48	7	48
TAP	71	144	0
TAP	71	144	6
TAP	71	168	1
TAP	71	168	5
TAP	71	192	2
TAP	71	192	4
TAP	71	240	7
TAP	71	288	1
TAP	71	312	5
TAP	71	336	2
TAP	71	360	4
HLD	72	0	3	48
TAP	72	48	5
TAP	72	96	2
TAP	72	96	4
HLD	72	144	2	48
HLD	72	144	4	48
TAP	72	240	5
TAP	72	240	7
HLD	72	288	5	48
HLD	72	288	7	48
TAP	73	0	0
TAP	73	0	2
HLD	73	48	0	48
HLD	73	48	2	48
TAP	73	144	1
TAP	73	144	7
TAP	73	168	2
TAP	73	168	6
TAP	73	192	3
TAP	73	192	5
TAP	73	240	0
TAP	73	288	4
TAP	73	312	3
TAP	73	336	4
TAP	73	360	3
TAP	74	0	5
TAP	74	24	2
TAP	74	48	6
TAP	74	72	1
TAP	74	96	0
TAP	74	96	7
TAP	74	144	1
TAP	74	168	2
TAP	74	192	3
TAP	74	240	0
TAP	74	240	7
TAP	74	288	6
TAP	74	312	5
TAP	74	336	4
TAP	75	0	2
TAP	75	0	3
TAP	75	48	2
TAP	75	96	5
TAP	75	96	7
TAP	75	144	5
TAP	75	192	1
TAP	75	192	7
TAP	75	240	1
TAP	75	288	4
TAP	75	312	3
TAP	75	336	5
TAP	75	360	2
TAP	76	0	6
TAP	76	24	1
TAP	76	48	7
TAP	76	72	0
TAP	76	96	6
TAP	76	120	1
TAP	76	144	6
TAP	76	168	2
TAP	76	192	6
TAP	76	216	3
TAP	76	240	6
TAP	76	264	4
TAP	76	288	6
TAP	76	312	3
TAP	76	336	6
TAP	76	360	2
TAP	77	0	6
TAP	77	24	1
TAP	77	48	6
TAP	77	72	0
TAP	77	96	5
TAP	77	120	1
TAP	77	144	5
TAP	77	168	2
TAP	77	192	5
TAP	77	216	3
TAP	77	240	5
TAP	77	264	4
TAP	77	288	5
TAP	77	312	3
TAP	77	336	5
TAP	77	360	2
TAP	78	0	5
TAP	78	24	1
TAP	78	48	5
TAP	78	72	0
TAP	78	96	4
TAP	78	120	3
TAP	78	144	1
TAP	78	168	2
TAP	78	192	4
TAP	78	216	3
TAP	78	240	1
TAP	78	264	2
TAP	78	288	4
TAP	78	312	3
TAP	78	336	1
TAP	78	360	2
TAP	79	0	4
TAP	79	24	3
TAP	79	48	1
TAP	79	72	2
TAP	79	96	6
TAP	79	120	5
TAP	79	144	3
TAP	79	168	4
TAP	79	192	6
TAP	79	216	5
TAP	79	240	3
TAP	79	264	4
TAP	79	288	6
TAP	79	312	5
TAP	79	336	3
TAP	79	360	4
TAP	80	0	6
TAP	80	24	5
TAP	80	48	3
TAP	80	72	4
STR	80	96	7
SI_	80	96	7	96	48	3
TAP	80	192	2
TAP	80	192	7
TAP	80	240	1
TAP	80	288	0
TAP	80	336	6
TAP	80	360	7
TAP	81	0	5
TAP	81	48	1
TAP	81	72	0
TAP	81	96	2
TAP	81	144	3
TAP	81	192	4
TAP	81	240	5
TAP	81	288	7
TAP	81	312	0
TAP	81	336	7
TAP	81	360	0
TAP	82	0	1
TAP	82	0	6
TAP	82	96	0
TAP	82	120	1
TAP	82	144	2
TAP	82	168	3
TAP	82	192	1
TAP	82	216	2
TAP	82	240	3
TAP	82	264	4
TAP	82	288	2
TAP	82	312	3
TAP	82	336	4
TAP	82	360	5
TAP	83	0	3
TAP	83	24	4
TAP	83	48	5
TAP	83	72	6
TAP	83	96	7
HLD	83	144	2	48
HLD	83	144	6	48
HLD	83	216	0	48
HLD	83	216	4	48
TAP	83	288	7
TAP	83	312	0
TAP	83	336	7
TAP	83	360	0
TAP	84	0	7
TAP	84	24	0
TAP	84	48	7
TAP	84	72	0
TAP	84	96	7
TAP	84	120	6
TAP	84	144	5
TAP	84	168	4
TAP	84	192	6
TAP	84	216	5
TAP	84	240	4
TAP	84	264	3
TAP	84	288	5
TAP	84	312	4
TAP	84	336	3
TAP	84	360	2
TAP	85	0	4
TAP	85	24	3
TAP	85	48	2
TAP	85	72	1
TAP	85	96	0
TAP	85	144	1
TAP	85	144	5
TAP	85	192	6
TAP	85	240	3
TAP	85	240	7
TAP	85	288	6
TAP	85	304	5
TAP	85	320	4
TAP	85	336	0
TAP	85	352	1
TAP	85	368	2
BRK	86	0	3
BRK	86	0	7
TAP	86	96	1
TAP	86	96	4
TAP	86	144	2
TAP	86	168	3
TAP	86	192	4
TAP	86	216	5
TAP	86	240	6
TAP	86	264	7
TAP	86	288	0
TAP	86	288	4
TAP	86	336	0
TAP	87	0	1
TAP	87	48	2
TAP	87	96	3
TAP	87	96	6
TAP	87	144	5
TAP	87	168	4
TAP	87	192	3
TAP	87	216	2
TAP	87	240	1
TAP	87	264	0
TAP	87	288	3
TAP	87	288	7
TAP	87	336	7
TAP	88	0	6
TAP	88	48	5
TAP	88	96	1
TAP	88	96	4
TAP	88	144	5
TAP	88	168	0
TAP	88	192	6
TAP	88	216	1
TAP	88	240	7
TAP	88	264	2
TAP	88	288	0
TAP	88	312	3
TAP	88	336	7
TAP	88	360	2
TAP	89	0	6
TAP	89	24	1
TAP	89	48	5
TAP	89	72	0
TAP	89	96	4
TAP	89	120	7
TAP	89	144	5
TAP	89	168	0
TAP	89	192	6
TAP	89	216	1
STR	89	240	7
SI_	89	240	7	96	48	3
TAP	89	336	0
TAP	89	336	7
TAP	90	0	0
TAP	90	24	1
TAP	90	48	2
TAP	90	72	3
TAP	90	96	4
TAP	90	96	5
TAP	90	144	2
TAP	90	168	4
TAP	90	192	1
TAP	90	216	5
TAP	90	240	0
TAP	90	264	6
TAP	90	288	7
TAP	90	312	0
TAP	90	336	1
TAP	90	360	2
TAP	91	0	7
TAP	91	24	6
TAP	91	48	5
TAP	91	72	4
TAP	91	96	2
TAP	91	96	3
TAP	91	144	5
TAP	91	168	3
TAP	91	192	6
TAP	91	216	2
TAP	91	240	7
TAP	91	264	1
TAP	91	288	0
TAP	91	312	7
TAP	91	336	6
TAP	91	360	5
HLD	92	0	0	48
TAP	92	48	7
TAP	92	96	1
TAP	92	96	6
TAP	92	144	0
TAP	92	168	7
TAP	92	192	1
TAP	92	192	6
TAP	92	240	5
TAP	92	264	4
TAP	92	288	3
TAP	92	288	6
TAP	92	336	2
TAP	92	360	3
TAP	93	0	1
TAP	93	0	4
TAP	93	48	4
TAP	93	72	3
TAP	93	96	2
TAP	93	96	5
TAP	93	144	7
TAP	93	168	0
TAP	93	192	7
TAP	93	216	0
TAP	93	240	7
TAP	93	264	0
TAP	93	288	7
TAP	93	300	6
TAP	93	312	5
TAP	93	324	4
TAP	93	336	3
TAP	93	348	2
TAP	93	360	1
TAP	93	372	0
TAP	94	0	7
TAP	94	12	6
TAP	94	24	5
TAP	94	36	4
TAP	94	48	3
TAP	94	60	2
TAP	94	72	1
TAP	94	84	0
BST	94	96	7
SXR	94	96	7	96	240	3
STR	95	96	0
SXL	95	96	0	96	240	4
STR	96	96	2
SXL	96	96	2	96	576	5
STR	96	96	6
SXL	96	96	6	96	576	1
STR	98	96	3
SXR	98	96	3	96	576	0
STR	98	96	7
SXR	98	96	7	96	576	4
STR	100	96	3
SXL	100	96	3	96	576	6
STR	100	96	7
SXL	100	96	7	96	576	2
STR	102	96	0
SXR	102	96	0	96	768	5
STR	102	96	4
SXR	102	96	4	96	768	1
HLD	104	288	0	744
HLD	104	288	6	744
TAP	106	276	1
TAP	106	276	5
TAP	106	288	2
TAP	106	288	4
TAP	106	300	3

T_REC_TAP	829
T_REC_BRK	10
T_REC_XTP	0
T_REC_HLD	56
T_REC_XHO	0
T_REC_STR	71
T_REC_BST	3
T_REC_XST	0
T_REC_TTP	0
T_REC_THO	0
T_REC_SLD	74
T_REC_ALL	1043
T_NUM_TAP	900
T_NUM_BRK	13
T_NUM_HLD	56
T_NUM_SLD	74
T_NUM_ALL	1043
T_JUDGE_TAP	913
T_JUDGE_HLD	130
T_JUDGE_SLD	74
T_JUDGE_ALL	1117
TTM_EACHPAIRS	137
TTM_SCR_TAP	450000
TTM_SCR_BRK	33800
TTM_SCR_HLD	56000
TTM_SCR_SLD	111000
TTM_SCR_ALL	650800
TTM_SCR_S	630050
TTM_SCR_SS	649500
TTM_RAT_ACV	10020

