VERSION	0.00.00	1.03.00
FES_MODE	0
BPM_DEF	188.000	188.000	188.000	188.000
MET_DEF	4	4
RESOLUTION	384
CLK_DEF	288
COMPATIBLE_CODE	MA2

BPM	0	0	188.000
MET	0	0	4	3
MET	9	288	4	4
MET	11	288	4	3
MET	70	96	4	4

TAP	1	192	2
TAP	1	288	3
TAP	2	0	1
TAP	2	0	4
TAP	2	96	5
TAP	2	192	4
TAP	2	288	3
TAP	2	288	6
TAP	3	0	2
TAP	3	96	1
TAP	3	96	3
TAP	3	192	0
TAP	3	192	4
TAP	3	288	5
TAP	4	0	4
TAP	4	0	6
TAP	4	96	3
TAP	4	96	7
TAP	4	192	1
TAP	4	288	0
TAP	5	0	2
TAP	5	0	7
TAP	5	96	6
TAP	5	192	7
TAP	5	288	0
TAP	5	288	5
TAP	6	0	3
TAP	6	0	4
TAP	6	96	2
TAP	6	96	5
TAP	6	192	1
TAP	6	192	6
TAP	6	288	0
TAP	6	336	7
TAP	7	0	0
BRK	7	96	1
BRK	7	96	6
TAP	9	288	1
TAP	9	288	3
TAP	9	336	1
TAP	9	336	3
TAP	10	48	4
TAP	10	48	6
TAP	10	96	4
TAP	10	96	6
TAP	10	192	2
TAP	10	192	5
TAP	10	288	1
TAP	10	288	6
TAP	11	0	0
TAP	11	0	7
BRK	11	96	0
BRK	11	192	7
TAP	11	288	1
TAP	11	288	4
TAP	12	0	2
TAP	12	48	3
TAP	12	96	2
TAP	12	192	3
TAP	12	192	6
TAP	12	288	5
TAP	12	336	4
TAP	13	0	5
TAP	13	96	1
TAP	13	96	4
TAP	13	192	2
TAP	13	192	3
TAP	13	288	4
TAP	13	288	6
TAP	14	0	0
TAP	14	48	1
TAP	14	96	2
TAP	14	144	3
TAP	14	192	4
TAP	14	240	5
TAP	14	288	6
TAP	14	288	7
TAP	15	0	5
TAP	15	48	4
TAP	15	96	3
TAP	15	192	0
TAP	15	192	1
TAP	15	288	5
TAP	15	288	7
TAP	16	0	1
TAP	16	0	4
TAP	16	96	3
TAP	16	96	6
TAP	16	192	4
TAP	16	192	5
TAP	16	288	1
TAP	16	288	3
TAP	17	0	7
TAP	17	48	6
TAP	17	96	5
TAP	17	144	4
TAP	17	192	3
TAP	17	240	2
HLD	17	288	0	96
TAP	17	288	1
TAP	18	0	6
TAP	18	96	3
TAP	18	96	5
HLD	18	192	0	96
TAP	18	192	6
TAP	18	288	3
TAP	19	0	2
TAP	19	0	4
TAP	19	96	3
TAP	19	96	6
TAP	19	192	0
TAP	19	192	7
TAP	19	288	2
TAP	19	336	3
TAP	20	0	4
TAP	20	48	5
TAP	20	96	6
TAP	20	144	7
TAP	20	192	0
TAP	20	240	7
HLD	20	288	2	288
TAP	20	288	6
TAP	21	0	4
TAP	21	48	4
TAP	21	96	5
TAP	21	144	5
HLD	21	192	6	288
TAP	21	288	4
TAP	21	336	4
TAP	22	0	2
TAP	22	48	2
HLD	22	96	1	288
TAP	22	192	0
TAP	22	240	0
TAP	22	288	7
TAP	22	336	7
TAP	23	0	6
TAP	23	48	4
TAP	23	96	3
TAP	23	144	1
BRK	23	192	0
BRK	23	192	7
TAP	23	288	1
TAP	23	288	4
TAP	24	0	2
TAP	24	0	3
TAP	24	48	2
TAP	24	96	2
TAP	24	96	3
TAP	24	192	0
TAP	24	192	6
TAP	24	288	4
TAP	24	288	5
TAP	24	336	5
TAP	25	0	3
TAP	25	0	5
TAP	25	96	1
TAP	25	96	4
TAP	25	192	3
TAP	25	192	7
TAP	25	288	0
TAP	25	288	1
TAP	26	0	7
TAP	26	48	6
TAP	26	96	5
TAP	26	144	4
TAP	26	192	3
TAP	26	240	2
TAP	26	288	0
TAP	26	288	1
TAP	27	0	4
TAP	27	0	5
TAP	27	48	3
TAP	27	48	6
TAP	27	96	2
TAP	27	96	7
TAP	27	192	0
TAP	27	192	4
TAP	27	288	5
TAP	27	288	6
TAP	28	0	1
TAP	28	0	3
TAP	28	96	0
TAP	28	96	6
TAP	28	192	5
TAP	28	192	7
TAP	28	288	0
TAP	28	288	1
TAP	29	0	2
TAP	29	48	3
TAP	29	96	4
TAP	29	144	5
TAP	29	192	6
TAP	29	240	7
TAP	29	288	0
HLD	29	288	1	96
HLD	30	0	2	96
TAP	30	96	4
HLD	30	192	6	96
TAP	30	192	7
HLD	30	288	4	96
TAP	31	0	2
TAP	31	96	1
TAP	31	96	2
TAP	31	192	3
TAP	31	192	6
TAP	31	288	7
TAP	31	336	0
TAP	32	0	1
TAP	32	48	2
TAP	32	96	3
TAP	32	144	4
TAP	32	192	3
TAP	32	240	4
TAP	32	288	2
TAP	32	288	5
TAP	33	0	4
TAP	33	0	5
TAP	33	48	4
TAP	33	48	5
TAP	33	96	4
TAP	33	96	5
TAP	33	192	1
TAP	33	192	3
TAP	33	240	1
TAP	33	240	3
TAP	33	288	1
TAP	33	288	3
TAP	34	0	1
TAP	34	0	6
TAP	34	96	0
TAP	34	144	0
TAP	34	192	7
TAP	34	240	7
TAP	34	288	0
TAP	34	336	0
TAP	35	0	6
TAP	35	48	6
TAP	35	96	1
TAP	35	144	1
TAP	35	192	6
TAP	35	240	6
TAP	35	288	0
TAP	35	312	7
TAP	35	336	0
TAP	35	360	7
TAP	36	0	0
TAP	36	24	7
TAP	36	48	0
TAP	36	72	7
TAP	36	96	0
TAP	36	120	7
TAP	36	144	0
TAP	36	168	7
TAP	36	192	0
TAP	36	216	7
TAP	36	240	0
TAP	36	264	7
TAP	36	288	0
TAP	36	312	7
TAP	36	336	0
TAP	36	360	7
TAP	37	0	0
TAP	37	24	7
TAP	37	48	0
TAP	37	72	7
STR	37	96	0
SUR	37	96	0	96	192	3
HLD	38	288	6	288
TAP	39	96	4
TAP	39	160	4
HLD	39	192	4	288
TAP	40	0	3
TAP	40	64	3
HLD	40	96	3	288
TAP	40	288	2
TAP	40	352	2
TAP	41	0	2
TAP	41	96	5
TAP	41	192	7
TAP	41	288	0
HLD	41	288	2	288
TAP	42	96	3
TAP	42	160	3
HLD	42	192	3	288
TAP	43	0	5
TAP	43	64	5
HLD	43	96	5	288
TAP	43	288	6
TAP	43	352	6
TAP	44	0	6
BRK	44	192	7
STR	44	288	0
SCR	44	288	0	96	96	3
TAP	45	0	7
TAP	45	96	6
STR	45	192	5
SCR	45	192	5	96	96	0
TAP	45	288	4
TAP	46	0	3
STR	46	96	2
SCR	46	96	2	96	96	5
TAP	46	192	1
STR	46	288	0
SXL	46	288	0	96	192	4
STR	47	288	7
SCL	47	288	7	96	96	4
TAP	48	0	0
TAP	48	96	1
STR	48	192	2
SCL	48	192	2	96	96	7
TAP	48	288	3
TAP	49	0	4
STR	49	96	5
SCL	49	96	5	96	96	2
TAP	49	192	6
STR	49	288	7
SXR	49	288	7	96	192	2
TAP	50	288	0
TAP	50	288	6
TAP	50	336	1
TAP	51	0	0
TAP	51	48	1
TAP	51	96	0
TAP	51	144	1
TAP	51	192	2
TAP	51	192	7
TAP	51	240	1
TAP	51	288	0
TAP	51	336	6
TAP	52	0	7
TAP	52	48	6
TAP	52	96	3
TAP	52	96	5
TAP	52	144	4
TAP	52	192	3
TAP	52	240	2
TAP	52	240	4
TAP	52	288	3
TAP	52	336	2
TAP	53	0	1
TAP	53	48	0
TAP	53	48	2
TAP	53	96	0
TAP	53	96	2
TAP	53	144	1
TAP	53	192	2
TAP	53	240	3
TAP	53	240	4
TAP	53	288	3
TAP	53	288	4
TAP	53	336	5
TAP	54	0	6
TAP	54	48	7
TAP	54	96	0
TAP	54	144	1
TAP	54	192	2
TAP	54	192	4
TAP	54	240	3
TAP	54	288	4
TAP	54	336	5
TAP	55	0	6
TAP	55	48	7
TAP	55	96	0
TAP	55	96	7
TAP	55	144	0
TAP	55	144	7
TAP	55	192	0
TAP	55	192	7
TAP	55	240	0
TAP	55	240	7
TAP	55	288	0
TAP	55	288	7
TAP	55	336	1
TAP	55	336	6
TAP	56	0	2
TAP	56	0	5
TAP	56	48	2
TAP	56	48	5
TAP	56	96	2
TAP	56	96	5
TAP	56	144	2
TAP	56	144	5
TAP	56	192	2
TAP	56	192	5
TAP	56	288	2
TAP	56	288	7
TAP	56	336	6
TAP	57	0	7
TAP	57	48	6
TAP	57	96	7
TAP	57	144	6
TAP	57	192	0
TAP	57	192	5
TAP	57	240	6
TAP	57	288	7
TAP	57	336	1
TAP	58	0	0
TAP	58	48	1
TAP	58	96	1
TAP	58	96	4
TAP	58	144	2
TAP	58	192	3
TAP	58	240	3
TAP	58	240	6
TAP	58	288	5
TAP	58	336	4
TAP	59	0	0
TAP	59	0	3
TAP	59	48	1
TAP	59	96	2
TAP	59	144	3
TAP	59	144	6
TAP	59	192	4
TAP	59	240	5
TAP	59	288	6
TAP	59	288	7
TAP	59	336	5
TAP	60	0	4
TAP	60	48	2
TAP	60	48	3
TAP	60	96	1
TAP	60	144	0
TAP	60	192	5
TAP	60	192	7
TAP	60	240	4
TAP	60	288	3
TAP	60	336	0
TAP	60	336	2
TAP	61	0	3
TAP	61	48	4
TAP	61	96	2
TAP	61	96	5
TAP	61	144	2
TAP	61	144	5
TAP	61	192	2
TAP	61	192	5
TAP	61	240	2
TAP	61	240	5
TAP	61	288	2
TAP	61	288	5
TAP	61	336	2
TAP	61	336	5
TAP	62	0	3
TAP	62	24	4
TAP	62	48	3
TAP	62	72	4
TAP	62	96	3
TAP	62	120	4
TAP	62	144	3
TAP	62	168	4
TAP	62	192	3
TAP	62	216	4
TAP	62	240	3
TAP	62	264	4
STR	62	288	3
SCR	62	288	3	96	480	1
STR	64	96	2
SCL	64	96	2	96	528	4
STR	65	336	3
SV_	65	336	3	96	144	2
STR	66	192	5
SV_	66	192	5	96	144	6
STR	67	48	0
SV_	67	48	0	96	144	1
BRK	67	288	7
TAP	70	0	1
TAP	70	0	6
TAP	70	96	1
TAP	70	96	3
TAP	70	144	2
TAP	70	192	3
TAP	70	192	6
TAP	70	240	5
TAP	70	288	0
TAP	70	288	4
TAP	71	0	2
TAP	71	0	3
TAP	71	48	1
TAP	71	96	0
TAP	71	96	4
TAP	71	144	5
TAP	71	192	6
TAP	71	192	7
TAP	71	288	0
TAP	71	288	4
TAP	71	336	1
TAP	71	336	5
TAP	72	0	2
TAP	72	0	6
TAP	72	48	3
TAP	72	48	7
TAP	72	96	4
TAP	72	96	6
TAP	72	144	5
TAP	72	192	2
TAP	72	192	4
TAP	72	240	3
TAP	72	288	4
TAP	72	288	7
BRK	73	0	0
BRK	73	0	5
BRK	73	48	1
BRK	73	48	6
TAP	73	144	5
TAP	73	192	1
TAP	73	192	4
TAP	73	240	2
TAP	73	288	3
TAP	73	288	6
TAP	73	336	2
TAP	73	336	5
TAP	74	0	1
TAP	74	0	4
TAP	74	48	0
TAP	74	48	3
TAP	74	96	4
TAP	74	96	7
TAP	74	144	5
TAP	74	192	6
TAP	74	240	1
TAP	74	240	7
TAP	74	288	2
TAP	74	336	3
TAP	75	0	4
TAP	75	0	7
TAP	75	48	6
STR	75	96	5
SI_	75	96	5	96	48	2
TAP	75	96	7
STR	75	192	0
SI_	75	192	0	96	48	4
STR	75	288	6
SI_	75	288	6	96	48	3
TAP	76	0	2
TAP	76	96	1
TAP	76	120	0
TAP	76	144	1
TAP	76	168	0
TAP	76	192	1
TAP	76	216	0
TAP	76	240	1
TAP	76	264	0
TAP	76	288	1
TAP	76	312	0
TAP	76	336	1
TAP	76	360	0
TAP	77	0	1
TAP	77	96	6
TAP	77	120	7
TAP	77	144	6
TAP	77	168	7
TAP	77	192	6
TAP	77	216	7
TAP	77	240	6
TAP	77	264	7
TAP	77	288	6
TAP	77	312	7
TAP	77	336	6
TAP	77	360	7
TAP	78	0	6
HLD	78	96	2	48
TAP	78	144	3
HLD	78	192	6	48
TAP	78	240	5
HLD	78	288	0	48
TAP	78	336	1
HLD	79	0	5	48
TAP	79	48	6
HLD	79	96	3	48
TAP	79	144	2
HLD	79	192	7	48
TAP	79	240	6
HLD	79	288	2	48
TAP	79	336	1
HLD	80	0	5	48
TAP	80	48	4
TAP	80	96	3
TAP	80	96	7
TAP	80	144	2
TAP	80	192	1
TAP	80	240	0
TAP	80	240	4
TAP	80	288	5
TAP	80	336	6
STR	81	0	4
SI_	81	0	4	96	48	0
TAP	81	0	7
STR	81	96	6
SI_	81	96	6	96	48	1
STR	81	192	4
SI_	81	192	4	96	48	7
BRK	81	288	5
BRK	81	336	5
TAP	82	96	0
TAP	82	96	4
TAP	82	144	1
TAP	82	192	2
TAP	82	192	7
TAP	82	240	6
TAP	82	288	5
TAP	82	288	7
TAP	82	336	4
TAP	83	0	0
STR	83	0	3
SI_	83	0	3	96	48	7
STR	83	96	2
SI_	83	96	2	96	48	5
STR	83	192	3
SI_	83	192	3	96	96	0
TAP	83	288	1
TAP	83	336	1
TAP	84	0	1
TAP	84	96	3
TAP	84	96	7
TAP	84	144	6
TAP	84	192	2
TAP	84	192	5
TAP	84	240	1
TAP	84	288	0
TAP	84	288	4
TAP	84	336	5
TAP	85	0	2
TAP	85	0	6
TAP	85	48	1
TAP	85	96	0
TAP	85	96	4
TAP	85	144	5
TAP	85	192	3
TAP	85	192	6
TAP	85	240	7
TAP	85	288	0
TAP	85	288	4
TAP	85	336	7
BRK	86	0	1
BRK	86	0	6
TAP	86	96	3
TAP	86	96	5
TAP	86	144	1
TAP	86	192	0
TAP	86	192	4
TAP	86	240	3
TAP	86	288	2
TAP	86	288	4
TAP	86	336	6
TAP	87	0	3
TAP	87	0	7
TAP	87	48	4
TAP	87	96	3
TAP	87	96	5
TAP	87	144	1
TAP	87	192	0
TAP	87	192	4
TAP	87	240	3
STR	87	288	2
SI_	87	288	2	96	48	7
TAP	87	288	4
TAP	87	336	5
TAP	88	0	6
TAP	88	96	0
TAP	88	96	4
TAP	88	144	6
TAP	88	192	3
TAP	88	192	7
TAP	88	240	4
TAP	88	288	3
TAP	88	288	6
TAP	88	336	1
TAP	89	0	0
TAP	89	0	4
TAP	89	48	3
TAP	89	96	1
TAP	89	96	4
TAP	89	144	6
TAP	89	192	2
TAP	89	192	7
TAP	89	240	3
STR	89	288	4
SI_	89	288	4	96	48	0
TAP	89	288	5
TAP	89	336	6
TAP	90	0	5
TAP	90	96	1
TAP	90	96	3
TAP	90	144	4
TAP	90	192	4
TAP	90	192	5
TAP	90	240	6
TAP	90	288	0
TAP	90	288	6
TAP	90	336	1
TAP	91	0	2
TAP	91	48	3
TAP	91	96	4
TAP	91	96	6
TAP	91	144	3
TAP	91	192	2
TAP	91	192	3
TAP	91	240	1
TAP	91	288	1
TAP	91	288	7
TAP	91	336	6
TAP	92	0	5
TAP	92	48	4
TAP	92	96	3
TAP	92	96	4
TAP	92	144	3
TAP	92	144	4
TAP	92	192	2
TAP	92	192	5
TAP	92	240	2
TAP	92	240	5
TAP	92	288	1
TAP	92	288	6
TAP	92	336	1
TAP	92	336	6
TAP	93	0	0
TAP	93	0	7
TAP	93	48	0
TAP	93	48	7
TAP	93	96	0
TAP	93	120	7
TAP	93	144	0
TAP	93	168	7
TAP	93	192	0
TAP	93	216	7
TAP	93	240	0
TAP	93	264	7
TAP	93	288	1
TAP	93	312	6
TAP	93	336	0
TAP	93	360	7
TAP	94	0	1
TAP	94	24	6
TAP	94	48	0
TAP	94	72	7
STR	94	96	0
SCL	94	96	0	96	4512	2
HLD	95	96	1	288
HLD	96	96	0	672
HLD	98	96	7	672
HLD	100	96	6	672
HLD	102	96	5	864
HLD	104	288	4	480
STR	106	96	4
SSL	106	96	4	96	96	0
STR	106	288	1
SI_	106	288	1	96	48	5

T_REC_TAP	647
T_REC_BRK	16
T_REC_XTP	0
T_REC_HLD	29
T_REC_XHO	0
T_REC_STR	28
T_REC_BST	0
T_REC_XST	0
T_REC_TTP	0
T_REC_THO	0
T_REC_SLD	28
T_REC_ALL	748
T_NUM_TAP	675
T_NUM_BRK	16
T_NUM_HLD	29
T_NUM_SLD	28
T_NUM_ALL	748
T_JUDGE_TAP	691
T_JUDGE_HLD	150
T_JUDGE_SLD	28
T_JUDGE_ALL	869
TTM_EACHPAIRS	175
TTM_SCR_TAP	337500
TTM_SCR_BRK	41600
TTM_SCR_HLD	29000
TTM_SCR_SLD	42000
TTM_SCR_ALL	450100
TTM_SCR_S	435050
TTM_SCR_SS	448500
TTM_RAT_ACV	10035

