VERSION	0.00.00	1.03.00
FES_MODE	0
BPM_DEF	188.000	188.000	188.000	188.000
MET_DEF	4	4
RESOLUTION	384
CLK_DEF	288
COMPATIBLE_CODE	MA2

BPM	0	0	188.000
MET	0	0	4	3
MET	9	288	4	4
MET	11	288	4	3
MET	70	96	4	4

TAP	1	192	4
TAP	1	288	4
TAP	2	0	4
TAP	2	96	3
TAP	2	192	3
TAP	2	288	3
TAP	3	0	2
TAP	3	96	2
TAP	3	192	2
TAP	3	288	1
TAP	4	0	1
TAP	4	96	1
TAP	4	192	3
TAP	4	288	3
TAP	5	0	3
TAP	5	96	4
TAP	5	192	4
TAP	5	288	4
TAP	6	0	5
TAP	6	96	5
TAP	6	192	5
TAP	6	288	6
TAP	7	0	6
STR	7	96	6
SCL	7	96	6	96	576	1
TAP	9	288	0
TAP	9	288	7
TAP	10	0	0
TAP	10	0	7
TAP	10	96	0
TAP	10	96	7
TAP	10	192	1
TAP	10	192	6
TAP	10	288	1
TAP	10	288	6
TAP	11	0	1
TAP	11	0	6
TAP	11	96	3
BRK	11	192	4
TAP	11	288	2
TAP	12	0	3
TAP	12	96	1
TAP	12	96	4
TAP	12	192	5
TAP	12	288	4
TAP	13	0	3
TAP	13	0	6
TAP	13	96	2
TAP	13	192	1
TAP	13	288	0
TAP	13	288	2
TAP	14	0	0
TAP	14	0	7
TAP	14	96	0
TAP	14	96	7
TAP	14	192	1
TAP	14	192	6
TAP	14	288	5
TAP	15	0	4
TAP	15	96	3
TAP	15	96	6
TAP	15	192	2
TAP	15	288	3
TAP	16	0	1
TAP	16	0	4
TAP	16	96	5
TAP	16	192	6
TAP	16	288	5
TAP	16	288	7
TAP	17	0	0
TAP	17	0	7
TAP	17	96	0
TAP	17	96	7
TAP	17	192	1
TAP	17	192	6
HLD	17	288	2	96
TAP	18	0	3
TAP	18	96	2
TAP	18	96	3
HLD	18	192	5	96
TAP	18	288	4
TAP	19	0	4
TAP	19	0	5
TAP	19	96	2
TAP	19	192	1
TAP	19	288	0
TAP	20	0	7
TAP	20	96	6
TAP	20	192	5
HLD	20	288	3	192
HLD	20	288	4	192
HLD	21	192	1	192
HLD	21	192	3	192
HLD	22	96	4	192
HLD	22	96	6	192
TAP	23	0	0
TAP	23	0	7
TAP	23	96	0
TAP	23	96	7
BRK	23	192	1
BRK	23	192	6
TAP	23	288	5
TAP	24	0	4
TAP	24	96	3
TAP	24	96	6
TAP	24	192	2
TAP	24	288	3
TAP	25	0	1
TAP	25	0	4
TAP	25	96	5
TAP	25	192	6
TAP	25	288	5
TAP	25	288	7
TAP	26	0	0
TAP	26	0	7
TAP	26	96	0
TAP	26	96	7
TAP	26	192	1
TAP	26	192	6
TAP	26	288	2
TAP	27	0	3
TAP	27	96	1
TAP	27	96	4
TAP	27	192	5
TAP	27	288	4
TAP	28	0	3
TAP	28	0	6
TAP	28	96	2
TAP	28	192	1
TAP	28	288	0
TAP	28	288	2
TAP	29	0	0
TAP	29	0	7
TAP	29	96	0
TAP	29	96	7
TAP	29	192	1
TAP	29	192	6
HLD	29	288	5	96
TAP	30	0	4
TAP	30	96	4
TAP	30	96	5
HLD	30	192	2	96
TAP	30	288	3
TAP	31	0	2
TAP	31	0	3
TAP	31	96	5
TAP	31	192	6
TAP	31	288	7
TAP	32	0	0
TAP	32	96	1
TAP	32	192	2
HLD	32	288	3	192
HLD	32	288	4	192
HLD	33	192	4	192
HLD	33	192	6	192
HLD	34	96	1	192
HLD	34	96	3	192
HLD	35	0	6	192
HLD	35	0	7	192
HLD	35	288	0	192
HLD	35	288	1	192
HLD	36	192	0	192
HLD	36	192	7	192
BRK	37	96	1
BRK	37	96	6
HLD	38	288	3	288
TAP	38	288	4
HLD	39	192	2	288
HLD	40	96	1	288
TAP	41	0	0
TAP	41	96	7
TAP	41	192	6
TAP	41	288	3
HLD	41	288	4	288
HLD	42	192	5	288
HLD	43	96	6	288
TAP	44	0	7
TAP	44	192	3
TAP	44	192	4
TAP	44	288	2
TAP	45	0	1
TAP	45	0	3
TAP	45	96	0
TAP	45	96	4
TAP	45	192	5
TAP	45	288	4
TAP	45	288	6
TAP	46	0	3
TAP	46	0	7
TAP	46	96	2
TAP	46	192	1
TAP	46	192	3
TAP	46	288	0
TAP	46	288	4
STR	47	0	6
SI_	47	0	6	96	96	3
STR	47	0	7
SI_	47	0	7	96	96	2
TAP	47	288	5
TAP	48	0	4
TAP	48	0	6
TAP	48	96	3
TAP	48	96	7
TAP	48	192	2
TAP	48	288	1
TAP	48	288	3
TAP	49	0	0
TAP	49	0	4
TAP	49	96	5
TAP	49	192	4
TAP	49	192	6
TAP	49	288	3
TAP	49	288	7
STR	50	0	0
SI_	50	0	0	96	96	5
STR	50	0	1
SI_	50	0	1	96	96	4
TAP	50	288	2
TAP	50	288	3
TAP	51	0	3
TAP	51	0	5
TAP	51	96	6
TAP	51	96	7
TAP	51	192	4
TAP	51	192	5
TAP	51	288	2
TAP	51	288	4
TAP	52	0	0
TAP	52	0	1
STR	52	96	0
SXL	52	96	0	96	288	3
STR	52	96	7
SXR	52	96	7	96	288	4
HLD	53	288	2	96
TAP	54	0	3
TAP	54	96	1
TAP	54	96	4
HLD	54	192	5	96
TAP	54	288	4
TAP	55	0	3
TAP	55	0	6
STR	55	96	2
SI_	55	96	2	96	96	7
STR	55	96	3
SI_	55	96	3	96	96	6
STR	56	0	4
SI_	56	0	4	96	96	1
STR	56	0	5
SI_	56	0	5	96	96	0
TAP	56	288	4
TAP	56	288	5
TAP	57	0	2
TAP	57	0	4
TAP	57	96	0
TAP	57	96	1
TAP	57	192	2
TAP	57	192	3
TAP	57	288	3
TAP	57	288	5
TAP	58	0	6
TAP	58	0	7
HLD	58	96	1	96
TAP	58	192	0
TAP	58	288	2
TAP	58	288	7
HLD	59	0	6	96
TAP	59	96	7
TAP	59	192	0
TAP	59	192	5
HLD	59	288	2	96
TAP	60	0	3
TAP	60	96	0
TAP	60	96	4
HLD	60	192	5	96
TAP	60	288	4
TAP	61	0	3
TAP	61	0	7
STR	61	96	0
SI_	61	96	0	96	96	5
STR	61	96	1
SI_	61	96	1	96	96	4
STR	62	0	6
SI_	62	0	6	96	96	3
STR	62	0	7
SI_	62	0	7	96	96	2
TAP	62	288	1
HLD	62	288	6	576
HLD	64	96	4	624
HLD	65	336	3	240
HLD	66	192	2	240
HLD	67	48	1	240
HLD	67	288	0	864
BRK	70	0	7
TAP	70	96	2
TAP	70	192	1
TAP	70	192	3
TAP	70	288	5
TAP	71	0	4
TAP	71	0	6
TAP	71	96	2
TAP	71	96	3
TAP	71	192	0
TAP	71	192	5
TAP	71	288	6
TAP	71	336	6
TAP	72	0	7
TAP	72	96	5
TAP	72	192	4
TAP	72	192	6
TAP	72	288	2
TAP	73	0	1
TAP	73	0	3
TAP	73	96	4
TAP	73	96	5
TAP	73	192	2
TAP	73	192	7
TAP	73	288	1
TAP	73	336	1
TAP	74	0	0
TAP	74	96	2
TAP	74	96	3
TAP	74	192	0
TAP	74	192	5
TAP	74	288	4
TAP	74	288	5
TAP	75	0	2
TAP	75	0	7
TAP	75	96	0
TAP	75	96	7
TAP	75	192	1
TAP	75	192	6
TAP	75	288	2
TAP	75	288	5
TAP	76	0	3
TAP	76	0	4
TAP	76	96	2
TAP	76	144	3
TAP	76	192	2
TAP	76	240	3
TAP	76	288	2
TAP	76	336	3
TAP	77	0	2
TAP	77	96	5
TAP	77	144	4
TAP	77	192	5
TAP	77	240	4
TAP	77	288	5
TAP	77	336	4
TAP	78	0	5
TAP	78	96	2
TAP	78	144	2
TAP	78	192	3
TAP	78	288	5
TAP	78	336	5
TAP	79	0	4
TAP	79	96	1
TAP	79	144	1
TAP	79	192	3
TAP	79	288	6
TAP	79	336	6
TAP	80	0	4
TAP	80	96	2
TAP	80	96	3
TAP	80	192	4
TAP	80	192	5
TAP	80	288	1
TAP	80	288	3
TAP	81	0	4
TAP	81	0	6
STR	81	96	0
SI_	81	96	0	96	96	3
STR	81	96	7
SI_	81	96	7	96	96	4
TAP	82	96	2
TAP	82	144	3
TAP	82	192	2
TAP	82	288	5
TAP	82	336	4
TAP	83	0	5
TAP	83	96	1
TAP	83	144	0
TAP	83	192	1
TAP	83	288	6
TAP	83	336	7
TAP	84	0	6
TAP	84	96	0
TAP	84	96	1
TAP	84	192	6
TAP	84	192	7
TAP	84	288	0
TAP	84	288	2
TAP	85	0	5
TAP	85	0	7
TAP	85	96	1
TAP	85	96	3
TAP	85	192	4
TAP	85	192	6
BRK	85	288	0
BRK	85	288	7
TAP	86	96	2
TAP	86	144	3
TAP	86	192	2
TAP	86	240	3
HLD	86	288	2	96
TAP	87	0	0
TAP	87	96	5
TAP	87	144	4
TAP	87	192	5
TAP	87	240	4
HLD	87	288	5	96
TAP	88	0	7
TAP	88	96	1
TAP	88	144	3
TAP	88	192	1
TAP	88	240	3
HLD	88	288	1	96
TAP	89	0	0
TAP	89	96	6
TAP	89	144	4
TAP	89	192	6
TAP	89	240	4
HLD	89	288	6	96
TAP	90	0	7
TAP	90	96	2
TAP	90	144	3
TAP	90	192	2
TAP	90	288	6
TAP	90	336	7
TAP	91	0	6
TAP	91	96	1
TAP	91	144	0
TAP	91	192	1
TAP	91	288	5
TAP	91	336	4
TAP	92	0	5
TAP	92	96	1
TAP	92	96	3
TAP	92	144	1
TAP	92	144	3
TAP	92	192	1
TAP	92	192	3
TAP	92	288	4
TAP	92	288	6
TAP	92	336	4
TAP	92	336	6
TAP	93	0	4
TAP	93	0	6
TAP	93	96	0
TAP	93	96	7
TAP	93	144	0
TAP	93	144	7
TAP	93	192	1
TAP	93	192	6
TAP	93	240	1
TAP	93	240	6
TAP	93	288	2
TAP	93	288	5
TAP	93	336	2
TAP	93	336	5
TAP	94	0	3
TAP	94	0	4
HLD	94	96	2	384
TAP	94	96	3
HLD	95	96	1	384
HLD	96	96	0	768
HLD	98	96	7	768
HLD	100	96	6	768
HLD	102	96	5	960
HLD	104	288	4	768
BRK	106	288	3

T_REC_TAP	376
T_REC_BRK	9
T_REC_XTP	0
T_REC_HLD	51
T_REC_XHO	0
T_REC_STR	17
T_REC_BST	0
T_REC_XST	0
T_REC_TTP	0
T_REC_THO	0
T_REC_SLD	17
T_REC_ALL	470
T_NUM_TAP	393
T_NUM_BRK	9
T_NUM_HLD	51
T_NUM_SLD	17
T_NUM_ALL	470
T_JUDGE_TAP	402
T_JUDGE_HLD	294
T_JUDGE_SLD	17
T_JUDGE_ALL	713
TTM_EACHPAIRS	130
TTM_SCR_TAP	196500
TTM_SCR_BRK	23400
TTM_SCR_HLD	51000
TTM_SCR_SLD	25500
TTM_SCR_ALL	296400
TTM_SCR_S	286650
TTM_SCR_SS	295500
TTM_RAT_ACV	10030

