VERSION	0.00.00	1.03.00
FES_MODE	0
BPM_DEF	188.000	188.000	188.000	188.000
MET_DEF	4	4
RESOLUTION	384
CLK_DEF	288
COMPATIBLE_CODE	MA2

BPM	0	0	188.000
MET	0	0	4	3
MET	9	288	4	4
MET	11	288	4	3
MET	70	96	4	4

HLD	1	192	0	288
HLD	3	0	1	288
HLD	4	192	2	288
HLD	6	0	3	288
BRK	7	192	4
TAP	11	288	3
TAP	12	96	3
TAP	12	192	3
TAP	13	0	2
TAP	13	96	2
TAP	13	288	2
TAP	14	0	2
TAP	14	96	1
TAP	14	192	1
TAP	14	288	0
TAP	14	288	1
TAP	15	96	0
TAP	15	192	0
TAP	16	0	7
TAP	16	96	7
TAP	16	288	7
TAP	17	0	7
TAP	17	96	6
TAP	17	192	6
TAP	17	288	6
TAP	17	288	7
TAP	18	96	5
TAP	18	192	5
TAP	19	0	4
TAP	19	96	4
TAP	19	288	4
TAP	20	0	4
TAP	20	96	3
TAP	20	192	3
TAP	20	288	3
TAP	20	288	4
TAP	21	96	2
TAP	21	192	2
TAP	22	0	1
TAP	22	96	1
TAP	22	288	0
BRK	23	0	0
BRK	23	0	7
TAP	23	288	0
TAP	24	96	1
TAP	24	192	1
TAP	25	0	2
TAP	25	96	2
TAP	25	288	2
TAP	26	0	2
TAP	26	96	3
TAP	26	192	3
TAP	26	288	3
TAP	26	288	4
TAP	27	96	4
TAP	27	192	4
TAP	28	0	5
TAP	28	96	5
TAP	28	288	5
TAP	29	0	5
TAP	29	96	6
TAP	29	192	6
TAP	29	288	6
TAP	29	288	7
TAP	30	96	7
TAP	30	192	7
TAP	31	0	0
TAP	31	96	0
TAP	31	288	0
TAP	32	0	0
TAP	32	96	1
TAP	32	192	1
TAP	32	288	0
TAP	32	288	1
TAP	33	96	2
TAP	33	192	2
TAP	34	0	3
TAP	34	96	3
TAP	34	288	3
TAP	35	0	3
TAP	35	96	4
TAP	35	192	4
TAP	35	288	3
TAP	35	288	4
TAP	36	192	3
TAP	36	192	4
BRK	37	96	2
BRK	37	96	5
TAP	38	288	3
TAP	39	0	3
TAP	39	192	2
TAP	39	288	2
TAP	40	96	1
TAP	40	192	1
TAP	41	0	0
TAP	41	96	0
TAP	41	288	7
TAP	42	0	7
TAP	42	192	6
TAP	42	288	6
TAP	43	96	5
TAP	43	192	5
TAP	44	0	3
TAP	44	0	4
TAP	44	288	4
TAP	45	0	4
TAP	45	96	4
TAP	45	192	5
TAP	45	288	5
TAP	46	0	5
TAP	46	96	6
TAP	46	192	6
TAP	46	288	6
TAP	47	0	7
TAP	47	96	7
TAP	47	192	7
TAP	47	288	0
TAP	48	0	0
TAP	48	96	0
TAP	48	192	1
TAP	48	288	1
TAP	49	0	1
TAP	49	96	2
TAP	49	192	2
TAP	49	288	2
TAP	50	0	3
TAP	50	96	3
TAP	50	192	3
TAP	50	288	3
TAP	50	288	4
TAP	51	0	3
TAP	51	0	4
TAP	51	192	4
TAP	51	192	5
TAP	51	288	4
TAP	51	288	5
TAP	52	96	3
TAP	52	96	4
TAP	52	192	3
TAP	52	192	4
TAP	53	0	2
TAP	53	0	3
TAP	53	96	2
TAP	53	96	3
TAP	53	288	4
TAP	54	0	4
TAP	54	96	4
TAP	54	192	5
TAP	54	288	5
TAP	55	0	5
TAP	55	96	6
TAP	55	192	6
TAP	55	288	6
TAP	56	0	7
TAP	56	96	7
TAP	56	192	7
TAP	56	288	0
TAP	56	288	7
TAP	57	0	0
TAP	57	0	7
TAP	57	192	0
TAP	57	192	1
TAP	57	288	0
TAP	57	288	1
TAP	58	96	0
TAP	58	96	7
TAP	58	192	0
TAP	58	192	7
TAP	59	0	6
TAP	59	0	7
TAP	59	96	6
TAP	59	96	7
STR	59	288	7
SI_	59	288	7	96	480	3
BRK	62	288	0
TAP	70	96	7
TAP	70	192	0
TAP	70	288	1
TAP	70	288	7
TAP	71	96	1
TAP	71	192	1
TAP	71	288	2
TAP	72	0	2
TAP	72	96	3
TAP	72	192	4
TAP	72	288	3
TAP	72	288	5
TAP	73	96	4
TAP	73	192	4
TAP	73	288	5
TAP	74	0	5
TAP	74	96	6
TAP	74	192	7
TAP	74	288	0
TAP	74	288	6
TAP	75	96	7
TAP	75	192	7
TAP	75	288	6
TAP	76	0	6
TAP	76	96	5
TAP	76	192	4
TAP	76	288	3
TAP	76	288	5
TAP	77	96	2
TAP	77	192	2
TAP	77	288	1
BRK	78	0	1
TAP	78	96	0
TAP	78	192	7
TAP	78	288	0
TAP	78	288	6
TAP	79	96	6
TAP	79	192	6
TAP	79	288	5
TAP	80	0	5
TAP	80	96	4
TAP	80	192	3
TAP	80	288	2
TAP	80	288	4
TAP	81	96	3
TAP	81	192	3
TAP	81	288	2
TAP	82	0	2
TAP	82	96	1
TAP	82	192	0
TAP	82	288	1
TAP	82	288	7
TAP	83	96	0
TAP	83	192	0
TAP	83	288	1
TAP	84	0	1
TAP	84	96	2
TAP	84	192	3
TAP	84	288	2
TAP	84	288	4
TAP	85	96	5
TAP	85	192	5
TAP	85	288	6
TAP	86	0	6
STR	86	96	7
SI_	86	96	7	96	288	3
TAP	87	288	0
TAP	88	0	0
TAP	88	0	7
STR	88	96	0
SI_	88	96	0	96	288	4
TAP	89	288	6
TAP	90	0	6
TAP	90	0	7
STR	90	96	6
SI_	90	96	6	96	288	2
TAP	91	288	1
TAP	92	0	0
TAP	92	0	1
STR	92	96	1
SI_	92	96	1	96	288	5
TAP	93	288	7
TAP	94	0	0
TAP	94	0	7
TAP	94	96	0
TAP	94	96	7
TAP	95	96	1
TAP	95	96	6
HLD	96	96	2	576
HLD	96	96	5	576
TAP	98	96	2
TAP	98	96	5
TAP	100	96	3
TAP	100	96	4
HLD	102	96	3	672
HLD	102	96	4	672
BRK	104	288	3
BRK	104	288	4

T_REC_TAP	246
T_REC_BRK	9
T_REC_XTP	0
T_REC_HLD	8
T_REC_XHO	0
T_REC_STR	5
T_REC_BST	0
T_REC_XST	0
T_REC_TTP	0
T_REC_THO	0
T_REC_SLD	5
T_REC_ALL	273
T_NUM_TAP	251
T_NUM_BRK	9
T_NUM_HLD	8
T_NUM_SLD	5
T_NUM_ALL	273
T_JUDGE_TAP	260
T_JUDGE_HLD	76
T_JUDGE_SLD	5
T_JUDGE_ALL	341
TTM_EACHPAIRS	46
TTM_SCR_TAP	125500
TTM_SCR_BRK	23400
TTM_SCR_HLD	8000
TTM_SCR_SLD	7500
TTM_SCR_ALL	164400
TTM_SCR_S	158600
TTM_SCR_SS	163500
TTM_RAT_ACV	10055

