VERSION	0.00.00	1.03.00
FES_MODE	0
BPM_DEF	191.970	191.970	191.970	191.970
MET_DEF	4	4
RESOLUTION	384
CLK_DEF	384
COMPATIBLE_CODE	MA2

BPM	0	0	191.970
MET	0	0	4	4

HLD	1	0	5	96
TAP	1	96	4
TAP	1	192	3
TAP	1	192	4
TAP	1	256	3
TAP	1	256	4
TAP	1	352	2
TAP	2	64	2
TAP	2	96	3
TAP	2	192	5
TAP	2	288	4
TAP	2	288	6
HLD	3	0	2	96
TAP	3	96	3
TAP	3	192	3
TAP	3	192	4
TAP	3	256	3
TAP	3	256	4
TAP	3	352	5
TAP	4	64	5
TAP	4	96	4
TAP	4	192	2
TAP	4	288	1
TAP	4	288	3
HLD	5	0	5	96
TAP	5	96	4
TAP	5	192	3
TAP	5	192	4
TAP	5	256	3
TAP	5	256	4
TAP	5	352	2
TAP	6	64	2
TAP	6	96	3
TAP	6	192	5
TAP	6	288	4
TAP	6	288	6
HLD	7	0	2	96
TAP	7	96	3
TAP	7	192	3
HLD	7	192	4	384
TAP	8	0	5
TAP	8	96	5
TAP	8	192	5
BRK	8	288	3
BRK	8	288	4
STR	9	0	2
SCR	9	0	2	96	48	5
TAP	9	0	3
TAP	9	96	7
TAP	9	192	4
STR	9	192	5
SCL	9	192	5	96	48	2
TAP	9	288	0
STR	10	0	2
SCR	10	0	2	96	48	5
TAP	10	0	3
TAP	10	96	7
STR	10	192	6
SCL	10	192	6	96	48	3
TAP	10	192	7
TAP	10	288	2
STR	11	0	2
SCR	11	0	2	96	48	5
TAP	11	0	3
TAP	11	96	7
TAP	11	192	4
STR	11	192	5
SCL	11	192	5	96	48	2
TAP	11	288	0
STR	12	0	6
SI_	12	0	6	96	48	3
STR	12	0	7
SI_	12	0	7	96	48	2
TAP	12	96	6
TAP	12	96	7
TAP	12	192	1
TAP	12	192	4
TAP	12	288	3
TAP	12	288	6
TAP	13	0	4
STR	13	0	5
SCL	13	0	5	96	48	2
TAP	13	96	0
STR	13	192	2
SCR	13	192	2	96	48	5
TAP	13	192	3
TAP	13	288	7
TAP	14	0	4
STR	14	0	5
SCL	14	0	5	96	48	2
TAP	14	96	0
TAP	14	192	0
STR	14	192	1
SCR	14	192	1	96	48	4
TAP	14	288	5
TAP	15	0	4
STR	15	0	5
SCL	15	0	5	96	48	2
TAP	15	96	0
STR	15	192	2
SCR	15	192	2	96	48	5
TAP	15	192	3
TAP	15	288	7
STR	16	0	0
SI_	16	0	0	96	48	5
STR	16	0	1
SI_	16	0	1	96	48	4
TAP	16	96	0
TAP	16	96	1
BRK	16	192	2
BRK	16	192	7
TAP	17	0	3
TAP	17	0	4
TAP	17	64	5
TAP	17	96	4
TAP	17	160	2
TAP	17	192	3
TAP	17	256	5
TAP	17	288	3
TAP	17	288	4
STR	18	0	3
SCL	18	0	3	96	48	0
TAP	18	0	5
TAP	18	96	5
STR	18	192	0
SCR	18	192	0	96	48	3
TAP	18	192	4
TAP	18	288	4
STR	19	0	2
SCL	19	0	2	96	48	7
TAP	19	0	5
TAP	19	96	5
TAP	19	192	4
STR	19	192	7
SCR	19	192	7	96	48	2
TAP	19	288	4
TAP	20	0	2
STR	20	0	4
SI_	20	0	4	96	48	7
TAP	20	96	2
TAP	20	192	3
STR	20	192	7
SI_	20	192	7	96	48	4
TAP	20	288	3
TAP	21	0	2
STR	21	0	5
SI_	21	0	5	96	48	7
TAP	21	96	2
TAP	21	192	3
STR	21	192	4
SI_	21	192	4	96	48	0
TAP	21	288	3
STR	22	0	1
SI_	22	0	1	96	48	6
TAP	22	0	5
TAP	22	96	5
TAP	22	192	4
STR	22	192	6
SI_	22	192	6	96	48	1
TAP	22	288	4
BST	23	0	2
SCR	23	0	2	96	48	5
TAP	23	0	6
TAP	23	96	6
BST	23	192	5
SCL	23	192	5	96	48	2
TAP	23	192	7
TAP	23	288	7
TAP	24	0	2
STR	24	0	6
SCR	24	0	6	96	48	1
TAP	24	96	2
STR	24	192	1
SUR	24	192	1	96	48	5
TAP	24	192	3
TAP	24	288	3
TAP	25	0	2
TAP	25	0	5
TAP	25	96	2
TAP	25	96	5
TAP	25	192	3
TAP	25	224	4
TAP	25	256	3
TAP	25	288	4
TAP	26	0	2
STR	26	0	5
SCL	26	0	5	96	48	2
TAP	26	64	0
TAP	26	96	0
STR	26	192	1
SCL	26	192	1	96	48	6
TAP	26	192	6
TAP	26	256	4
TAP	26	288	4
TAP	27	0	2
STR	27	0	5
SCL	27	0	5	96	48	2
TAP	27	64	0
TAP	27	96	0
STR	27	192	1
SCL	27	192	1	96	48	6
TAP	27	192	6
TAP	27	256	4
TAP	27	288	4
TAP	28	0	4
STR	28	0	5
SCR	28	0	5	96	48	0
TAP	28	64	3
TAP	28	96	3
STR	28	192	2
SCL	28	192	2	96	48	7
TAP	28	192	3
TAP	28	256	4
TAP	28	288	4
STR	29	0	6
SCL	29	0	6	96	48	3
TAP	29	0	7
TAP	29	64	0
STR	29	96	0
SXL	29	96	0	96	144	3
STR	30	0	2
SCR	30	0	2	96	48	5
TAP	30	0	5
TAP	30	64	7
TAP	30	96	7
TAP	30	192	1
STR	30	192	6
SCR	30	192	6	96	48	1
TAP	30	256	3
TAP	30	288	3
STR	31	0	2
SCR	31	0	2	96	48	5
TAP	31	0	5
TAP	31	64	7
TAP	31	96	7
TAP	31	192	1
STR	31	192	6
SCR	31	192	6	96	48	1
TAP	31	256	3
TAP	31	288	3
STR	32	0	2
SCL	32	0	2	96	48	7
TAP	32	0	3
TAP	32	64	4
TAP	32	96	4
TAP	32	192	4
STR	32	192	5
SCR	32	192	5	96	48	0
TAP	32	256	3
TAP	32	288	3
TAP	33	0	0
STR	33	0	1
SCR	33	0	1	96	48	4
TAP	33	64	7
STR	33	96	7
SXR	33	96	7	96	144	4
STR	34	0	1
SCR	34	0	1	96	144	5
TAP	34	96	6
TAP	34	192	7
TAP	34	288	0
STR	35	0	4
SCR	35	0	4	96	144	0
TAP	35	96	1
TAP	35	192	2
TAP	35	288	3
STR	36	0	7
SCR	36	0	7	96	144	3
TAP	36	96	4
TAP	36	192	5
TAP	36	288	6
TAP	37	0	3
TAP	37	96	4
TAP	37	96	7
TAP	37	192	0
TAP	37	192	5
TAP	37	288	1
TAP	37	288	6
STR	38	0	6
SCL	38	0	6	96	144	2
TAP	38	96	1
TAP	38	192	0
TAP	38	288	7
STR	39	0	3
SCL	39	0	3	96	144	7
TAP	39	96	6
TAP	39	192	5
TAP	39	288	4
STR	40	0	4
SCR	40	0	4	96	96	7
STR	40	96	7
SCR	40	96	7	96	96	2
STR	40	192	2
SCR	40	192	2	96	96	5
STR	40	288	5
SCR	40	288	5	96	96	0
TAP	41	0	0
TAP	41	96	3
BRK	41	192	1
BRK	41	192	6
BRK	41	256	1
BRK	41	256	6
TAP	42	0	2
TAP	42	0	5
STR	42	64	0
SCR	42	64	0	96	48	3
STR	42	96	7
SCL	42	96	7	96	48	4
TAP	42	160	0
TAP	42	192	7
STR	42	256	0
SI_	42	256	0	96	48	4
STR	42	288	7
SI_	42	288	7	96	48	3
STR	42	352	0
SCL	42	352	0	96	144	1
TAP	43	0	7
TAP	43	64	0
TAP	43	160	7
STR	43	256	7
SCL	43	256	7	96	48	4
STR	43	288	0
SCR	43	288	0	96	48	3
TAP	43	352	7
TAP	44	0	0
STR	44	64	7
SI_	44	64	7	96	48	3
STR	44	96	0
SI_	44	96	0	96	48	4
STR	44	160	7
SCR	44	160	7	96	144	6
TAP	44	192	0
TAP	44	256	7
TAP	44	352	0
STR	45	96	2
SCL	45	96	2	96	48	7
STR	45	96	6
SCL	45	96	6	96	48	3
TAP	45	192	2
TAP	45	192	6
TAP	45	288	3
TAP	45	288	4
TAP	46	0	2
TAP	46	0	5
STR	46	64	7
SCL	46	64	7	96	48	4
STR	46	96	0
SCR	46	96	0	96	48	3
TAP	46	160	7
TAP	46	192	0
STR	46	256	7
SI_	46	256	7	96	48	3
STR	46	288	0
SI_	46	288	0	96	48	4
STR	46	352	7
SCR	46	352	7	96	144	6
TAP	47	0	0
TAP	47	64	7
TAP	47	160	0
STR	47	256	0
SCR	47	256	0	96	48	3
STR	47	288	7
SCL	47	288	7	96	48	4
TAP	47	352	0
TAP	48	0	7
STR	48	64	0
SI_	48	64	0	96	48	4
STR	48	96	7
SI_	48	96	7	96	48	3
STR	48	160	0
SCL	48	160	0	96	144	1
TAP	48	192	7
TAP	48	256	0
TAP	48	352	7
STR	49	96	0
SI_	49	96	0	96	48	3
STR	49	96	7
SI_	49	96	7	96	48	4
BRK	49	288	3
BRK	49	288	4
TAP	49	352	5
TAP	50	0	3
TAP	50	0	6
STR	50	64	1
SI_	50	64	1	96	48	5
STR	50	96	0
SI_	50	96	0	96	48	4
TAP	50	160	1
TAP	50	192	0
STR	50	256	0
SI_	50	256	0	96	48	2
STR	50	288	7
SI_	50	288	7	96	48	3
STR	50	352	0
SCL	50	352	0	96	144	1
TAP	51	0	7
TAP	51	64	0
TAP	51	160	7
STR	51	256	6
SI_	51	256	6	96	48	2
STR	51	288	7
SI_	51	288	7	96	48	3
TAP	51	352	6
TAP	52	0	7
STR	52	64	7
SI_	52	64	7	96	48	5
STR	52	96	0
SI_	52	96	0	96	48	4
STR	52	160	7
SCR	52	160	7	96	144	6
TAP	52	192	0
TAP	52	256	7
TAP	52	352	0
STR	53	96	1
SCR	53	96	1	96	48	4
STR	53	96	5
SUL	53	96	5	96	48	0
TAP	53	192	1
TAP	53	192	5
TAP	53	288	2
TAP	53	288	6
STR	54	0	0
SI_	54	0	0	96	48	4
TAP	54	0	7
TAP	54	96	0
TAP	54	96	1
TAP	54	192	1
STR	54	192	2
SI_	54	192	2	96	48	6
TAP	54	288	2
TAP	54	288	3
TAP	55	0	3
STR	55	0	4
SI_	55	0	4	96	48	0
TAP	55	96	4
TAP	55	96	5
TAP	55	192	5
STR	55	192	6
SI_	55	192	6	96	48	2
TAP	55	288	6
TAP	55	288	7
TAP	56	0	0
STR	56	0	7
SI_	56	0	7	96	48	3
TAP	56	96	6
TAP	56	96	7
STR	56	192	5
SI_	56	192	5	96	48	1
TAP	56	192	6
TAP	56	288	4
TAP	56	288	5
STR	57	0	3
SI_	57	0	3	96	48	7
TAP	57	0	4
TAP	57	96	2
TAP	57	96	3
STR	57	192	1
SI_	57	192	1	96	48	5
TAP	57	192	2
TAP	57	288	0
TAP	57	288	1
BRK	58	0	1
BST	58	0	6
SXR	58	0	6	96	384	3
TAP	59	192	7
TAP	59	256	7
TAP	59	288	0
BRK	60	0	1
BST	60	0	6
SUL	60	0	6	96	192	2
TAP	61	0	2
TAP	61	64	2
TAP	61	96	3
TAP	61	160	0
STR	61	192	7
SI_	61	192	7	96	48	3
BRK	61	288	0
TAP	62	0	0
STR	62	0	6
SI_	62	0	6	96	48	3
TAP	62	64	2
TAP	62	96	2
TAP	62	192	1
STR	62	192	5
SI_	62	192	5	96	48	0
TAP	62	256	3
TAP	62	288	3
STR	63	0	1
SI_	63	0	1	96	48	4
TAP	63	0	7
TAP	63	64	5
TAP	63	96	5
STR	63	192	2
SI_	63	192	2	96	48	7
TAP	63	192	6
TAP	63	256	4
TAP	63	288	4
TAP	64	0	0
STR	64	0	6
SI_	64	0	6	96	48	3
TAP	64	64	2
TAP	64	96	2
TAP	64	192	1
STR	64	192	5
SI_	64	192	5	96	48	0
TAP	64	256	3
TAP	64	288	3
STR	65	0	1
SI_	65	0	1	96	48	4
TAP	65	0	7
TAP	65	64	5
TAP	65	96	5
STR	65	192	2
SI_	65	192	2	96	48	7
TAP	65	192	6
TAP	65	256	4
TAP	65	288	4
TAP	66	0	0
STR	66	0	6
SI_	66	0	6	96	48	3
TAP	66	64	3
TAP	66	96	2
TAP	66	192	1
STR	66	192	5
SI_	66	192	5	96	48	0
TAP	66	256	3
TAP	66	288	2
STR	67	0	1
SI_	67	0	1	96	48	4
TAP	67	0	7
TAP	67	64	4
TAP	67	96	5
STR	67	192	2
SI_	67	192	2	96	48	7
TAP	67	192	6
TAP	67	256	4
TAP	67	288	5
STR	68	0	6
SI_	68	0	6	96	48	3
STR	68	96	2
SI_	68	96	2	96	48	7
TAP	68	96	6
TAP	68	192	2
STR	68	192	5
SI_	68	192	5	96	48	0
STR	68	288	1
SI_	68	288	1	96	48	4
TAP	68	288	5
TAP	69	0	1
STR	69	0	7
SI_	69	0	7	96	48	4
STR	69	96	3
SCL	69	96	3	96	144	4
TAP	69	96	7
BRK	69	192	3
BRK	69	192	4
TAP	70	0	3
STR	70	0	6
SCL	70	0	6	96	48	3
TAP	70	96	1
STR	70	192	2
SCL	70	192	2	96	48	7
TAP	70	192	7
TAP	70	288	5
TAP	71	0	3
STR	71	0	6
SCL	71	0	6	96	48	3
TAP	71	96	1
STR	71	192	2
SCL	71	192	2	96	48	7
TAP	71	192	7
TAP	71	288	5
STR	72	0	6
SI_	72	0	6	96	48	1
STR	72	96	2
SI_	72	96	2	96	48	5
STR	72	192	4
SF_	72	192	4	96	96	0
TAP	73	96	3
TAP	73	96	4
TAP	73	192	1
TAP	73	192	7
STR	73	288	2
SUL	73	288	2	96	96	5
STR	73	288	6
SCR	73	288	6	96	96	1
TAP	74	192	0
TAP	74	192	6
STR	74	288	1
SXR	74	288	1	96	192	1
STR	74	288	5
SXR	74	288	5	96	192	5
TAP	75	288	3
TAP	75	288	4
TAP	76	0	2
TAP	76	32	3
TAP	76	64	2
TAP	76	96	5
TAP	76	128	4
TAP	76	160	5
TAP	76	192	1
TAP	76	224	3
TAP	76	256	2
TAP	76	288	6
TAP	76	320	4
TAP	76	352	5
STR	77	0	3
SI_	77	0	3	96	48	0
STR	77	0	4
SI_	77	0	4	96	48	7
TAP	77	96	3
TAP	77	96	4
TAP	77	192	3
TAP	77	192	4
TAP	77	256	3
HLD	77	256	4	320
TAP	78	0	5
TAP	78	96	5
TAP	78	192	5
BRK	78	288	3
BRK	78	288	4
TAP	79	0	2
TAP	79	0	5
STR	79	64	7
SI_	79	64	7	96	48	3
STR	79	96	0
SI_	79	96	0	96	48	2
TAP	79	160	7
TAP	79	192	0
STR	79	256	7
SI_	79	256	7	96	48	5
STR	79	288	0
SI_	79	288	0	96	48	4
STR	79	352	7
SCR	79	352	7	96	144	6
TAP	80	0	0
TAP	80	64	7
TAP	80	160	0
STR	80	256	0
SI_	80	256	0	96	48	4
STR	80	288	7
SI_	80	288	7	96	48	5
TAP	80	352	0
TAP	81	0	7
STR	81	64	0
SI_	81	64	0	96	48	2
STR	81	96	7
SI_	81	96	7	96	48	3
STR	81	160	0
SCL	81	160	0	96	144	1
TAP	81	192	7
TAP	81	256	0
TAP	81	352	7
STR	82	96	1
SUL	82	96	1	96	48	4
STR	82	96	5
SCR	82	96	5	96	48	0
TAP	82	192	1
TAP	82	192	5
TAP	82	288	3
TAP	82	288	4
TAP	83	0	2
TAP	83	0	5
STR	83	64	0
SI_	83	64	0	96	48	4
STR	83	96	7
SI_	83	96	7	96	48	5
TAP	83	160	0
TAP	83	192	7
STR	83	256	0
SI_	83	256	0	96	48	2
STR	83	288	7
SI_	83	288	7	96	48	3
STR	83	352	0
SCL	83	352	0	96	144	1
TAP	84	0	7
TAP	84	64	0
TAP	84	160	7
STR	84	256	7
SI_	84	256	7	96	48	3
STR	84	288	0
SI_	84	288	0	96	48	2
TAP	84	352	7
TAP	85	0	0
STR	85	64	7
SI_	85	64	7	96	48	5
STR	85	96	0
SI_	85	96	0	96	48	4
STR	85	160	7
SCR	85	160	7	96	144	6
TAP	85	192	0
TAP	85	256	7
TAP	85	352	0
STR	86	96	0
SI_	86	96	0	96	48	3
STR	86	96	7
SI_	86	96	7	96	48	4
BRK	86	288	3
BRK	86	288	4
TAP	86	352	2
TAP	87	0	1
TAP	87	0	4
STR	87	64	6
SI_	87	64	6	96	48	4
STR	87	96	7
SI_	87	96	7	96	48	3
TAP	87	160	6
TAP	87	192	7
STR	87	256	7
SI_	87	256	7	96	48	5
STR	87	288	0
SI_	87	288	0	96	48	4
STR	87	352	7
SCR	87	352	7	96	144	6
TAP	88	0	0
TAP	88	64	7
TAP	88	160	0
STR	88	256	1
SI_	88	256	1	96	48	3
STR	88	288	0
SI_	88	288	0	96	48	4
TAP	88	352	1
TAP	89	0	0
STR	89	64	0
SI_	89	64	0	96	48	2
STR	89	96	7
SI_	89	96	7	96	48	3
STR	89	160	0
SCL	89	160	0	96	144	1
TAP	89	192	7
TAP	89	256	0
TAP	89	352	7
STR	90	96	3
SV_	90	96	3	96	48	0
STR	90	96	5
SV_	90	96	5	96	48	0
TAP	90	192	3
TAP	90	192	5
TAP	90	288	2
TAP	90	288	6
BRK	91	0	0
BRK	91	0	4
HLD	94	0	4	288
TAP	94	192	5
TAP	94	288	5
BST	95	0	1
SCL	95	0	1	96	240	3
BRK	95	0	6
TAP	96	288	3
TAP	96	288	4
BRK	97	0	1
BST	97	0	6
SCR	97	0	6	96	240	4
TAP	98	0	3
TAP	98	64	3
TAP	98	96	4
TAP	98	160	4
TAP	98	192	3
TAP	98	256	3
TAP	98	288	2
TAP	98	288	5
BST	99	0	1
SI_	99	0	1	96	48	4
BRK	99	0	5
TAP	99	96	1
TAP	99	96	7
STR	99	192	2
SI_	99	192	2	96	48	7
TAP	99	192	4
TAP	99	288	2
TAP	99	288	6
TAP	100	0	2
STR	100	0	6
SI_	100	0	6	96	48	3
TAP	100	96	0
TAP	100	96	6
TAP	100	192	3
STR	100	192	5
SI_	100	192	5	96	48	0
TAP	100	288	1
TAP	100	288	5
STR	101	0	1
SI_	101	0	1	96	48	4
TAP	101	0	5
TAP	101	96	1
TAP	101	96	7
STR	101	192	2
SI_	101	192	2	96	48	7
TAP	101	192	4
TAP	101	288	2
STR	101	288	6
SI_	101	288	6	96	48	3
STR	102	0	0
SI_	102	0	0	96	48	4
TAP	102	0	6
TAP	102	96	0
STR	102	96	7
SI_	102	96	7	96	48	3
TAP	102	192	0
TAP	102	192	7
TAP	102	288	2
TAP	102	288	5
STR	103	0	1
SI_	103	0	1	96	48	4
TAP	103	0	4
TAP	103	96	1
STR	103	96	6
SI_	103	96	6	96	48	3
STR	103	192	2
SI_	103	192	2	96	48	7
TAP	103	192	6
TAP	103	288	2
STR	103	288	5
SI_	103	288	5	96	48	0
STR	104	0	1
SI_	104	0	1	96	48	6
TAP	104	0	5
TAP	104	96	1
STR	104	96	4
SI_	104	96	4	96	48	7
STR	104	192	0
SI_	104	192	0	96	48	3
TAP	104	192	4
TAP	104	288	0
STR	104	288	5
SI_	104	288	5	96	48	2
STR	105	0	1
SI_	105	0	1	96	48	4
TAP	105	0	5
TAP	105	96	1
STR	105	96	6
SI_	105	96	6	96	48	3
STR	105	192	2
SI_	105	192	2	96	48	7
TAP	105	192	6
TAP	105	288	2
STR	105	288	5
SI_	105	288	5	96	48	0
STR	106	0	1
SI_	106	0	1	96	48	6
TAP	106	0	5
TAP	106	96	1
STR	106	96	4
SCR	106	96	4	96	144	3
TAP	106	192	3
TAP	106	192	4
HLD	107	0	0	384
HLD	108	0	3	736
HLD	109	0	4	352

T_REC_TAP	427
T_REC_BRK	24
T_REC_XTP	0
T_REC_HLD	10
T_REC_XHO	0
T_REC_STR	187
T_REC_BST	7
T_REC_XST	0
T_REC_TTP	0
T_REC_THO	0
T_REC_SLD	194
T_REC_ALL	849
T_NUM_TAP	614
T_NUM_BRK	31
T_NUM_HLD	10
T_NUM_SLD	194
T_NUM_ALL	849
T_JUDGE_TAP	645
T_JUDGE_HLD	61
T_JUDGE_SLD	194
T_JUDGE_ALL	900
TTM_EACHPAIRS	176
TTM_SCR_TAP	307000
TTM_SCR_BRK	80600
TTM_SCR_HLD	10000
TTM_SCR_SLD	291000
TTM_SCR_ALL	688600
TTM_SCR_S	664950
TTM_SCR_SS	685500
TTM_RAT_ACV	10045

