VERSION	0.00.00	1.03.00
FES_MODE	0
BPM_DEF	191.970	191.970	191.970	191.970
MET_DEF	4	4
RESOLUTION	384
CLK_DEF	384
COMPATIBLE_CODE	MA2

BPM	0	0	191.970

TAP	1	0	2
TAP	1	96	2
STR	1	192	1
SI_	1	192	1	96	96	4
TAP	2	0	7
TAP	2	96	7
TAP	2	192	6
TAP	2	288	6
TAP	3	0	5
TAP	3	96	5
STR	3	192	6
SI_	3	192	6	96	96	3
TAP	4	0	0
TAP	4	96	0
TAP	4	192	1
TAP	4	288	1
TAP	5	0	2
TAP	5	96	1
STR	5	192	0
SI_	5	192	0	96	96	4
TAP	6	0	7
TAP	6	96	7
TAP	6	192	6
TAP	6	288	6
TAP	7	0	5
TAP	7	96	6
STR	7	192	7
SI_	7	192	7	96	96	3
TAP	8	0	0
TAP	8	96	0
TAP	8	192	1
BRK	8	288	2
BRK	8	288	5
TAP	9	0	2
TAP	9	96	2
TAP	9	96	3
TAP	9	192	5
TAP	9	288	4
TAP	9	288	5
TAP	10	0	2
TAP	10	96	1
TAP	10	96	3
TAP	10	192	0
TAP	10	192	4
TAP	10	288	5
TAP	10	288	7
TAP	11	0	6
TAP	11	96	5
TAP	11	96	7
TAP	11	192	0
TAP	11	192	4
TAP	11	288	1
TAP	11	288	3
STR	12	0	2
SXR	12	0	2	96	192	4
TAP	13	0	5
TAP	13	96	4
TAP	13	96	5
TAP	13	192	2
TAP	13	288	2
TAP	13	288	3
TAP	14	0	5
TAP	14	96	4
TAP	14	96	6
TAP	14	192	3
TAP	14	192	7
TAP	14	288	0
TAP	14	288	2
TAP	15	0	1
TAP	15	96	0
TAP	15	96	2
TAP	15	192	3
TAP	15	192	7
TAP	15	288	4
TAP	15	288	6
STR	16	0	5
SXL	16	0	5	96	192	3
STR	17	0	2
SCL	17	0	2	96	192	5
HLD	18	0	2	64
TAP	18	64	3
TAP	18	96	2
TAP	18	192	1
TAP	18	192	4
HLD	19	0	5	64
TAP	19	64	4
TAP	19	96	5
TAP	19	192	3
TAP	19	192	6
HLD	20	0	6	64
TAP	20	64	7
TAP	20	96	6
TAP	20	192	0
TAP	20	192	5
TAP	21	0	1
TAP	21	96	0
TAP	21	192	2
TAP	21	192	7
HLD	22	0	5	64
TAP	22	64	4
TAP	22	96	5
TAP	22	192	3
TAP	22	192	6
HLD	23	0	2	64
TAP	23	64	3
TAP	23	96	2
TAP	23	192	1
TAP	23	192	4
HLD	24	0	1	64
TAP	24	64	0
TAP	24	96	1
TAP	24	192	2
TAP	24	192	7
TAP	25	0	6
TAP	25	96	7
TAP	25	192	0
TAP	25	192	5
HLD	26	0	2	64
TAP	26	64	3
TAP	26	96	2
STR	26	192	1
SI_	26	192	1	96	96	6
TAP	26	192	4
HLD	27	0	5	64
TAP	27	64	4
TAP	27	96	5
TAP	27	192	3
STR	27	192	6
SI_	27	192	6	96	96	2
HLD	28	0	1	64
TAP	28	64	0
TAP	28	96	1
STR	28	192	2
SCR	28	192	2	96	96	5
TAP	28	192	7
TAP	29	0	7
TAP	29	96	6
TAP	29	192	0
TAP	29	192	5
HLD	30	0	5	64
TAP	30	64	4
TAP	30	96	5
TAP	30	192	3
STR	30	192	6
SI_	30	192	6	96	96	1
HLD	31	0	2	64
TAP	31	64	3
TAP	31	96	2
STR	31	192	1
SI_	31	192	1	96	96	5
TAP	31	192	4
HLD	32	0	6	64
TAP	32	64	7
TAP	32	96	6
TAP	32	192	0
STR	32	192	5
SCL	32	192	5	96	96	2
TAP	33	0	0
TAP	33	96	1
TAP	33	192	2
TAP	33	192	7
STR	34	0	1
SI_	34	0	1	96	96	5
TAP	34	192	7
TAP	34	288	7
STR	35	0	6
SI_	35	0	6	96	96	2
TAP	35	192	0
TAP	35	288	0
STR	36	0	1
SUR	36	0	1	96	96	5
TAP	36	192	7
TAP	36	288	7
STR	37	0	6
SUL	37	0	6	96	96	2
TAP	37	192	0
TAP	37	288	0
STR	38	0	2
SCL	38	0	2	96	96	7
TAP	38	192	4
TAP	38	288	4
STR	39	0	5
SCR	39	0	5	96	96	0
TAP	39	192	3
TAP	39	288	3
STR	40	0	3
SCL	40	0	3	96	96	0
STR	40	0	4
SCR	40	0	4	96	96	7
TAP	41	0	3
TAP	41	0	4
TAP	41	96	3
TAP	41	96	4
BRK	41	192	1
BRK	41	192	6
HLD	42	0	2	64
TAP	42	64	3
TAP	42	96	2
HLD	42	192	5	64
TAP	42	256	4
TAP	42	288	5
HLD	43	0	0	64
TAP	43	64	7
TAP	43	160	1
TAP	43	160	6
TAP	43	256	2
TAP	43	288	3
HLD	44	0	6	64
TAP	44	64	4
TAP	44	96	6
HLD	44	192	1	64
TAP	44	256	3
TAP	44	288	1
STR	45	0	6
SI_	45	0	6	96	96	3
STR	45	192	7
SI_	45	192	7	96	96	2
HLD	46	0	5	64
TAP	46	64	4
TAP	46	96	5
HLD	46	192	2	64
TAP	46	256	3
TAP	46	288	2
HLD	47	0	7	64
TAP	47	64	0
TAP	47	160	1
TAP	47	160	6
TAP	47	256	5
TAP	47	288	4
HLD	48	0	1	64
TAP	48	64	3
TAP	48	96	1
HLD	48	192	6	64
TAP	48	256	4
TAP	48	288	6
STR	49	0	1
SI_	49	0	1	96	96	4
STR	49	192	0
SI_	49	192	0	96	96	5
HLD	50	0	1	64
TAP	50	64	3
TAP	50	96	1
HLD	50	192	6	64
TAP	50	256	4
TAP	50	288	6
HLD	51	0	0	64
TAP	51	64	7
TAP	51	160	2
TAP	51	160	5
TAP	51	256	3
TAP	51	288	4
HLD	52	0	1	64
TAP	52	64	3
TAP	52	96	1
HLD	52	192	6	64
TAP	52	256	4
TAP	52	288	6
TAP	53	0	0
TAP	53	0	1
TAP	53	96	6
TAP	53	96	7
TAP	53	192	1
TAP	53	192	3
TAP	53	288	4
TAP	53	288	6
TAP	54	0	2
TAP	54	96	0
TAP	54	96	7
TAP	54	192	5
TAP	54	288	0
TAP	54	288	7
TAP	55	0	3
TAP	55	96	1
TAP	55	96	7
TAP	55	192	4
TAP	55	288	0
TAP	55	288	6
TAP	56	0	2
TAP	56	0	3
TAP	56	96	1
TAP	56	96	4
TAP	56	192	4
TAP	56	192	5
TAP	56	288	3
TAP	56	288	6
TAP	57	0	2
TAP	57	0	3
TAP	57	96	0
TAP	57	96	5
TAP	57	192	4
TAP	57	192	5
TAP	57	288	2
TAP	57	288	7
STR	58	0	2
SCL	58	0	2	96	192	5
TAP	58	0	3
TAP	59	0	4
TAP	59	0	6
TAP	59	144	1
TAP	59	144	3
TAP	59	288	6
TAP	59	288	7
STR	60	0	0
SI_	60	0	0	96	96	4
STR	60	0	1
SI_	60	0	1	96	96	4
BST	61	0	6
SI_	61	0	6	96	96	3
BST	61	0	7
SI_	61	0	7	96	96	3
TAP	62	0	2
TAP	62	96	1
TAP	62	96	3
TAP	62	192	7
TAP	62	288	0
TAP	62	288	6
TAP	63	0	4
TAP	63	96	3
TAP	63	96	5
TAP	63	192	2
TAP	63	192	6
TAP	63	288	1
TAP	63	288	7
TAP	64	0	5
TAP	64	96	4
TAP	64	96	6
TAP	64	192	0
TAP	64	288	1
TAP	64	288	7
TAP	65	0	3
TAP	65	96	2
TAP	65	96	4
TAP	65	192	1
TAP	65	192	5
TAP	65	288	0
TAP	65	288	6
TAP	66	0	3
TAP	66	96	2
TAP	66	96	4
TAP	66	192	2
TAP	66	192	7
TAP	66	288	0
TAP	66	288	5
TAP	67	0	4
TAP	67	96	3
TAP	67	96	5
TAP	67	192	0
TAP	67	192	5
TAP	67	288	2
TAP	67	288	7
TAP	68	0	0
TAP	68	0	1
TAP	68	96	2
TAP	68	96	3
TAP	68	192	4
TAP	68	192	5
TAP	68	288	6
TAP	68	288	7
TAP	69	0	1
TAP	69	0	3
TAP	69	96	4
TAP	69	96	6
BRK	69	192	0
BRK	69	192	7
STR	70	0	2
SI_	70	0	2	96	96	7
TAP	70	0	6
TAP	70	192	4
TAP	70	288	4
TAP	71	0	1
STR	71	0	5
SI_	71	0	5	96	96	0
TAP	71	192	3
TAP	71	288	3
STR	72	0	2
SI_	72	0	2	96	96	6
TAP	72	0	5
TAP	72	192	4
TAP	72	288	4
TAP	73	0	2
STR	73	0	5
SI_	73	0	5	96	96	1
TAP	73	192	3
TAP	73	288	3
STR	74	0	2
SUL	74	0	2	96	96	5
TAP	74	0	7
TAP	74	192	4
TAP	74	288	4
TAP	75	0	0
STR	75	0	5
SUR	75	0	5	96	96	2
TAP	75	192	3
TAP	75	288	3
STR	76	0	0
SCR	76	0	0	96	96	3
STR	76	0	7
SCL	76	0	7	96	96	4
TAP	77	0	3
TAP	77	0	4
TAP	77	96	3
TAP	77	96	4
BRK	77	192	1
BRK	77	192	6
TAP	78	288	2
TAP	78	288	5
HLD	79	0	1	64
TAP	79	64	0
TAP	79	96	1
HLD	79	192	6	64
TAP	79	256	7
TAP	79	288	6
HLD	80	0	3	64
TAP	80	64	4
TAP	80	160	2
TAP	80	160	5
TAP	80	256	1
TAP	80	288	0
HLD	81	0	5	64
TAP	81	64	7
TAP	81	96	5
HLD	81	192	2	64
TAP	81	256	0
TAP	81	288	2
STR	82	0	1
SI_	82	0	1	96	96	6
STR	82	0	5
SI_	82	0	5	96	96	2
TAP	82	288	3
TAP	82	288	4
HLD	83	0	6	64
TAP	83	64	7
TAP	83	96	6
HLD	83	192	1	64
TAP	83	256	0
TAP	83	288	1
TAP	84	0	2
TAP	84	0	3
TAP	84	96	1
TAP	84	96	4
TAP	84	160	1
TAP	84	160	4
TAP	84	256	6
TAP	84	288	7
HLD	85	0	1	64
TAP	85	64	0
TAP	85	96	1
HLD	85	192	6	64
TAP	85	256	7
TAP	85	288	6
TAP	86	0	4
TAP	86	0	5
TAP	86	96	3
TAP	86	96	6
TAP	86	160	3
TAP	86	160	6
TAP	86	256	1
TAP	86	288	0
HLD	87	0	2	64
TAP	87	64	3
TAP	87	96	2
TAP	87	160	2
HLD	87	192	5	64
TAP	87	256	4
TAP	87	288	5
TAP	87	352	5
HLD	88	0	2	64
TAP	88	64	3
TAP	88	96	1
TAP	88	160	1
HLD	88	192	5	64
TAP	88	256	4
TAP	88	288	6
TAP	88	352	6
HLD	89	0	1	64
TAP	89	64	3
TAP	89	96	0
TAP	89	160	0
HLD	89	192	6	64
TAP	89	256	4
TAP	89	288	7
TAP	89	352	7
TAP	90	0	1
TAP	90	96	0
TAP	90	96	2
TAP	90	192	6
TAP	90	288	5
TAP	90	288	7
BRK	91	0	3
BRK	91	0	4
TAP	91	288	1
TAP	92	0	1
TAP	92	0	3
TAP	92	288	6
TAP	93	0	4
TAP	93	0	6
TAP	93	288	3
TAP	93	288	4
TAP	94	0	3
TAP	94	0	4
TAP	94	192	2
TAP	94	192	5
TAP	94	288	1
TAP	94	288	6
STR	95	0	0
SF_	95	0	0	96	96	4
TAP	95	0	7
TAP	96	0	1
TAP	96	0	3
TAP	96	144	4
TAP	96	144	6
TAP	96	288	2
TAP	96	288	5
BRK	97	0	0
BRK	97	0	7
STR	98	0	0
SI_	98	0	0	96	96	3
STR	98	192	7
SI_	98	192	7	96	96	4
TAP	99	0	2
TAP	99	96	1
TAP	99	96	3
TAP	99	192	0
TAP	99	192	4
TAP	99	288	6
TAP	99	288	7
TAP	100	0	5
TAP	100	96	4
TAP	100	96	6
TAP	100	192	3
TAP	100	192	7
TAP	100	288	0
TAP	100	288	1
TAP	101	0	2
TAP	101	96	1
TAP	101	96	3
TAP	101	192	5
TAP	101	288	4
TAP	101	288	6
STR	102	0	1
SCL	102	0	1	96	96	6
STR	102	0	2
SUL	102	0	2	96	96	5
TAP	103	0	5
TAP	103	96	4
TAP	103	96	6
TAP	103	192	3
TAP	103	192	7
TAP	103	288	0
TAP	103	288	1
TAP	104	0	2
TAP	104	96	1
TAP	104	96	3
TAP	104	192	0
TAP	104	192	4
TAP	104	288	6
TAP	104	288	7
TAP	105	0	5
TAP	105	96	4
TAP	105	96	6
TAP	105	192	2
TAP	105	288	1
TAP	105	288	3
STR	106	0	5
SUR	106	0	5	96	96	2
STR	106	0	6
SCR	106	0	6	96	96	1
TAP	107	0	0
TAP	107	0	7
TAP	107	192	1
TAP	107	288	2
TAP	108	0	3
TAP	108	192	6
TAP	108	288	5
TAP	109	0	4
STR	109	192	0
SI_	109	192	0	96	96	5
STR	109	192	7
SI_	109	192	7	96	96	2

T_REC_TAP	427
T_REC_BRK	12
T_REC_XTP	0
T_REC_HLD	42
T_REC_XHO	0
T_REC_STR	47
T_REC_BST	2
T_REC_XST	0
T_REC_TTP	0
T_REC_THO	0
T_REC_SLD	49
T_REC_ALL	579
T_NUM_TAP	474
T_NUM_BRK	14
T_NUM_HLD	42
T_NUM_SLD	49
T_NUM_ALL	579
T_JUDGE_TAP	488
T_JUDGE_HLD	84
T_JUDGE_SLD	49
T_JUDGE_ALL	621
TTM_EACHPAIRS	139
TTM_SCR_TAP	237000
TTM_SCR_BRK	36400
TTM_SCR_HLD	42000
TTM_SCR_SLD	73500
TTM_SCR_ALL	388900
TTM_SCR_S	375900
TTM_SCR_SS	387500
TTM_RAT_ACV	10036

