VERSION	0.00.00	1.03.00
FES_MODE	0
BPM_DEF	191.970	191.970	191.970	191.970
MET_DEF	4	4
RESOLUTION	384
CLK_DEF	384
COMPATIBLE_CODE	MA2

BPM	0	0	191.970

HLD	1	0	5	192
TAP	1	192	4
HLD	2	0	2	192
TAP	2	192	3
HLD	3	0	5	192
HLD	3	192	6	192
HLD	4	0	7	192
TAP	4	192	0
HLD	5	0	2	192
TAP	5	192	3
HLD	6	0	5	192
TAP	6	192	4
HLD	7	0	2	192
HLD	7	192	1	192
HLD	8	0	0	192
TAP	8	192	7
BRK	9	0	6
TAP	9	96	7
TAP	9	192	6
TAP	10	0	1
TAP	10	96	0
TAP	10	192	1
TAP	11	0	7
TAP	11	96	0
STR	11	192	7
SCR	11	192	7	96	288	2
TAP	13	0	2
TAP	13	96	3
TAP	13	192	2
TAP	14	0	5
TAP	14	96	4
TAP	14	192	5
TAP	15	0	3
TAP	15	96	4
TAP	15	192	3
TAP	15	288	4
HLD	16	0	2	192
HLD	16	0	5	192
TAP	17	0	4
TAP	17	0	5
TAP	17	192	2
TAP	17	192	3
TAP	18	0	5
TAP	18	96	5
TAP	18	192	4
TAP	19	0	2
TAP	19	96	2
TAP	19	192	3
TAP	20	0	6
TAP	20	96	6
TAP	20	192	7
TAP	21	0	1
TAP	21	96	0
TAP	21	192	2
TAP	21	192	7
TAP	22	0	6
TAP	22	96	6
TAP	22	192	7
TAP	23	0	1
TAP	23	96	1
TAP	23	192	0
TAP	24	0	5
TAP	24	96	5
TAP	24	192	4
TAP	25	0	2
TAP	25	96	3
TAP	25	192	1
TAP	25	192	4
TAP	26	0	5
TAP	26	96	4
TAP	26	192	3
TAP	26	192	6
TAP	27	0	2
TAP	27	96	3
TAP	27	192	1
TAP	27	192	4
TAP	28	0	6
TAP	28	96	7
TAP	28	192	0
TAP	28	192	5
TAP	29	0	0
TAP	29	0	1
TAP	29	96	0
TAP	29	96	1
TAP	29	192	2
TAP	29	192	7
TAP	30	0	6
TAP	30	96	7
TAP	30	192	0
TAP	30	192	5
TAP	31	0	1
TAP	31	96	0
TAP	31	192	2
TAP	31	192	7
TAP	32	0	5
TAP	32	96	4
TAP	32	192	3
TAP	32	192	6
TAP	33	0	2
TAP	33	0	3
TAP	33	96	2
TAP	33	96	3
TAP	33	192	1
TAP	33	192	4
STR	34	0	5
SI_	34	0	5	96	144	2
STR	35	0	1
SI_	35	0	1	96	144	6
STR	36	0	7
SXR	36	0	7	96	384	3
STR	38	0	4
SI_	38	0	4	96	144	7
STR	39	0	0
SI_	39	0	0	96	144	3
STR	40	0	5
SCR	40	0	5	96	384	2
BRK	42	0	5
TAP	42	96	4
TAP	42	192	3
TAP	42	288	2
TAP	43	0	4
TAP	43	0	5
TAP	43	96	4
TAP	43	96	5
TAP	43	192	2
TAP	43	192	3
STR	44	0	2
SI_	44	0	2	96	192	7
STR	44	0	3
SI_	44	0	3	96	192	6
TAP	45	0	6
TAP	45	0	7
TAP	45	96	6
TAP	45	96	7
TAP	45	192	0
TAP	45	192	5
TAP	46	0	6
TAP	46	96	7
TAP	46	192	0
TAP	46	288	1
TAP	47	0	6
TAP	47	0	7
TAP	47	96	6
TAP	47	96	7
TAP	47	192	0
TAP	47	192	1
STR	48	0	0
SUL	48	0	0	96	192	3
STR	48	0	7
SCL	48	0	7	96	192	4
TAP	49	0	2
TAP	49	0	3
TAP	49	96	2
TAP	49	96	3
TAP	49	192	4
TAP	49	192	5
BRK	50	0	2
TAP	50	96	3
TAP	50	192	4
TAP	50	288	5
TAP	51	0	2
TAP	51	0	3
TAP	51	96	2
TAP	51	96	3
TAP	51	192	4
TAP	51	192	5
STR	52	0	4
SI_	52	0	4	96	192	1
STR	52	0	5
SI_	52	0	5	96	192	0
TAP	53	0	0
TAP	53	0	1
TAP	53	96	0
TAP	53	96	1
TAP	53	192	2
TAP	53	192	7
TAP	54	0	6
TAP	54	96	6
TAP	54	192	7
TAP	54	288	7
TAP	55	0	6
TAP	55	0	7
TAP	55	96	6
TAP	55	96	7
TAP	55	192	0
TAP	55	192	5
TAP	56	0	1
TAP	56	96	1
TAP	56	192	0
TAP	56	288	0
TAP	57	0	0
TAP	57	0	1
TAP	57	96	0
TAP	57	96	1
TAP	57	192	2
TAP	57	192	7
TAP	58	0	2
TAP	58	96	3
TAP	58	192	1
TAP	58	192	4
TAP	59	0	5
TAP	59	96	4
TAP	59	192	3
TAP	59	192	6
TAP	60	0	3
TAP	60	96	4
TAP	60	192	2
TAP	60	192	5
TAP	61	0	3
TAP	61	0	4
TAP	61	96	2
TAP	61	96	5
TAP	61	192	1
TAP	61	192	6
BRK	62	0	1
TAP	62	96	0
TAP	62	192	0
TAP	62	192	1
TAP	63	0	6
TAP	63	96	7
TAP	63	192	6
TAP	63	192	7
TAP	64	0	1
TAP	64	96	0
TAP	64	96	1
TAP	64	192	6
TAP	64	288	6
TAP	64	288	7
TAP	65	0	0
TAP	65	0	7
TAP	65	96	0
TAP	65	96	7
TAP	65	192	1
TAP	65	192	6
TAP	66	0	2
TAP	66	96	3
TAP	66	192	2
TAP	66	192	3
TAP	67	0	5
TAP	67	96	4
TAP	67	192	4
TAP	67	192	5
TAP	68	0	2
TAP	68	96	2
TAP	68	96	3
TAP	68	192	5
TAP	68	288	4
TAP	68	288	5
TAP	69	0	3
TAP	69	0	4
TAP	69	96	3
TAP	69	96	4
TAP	69	192	2
TAP	69	192	5
HLD	70	0	2	192
TAP	70	192	3
HLD	71	0	5	192
TAP	71	192	4
STR	72	0	3
SXR	72	0	3	96	240	1
STR	72	0	4
SXL	72	0	4	96	240	6
HLD	73	192	1	96
TAP	73	288	0
TAP	74	0	2
TAP	74	0	7
HLD	74	192	6	96
TAP	74	288	7
TAP	75	0	0
TAP	75	0	5
TAP	75	192	1
TAP	75	192	4
STR	76	0	2
SCL	76	0	2	96	480	5
TAP	76	0	3
TAP	78	0	3
TAP	78	96	3
TAP	78	192	4
BRK	79	0	5
TAP	79	96	4
TAP	79	96	5
TAP	79	192	2
TAP	79	288	2
TAP	79	288	3
TAP	80	0	4
TAP	80	0	5
TAP	80	96	2
TAP	80	96	3
TAP	80	192	4
TAP	80	192	5
STR	81	0	4
SCL	81	0	4	96	192	1
STR	81	0	5
SCR	81	0	5	96	192	0
TAP	82	0	0
TAP	82	0	1
TAP	82	96	0
TAP	82	96	1
TAP	82	192	2
TAP	82	192	7
TAP	83	0	1
TAP	83	96	0
TAP	83	96	1
TAP	83	192	6
TAP	83	288	6
TAP	83	288	7
TAP	84	0	0
TAP	84	0	1
TAP	84	96	6
TAP	84	96	7
TAP	84	192	0
TAP	84	192	1
STR	85	0	0
SCR	85	0	0	96	192	3
STR	85	0	7
SUR	85	0	7	96	192	4
TAP	86	0	3
TAP	86	0	4
TAP	86	96	3
TAP	86	96	4
TAP	86	192	2
TAP	86	192	5
BRK	87	0	2
TAP	87	96	2
TAP	87	96	3
TAP	87	192	5
TAP	87	288	4
TAP	87	288	5
TAP	88	0	2
TAP	88	0	3
TAP	88	96	4
TAP	88	96	5
TAP	88	192	2
TAP	88	192	3
STR	89	0	2
SCL	89	0	2	96	192	7
STR	89	0	3
SCR	89	0	3	96	192	6
TAP	90	0	6
TAP	90	0	7
TAP	90	96	6
TAP	90	96	7
TAP	90	192	0
TAP	90	192	5
HLD	91	0	0	192
HLD	91	192	1	192
HLD	92	0	2	192
TAP	92	192	3
HLD	93	0	4	192
HLD	93	192	5	192
HLD	94	0	6	192
TAP	94	192	7
HLD	95	0	7	192
HLD	95	192	6	192
HLD	96	0	5	192
TAP	96	192	4
HLD	97	0	3	192
HLD	97	192	2	192
HLD	98	0	1	192
TAP	98	192	0
BRK	99	0	1
TAP	99	96	0
TAP	99	192	2
TAP	99	192	7
TAP	100	0	6
TAP	100	96	7
TAP	100	192	0
TAP	100	192	5
TAP	101	0	0
TAP	101	96	7
STR	101	192	0
SCR	101	192	0	96	288	3
STR	101	192	7
SCL	101	192	7	96	288	4
TAP	103	0	5
TAP	103	96	4
TAP	103	192	3
TAP	103	192	6
TAP	104	0	2
TAP	104	96	3
TAP	104	192	1
TAP	104	192	4
TAP	105	0	4
TAP	105	96	3
TAP	105	192	5
TAP	105	288	2
HLD	106	0	1	192
HLD	106	0	6	192
HLD	107	0	3	192
TAP	107	192	2
HLD	108	0	4	192
TAP	108	192	5
TAP	109	0	2
TAP	109	0	5
STR	109	192	1
SI_	109	192	1	96	240	4
STR	109	192	6
SI_	109	192	6	96	240	3

T_REC_TAP	307
T_REC_BRK	7
T_REC_XTP	0
T_REC_HLD	32
T_REC_XHO	0
T_REC_STR	26
T_REC_BST	0
T_REC_XST	0
T_REC_TTP	0
T_REC_THO	0
T_REC_SLD	26
T_REC_ALL	398
T_NUM_TAP	333
T_NUM_BRK	7
T_NUM_HLD	32
T_NUM_SLD	26
T_NUM_ALL	398
T_JUDGE_TAP	340
T_JUDGE_HLD	124
T_JUDGE_SLD	26
T_JUDGE_ALL	490
TTM_EACHPAIRS	104
TTM_SCR_TAP	166500
TTM_SCR_BRK	18200
TTM_SCR_HLD	32000
TTM_SCR_SLD	39000
TTM_SCR_ALL	255700
TTM_SCR_S	247350
TTM_SCR_SS	255000
TTM_RAT_ACV	10027

