VERSION	0.00.00	1.03.00
FES_MODE	0
BPM_DEF	191.970	191.970	191.970	191.970
MET_DEF	4	4
RESOLUTION	384
CLK_DEF	384
COMPATIBLE_CODE	MA2

BPM	0	0	191.970

TAP	1	0	0
TAP	1	192	0
TAP	2	0	7
TAP	2	192	7
TAP	3	0	0
TAP	3	192	0
TAP	4	0	7
TAP	4	96	0
TAP	4	192	7
TAP	5	0	0
TAP	5	192	0
TAP	6	0	7
TAP	6	192	7
TAP	7	0	0
TAP	7	192	0
TAP	8	0	7
TAP	8	96	0
TAP	8	192	7
TAP	9	0	0
TAP	9	192	0
TAP	10	0	1
TAP	10	192	1
TAP	11	0	2
TAP	11	192	2
TAP	12	0	3
TAP	12	96	4
TAP	12	192	3
TAP	13	0	4
TAP	13	192	4
TAP	14	0	5
TAP	14	192	5
TAP	15	0	6
TAP	15	192	6
TAP	16	0	7
TAP	16	96	0
TAP	16	192	7
HLD	17	0	0	192
TAP	18	0	7
TAP	18	192	7
TAP	19	0	6
TAP	19	192	6
TAP	20	0	5
TAP	20	192	5
TAP	21	0	4
TAP	21	96	3
TAP	21	192	4
TAP	22	0	3
TAP	22	192	3
TAP	23	0	2
TAP	23	192	2
TAP	24	0	1
TAP	24	192	1
TAP	25	0	0
TAP	25	96	7
BRK	25	192	0
TAP	26	0	0
TAP	26	96	0
TAP	26	192	0
TAP	27	0	1
TAP	27	96	1
TAP	27	192	1
TAP	28	0	2
TAP	28	192	2
TAP	29	0	3
TAP	29	96	4
TAP	29	192	3
TAP	30	0	4
TAP	30	96	4
TAP	30	192	4
TAP	31	0	5
TAP	31	96	5
TAP	31	192	5
TAP	32	0	6
TAP	32	192	6
TAP	33	0	7
TAP	33	96	0
TAP	33	192	7
STR	34	0	0
SI_	34	0	0	96	288	4
HLD	36	0	7	384
STR	38	0	7
SI_	38	0	7	96	288	3
HLD	40	0	0	384
TAP	42	0	0
TAP	42	96	0
TAP	42	192	0
TAP	43	0	1
TAP	43	96	1
TAP	43	192	1
TAP	44	0	2
TAP	44	96	2
TAP	44	192	2
HLD	45	0	3	192
TAP	46	0	4
TAP	46	96	4
TAP	46	192	4
TAP	47	0	5
TAP	47	96	5
TAP	47	192	5
TAP	48	0	6
TAP	48	96	6
TAP	48	192	6
HLD	49	0	7	192
TAP	50	0	7
TAP	50	96	7
TAP	50	192	7
TAP	51	0	6
TAP	51	96	6
TAP	51	192	6
TAP	52	0	5
TAP	52	96	5
TAP	52	192	5
HLD	53	0	4	192
HLD	54	0	3	192
HLD	55	0	2	192
HLD	56	0	1	192
HLD	57	0	0	192
HLD	58	0	0	384
HLD	58	0	7	384
HLD	60	0	1	384
HLD	60	0	6	384
TAP	62	0	0
TAP	62	192	0
TAP	63	0	1
TAP	63	192	1
TAP	64	0	2
TAP	64	192	2
TAP	65	0	3
TAP	65	0	4
TAP	66	0	4
TAP	66	192	4
TAP	67	0	5
TAP	67	192	5
TAP	68	0	6
TAP	68	192	6
BRK	69	0	0
BRK	69	0	7
TAP	70	0	0
TAP	71	0	0
TAP	72	0	0
TAP	72	192	0
TAP	73	0	0
TAP	74	0	7
TAP	75	0	7
HLD	76	0	7	384
BRK	78	0	0
TAP	79	0	0
TAP	79	96	0
TAP	79	192	1
TAP	80	0	1
TAP	80	96	1
TAP	80	192	2
TAP	81	0	2
TAP	81	96	2
TAP	81	192	3
HLD	82	0	4	192
TAP	83	0	4
TAP	83	96	4
TAP	83	192	5
TAP	84	0	5
TAP	84	96	5
TAP	84	192	6
TAP	85	0	6
TAP	85	96	6
TAP	85	192	7
HLD	86	0	0	192
TAP	87	0	7
TAP	87	96	7
TAP	87	192	6
TAP	88	0	6
TAP	88	96	6
TAP	88	192	5
TAP	89	0	5
TAP	89	96	5
TAP	89	192	4
HLD	90	0	3	192
TAP	91	0	3
TAP	91	0	4
TAP	92	0	3
TAP	92	0	4
TAP	93	0	2
TAP	93	0	5
TAP	94	0	2
TAP	94	0	5
STR	95	0	1
SI_	95	0	1	96	288	4
STR	97	0	6
SI_	97	0	6	96	288	3
TAP	99	0	0
TAP	99	192	0
TAP	100	0	1
TAP	100	192	1
TAP	101	0	2
TAP	101	192	2
TAP	102	0	3
TAP	102	96	4
TAP	102	192	3
TAP	103	0	4
TAP	103	192	4
TAP	104	0	5
TAP	104	192	5
TAP	105	0	6
TAP	105	192	6
TAP	106	0	7
TAP	106	96	0
TAP	106	192	7
STR	107	0	0
SI_	107	0	0	96	288	5
STR	109	0	7
SI_	109	0	7	96	288	2

T_REC_TAP	176
T_REC_BRK	4
T_REC_XTP	0
T_REC_HLD	18
T_REC_XHO	0
T_REC_STR	6
T_REC_BST	0
T_REC_XST	0
T_REC_TTP	0
T_REC_THO	0
T_REC_SLD	6
T_REC_ALL	210
T_NUM_TAP	182
T_NUM_BRK	4
T_NUM_HLD	18
T_NUM_SLD	6
T_NUM_ALL	210
T_JUDGE_TAP	186
T_JUDGE_HLD	100
T_JUDGE_SLD	6
T_JUDGE_ALL	292
TTM_EACHPAIRS	8
TTM_SCR_TAP	91000
TTM_SCR_BRK	10400
TTM_SCR_HLD	18000
TTM_SCR_SLD	9000
TTM_SCR_ALL	128400
TTM_SCR_S	124200
TTM_SCR_SS	128000
TTM_RAT_ACV	10031

