VERSION	0.00.00	1.03.00
FES_MODE	0
BPM_DEF	135.000	135.000	135.000	135.000
MET_DEF	4	4
RESOLUTION	384
CLK_DEF	384
COMPATIBLE_CODE	MA2

BPM	0	0	135.000
MET	0	0	4	4

TAP	1	336	1
HLD	1	336	4	96
TAP	2	0	2
HLD	2	48	1	96
TAP	2	96	3
HLD	2	144	4	96
TAP	2	192	3
HLD	2	240	1	96
TAP	2	288	2
HLD	2	336	5	96
TAP	3	0	3
HLD	3	48	2	96
TAP	3	96	4
HLD	3	144	5	96
TAP	3	192	4
HLD	3	240	2	96
TAP	3	288	3
HLD	3	336	6	96
TAP	4	0	4
HLD	4	48	3	96
TAP	4	96	5
HLD	4	144	6	96
TAP	4	192	5
HLD	4	240	3	96
TAP	4	288	4
HLD	4	336	5	96
TAP	5	0	3
HLD	5	48	2	96
TAP	5	96	4
HLD	5	144	5	96
TAP	5	192	4
HLD	5	240	2	96
TAP	5	288	3
TAP	5	336	4
TAP	6	0	1
TAP	6	0	5
TAP	6	48	4
TAP	6	96	2
TAP	6	96	6
TAP	6	144	3
TAP	6	176	3
HLD	6	192	5	96
TAP	6	240	4
HLD	6	288	2	96
TAP	6	336	3
TAP	7	0	6
TAP	7	48	3
TAP	7	96	1
TAP	7	96	5
TAP	7	144	4
TAP	7	176	4
HLD	7	192	2	96
TAP	7	240	3
HLD	7	288	5	96
TAP	7	336	4
HLD	8	0	3	144
TAP	8	48	2
TAP	8	96	2
HLD	8	144	4	144
TAP	8	192	5
TAP	8	240	5
TAP	8	288	3
TAP	8	336	1
TAP	8	336	6
TAP	9	48	0
TAP	9	48	2
TAP	9	96	5
TAP	9	96	7
TAP	9	144	2
TAP	9	168	3
TAP	9	192	1
TAP	9	240	4
TAP	9	256	3
TAP	9	272	5
TAP	9	288	4
TAP	9	336	7
TAP	10	0	4
TAP	10	0	6
TAP	10	48	7
TAP	10	96	3
TAP	10	96	4
TAP	10	144	0
TAP	10	192	1
TAP	10	192	3
TAP	10	240	7
TAP	10	288	3
TAP	10	288	4
TAP	10	336	0
HLD	11	0	2	96
TAP	11	48	4
HLD	11	96	3	96
TAP	11	144	1
HLD	11	192	4	96
TAP	11	240	6
HLD	11	288	5	96
TAP	11	336	0
TAP	12	0	3
TAP	12	48	1
TAP	12	96	3
TAP	12	96	4
TAP	12	144	6
TAP	12	192	2
TAP	12	192	4
TAP	12	240	1
TAP	12	288	3
TAP	12	288	4
TAP	12	336	6
HLD	13	0	5	96
TAP	13	48	3
HLD	13	96	4	96
TAP	13	144	6
HLD	13	192	3	96
TAP	13	240	1
HLD	13	288	2	96
HLD	13	336	7	816
TAP	14	96	3
TAP	14	192	3
TAP	14	336	0
TAP	15	0	6
TAP	15	48	1
TAP	15	96	5
TAP	15	144	2
HLD	15	192	4	96
TAP	15	336	4
HLD	16	0	3	96
TAP	16	48	6
HLD	16	96	4	96
TAP	16	144	7
HLD	16	192	3	96
TAP	16	240	6
HLD	16	288	4	96
TAP	16	336	7
HLD	17	0	3	96
TAP	17	48	1
HLD	17	96	4	96
TAP	17	144	0
HLD	17	192	3	96
TAP	17	240	1
TAP	17	288	4
TAP	17	336	0
TAP	18	0	1
TAP	18	0	3
TAP	18	48	0
TAP	18	96	3
TAP	18	96	4
TAP	18	144	7
TAP	18	192	4
TAP	18	192	6
TAP	18	240	0
TAP	18	288	3
TAP	18	288	4
TAP	18	336	7
HLD	19	0	5	96
TAP	19	48	3
HLD	19	96	4	96
TAP	19	144	6
HLD	19	192	3	96
TAP	19	240	1
HLD	19	288	2	96
TAP	19	336	7
TAP	20	0	4
TAP	20	48	6
TAP	20	96	3
TAP	20	96	4
TAP	20	144	1
TAP	20	192	3
TAP	20	192	5
TAP	20	240	6
TAP	20	288	3
TAP	20	288	4
TAP	20	336	1
HLD	21	0	2	96
TAP	21	48	4
HLD	21	96	3	96
TAP	21	144	1
HLD	21	192	4	144
TAP	21	240	6
TAP	21	288	0
HLD	21	336	7	816
TAP	22	96	3
TAP	22	192	3
TAP	22	336	0
TAP	23	0	6
TAP	23	48	1
TAP	23	96	5
TAP	23	144	2
HLD	23	192	4	96
TAP	23	336	3
HLD	24	0	2	96
TAP	24	48	6
HLD	24	96	5	96
TAP	24	144	7
HLD	24	192	2	96
TAP	24	240	0
HLD	24	288	5	96
TAP	24	336	1
HLD	25	0	2	96
TAP	25	48	0
HLD	25	96	5	96
TAP	25	144	7
STR	25	192	2
SXR	25	192	2	96	288	4
STR	25	240	5
SXL	25	240	5	96	240	3
HLD	27	0	6	96
TAP	27	48	0
HLD	27	96	2	96
TAP	27	144	7
HLD	27	192	5	96
TAP	27	240	0
HLD	27	288	1	96
TAP	27	336	7
HLD	28	0	6	96
TAP	28	48	7
HLD	28	96	0	96
TAP	28	144	7
HLD	28	192	6	144
TAP	28	240	7
TAP	28	288	0
HLD	28	336	1	96
TAP	29	0	0
HLD	29	48	7	96
TAP	29	96	0
HLD	29	144	1	144
TAP	29	192	0
TAP	29	240	7
HLD	29	288	6	96
TAP	29	336	7
HLD	30	0	1	192
TAP	30	48	2
TAP	30	96	3
TAP	30	144	4
HLD	30	192	6	192
TAP	30	240	5
TAP	30	288	4
TAP	30	336	3
HLD	31	0	2	192
TAP	31	48	4
TAP	31	96	3
TAP	31	144	4
HLD	31	192	5	288
TAP	31	240	3
TAP	31	288	4
HLD	31	336	2	432
TAP	32	240	3
TAP	32	288	3
HLD	32	336	3	240
TAP	33	48	4
TAP	33	96	4
HLD	33	144	4	336
TAP	33	240	5
TAP	33	288	5
HLD	33	336	5	336
TAP	34	144	4
TAP	34	168	3
HLD	34	192	2	96
TAP	34	336	2
TAP	34	336	5
TAP	35	0	3
TAP	35	0	4
HLD	35	48	4	48
HLD	35	48	6	48
HLD	35	144	1	48
HLD	35	144	3	48
HLD	35	240	0	48
HLD	35	240	5	48
HLD	35	336	2	240
TAP	35	336	7
TAP	36	48	3
TAP	36	96	1
TAP	36	144	3
HLD	36	192	5	192
TAP	36	240	4
TAP	36	288	6
TAP	36	336	4
HLD	37	0	2	192
TAP	37	48	4
TAP	37	96	0
TAP	37	144	4
HLD	37	192	5	192
TAP	37	240	3
TAP	37	288	7
TAP	37	336	3
HLD	38	0	2	96
TAP	38	48	4
HLD	38	96	4	96
TAP	38	144	5
HLD	38	192	5	96
TAP	38	240	3
HLD	38	288	3	96
TAP	38	336	2
HLD	39	0	2	96
TAP	39	48	4
HLD	39	96	4	96
TAP	39	144	5
HLD	39	192	5	48
HLD	39	240	3	48
HLD	39	288	1	192
HLD	39	336	6	432
TAP	40	240	7
TAP	40	288	5
HLD	40	336	2	240
TAP	41	48	1
TAP	41	96	3
HLD	41	144	5	336
TAP	41	240	6
TAP	41	288	4
HLD	41	336	1	336
TAP	42	144	0
TAP	42	168	7
HLD	42	192	6	96
HLD	43	0	5	48
HLD	43	48	4	48
HLD	43	96	3	48
HLD	43	144	2	48
HLD	43	192	3	48
HLD	43	240	4	48
TAP	43	288	5
TAP	43	336	0
TAP	43	336	7
STR	44	48	3
SUR	44	48	3	96	72	1
STR	44	48	5
SCR	44	48	5	96	72	1
TAP	44	96	3
TAP	44	96	5
STR	44	336	2
SUR	44	336	2	96	144	4
TAP	44	336	7
HLD	45	48	7	144
TAP	45	288	2
TAP	45	336	6
TAP	46	0	1
TAP	46	48	7
STR	46	96	0
SI_	46	96	0	96	96	3
HLD	46	144	0	144
STR	47	0	2
SXR	47	0	2	96	144	4
STR	47	48	5
SXL	47	48	5	96	96	3
TAP	47	96	2
TAP	47	144	5
HLD	47	336	6	240
TAP	48	48	1
TAP	48	96	2
TAP	48	144	3
HLD	48	192	4	336
TAP	48	288	3
TAP	48	336	2
TAP	49	0	1
TAP	49	48	0
TAP	49	96	7
HLD	49	144	6	96
HLD	49	240	1	96
HLD	49	336	5	192
TAP	50	0	7
TAP	50	48	3
TAP	50	96	1
HLD	50	144	2	192
TAP	50	192	0
TAP	50	240	4
TAP	50	288	6
STR	50	336	5
SXR	50	336	5	96	528	2
HLD	52	336	6	144
TAP	53	48	1
HLD	53	96	4	96
TAP	53	144	0
HLD	53	192	5	96
TAP	53	240	7
HLD	53	288	2	96
TAP	53	336	6
HLD	54	0	3	96
TAP	54	48	1
HLD	54	96	2	96
TAP	54	144	6
HLD	54	192	5	144
TAP	54	240	7
TAP	54	288	0
HLD	54	336	1	144
TAP	55	48	6
HLD	55	96	3	96
TAP	55	144	7
HLD	55	192	2	96
TAP	55	240	0
HLD	55	288	5	96
TAP	55	336	1
HLD	56	0	4	96
TAP	56	48	6
HLD	56	96	5	96
TAP	56	144	1
HLD	56	192	2	144
TAP	56	240	7
TAP	56	288	0
HLD	56	336	7	720
TAP	57	96	3
HLD	57	192	3	96
TAP	57	336	0
TAP	58	0	6
TAP	58	48	1
TAP	58	96	5
TAP	58	144	2
HLD	58	192	4	192
TAP	58	336	0
STR	59	0	0
SI_	59	0	0	96	48	4
TAP	59	48	0
STR	59	96	1
SI_	59	96	1	96	48	3
TAP	59	144	1
STR	59	192	6
SI_	59	192	6	96	48	4
TAP	59	240	6
STR	59	288	7
SI_	59	288	7	96	48	3
TAP	59	336	7
STR	60	0	6
SI_	60	0	6	96	48	3
TAP	60	48	6
STR	60	96	1
SF_	60	96	1	96	48	5
TAP	60	144	1
STR	60	336	2
SXR	60	336	2	96	144	4
STR	60	336	5
SXL	60	336	5	96	144	3
TAP	61	48	2
TAP	61	48	5
HLD	61	336	1	96
TAP	62	0	2
HLD	62	48	6	96
TAP	62	96	5
HLD	62	144	1	96
TAP	62	192	2
HLD	62	240	6	96
TAP	62	288	5
HLD	62	336	1	144
TAP	63	48	3
HLD	63	96	3	96
TAP	63	144	4
HLD	63	192	4	96
TAP	63	240	5
HLD	63	288	5	96
TAP	63	336	6
HLD	64	0	2	96
TAP	64	48	1
HLD	64	96	5	96
TAP	64	144	6
HLD	64	192	2	144
TAP	64	240	1
TAP	64	288	0
HLD	64	336	7	672
TAP	65	96	3
HLD	65	192	3	96
TAP	65	336	0
TAP	66	0	6
TAP	66	48	1
TAP	66	96	5
TAP	66	144	2
HLD	66	192	4	144
TAP	66	288	0
HLD	66	336	5	144
TAP	67	48	7
STR	67	96	2
SXR	67	96	2	96	144	4
STR	67	144	5
SXL	67	144	5	96	96	3
TAP	67	192	2
TAP	67	240	5
TAP	68	48	5
TAP	68	48	7
TAP	68	96	0
TAP	68	96	6
TAP	68	144	1
TAP	68	144	7
TAP	68	192	0
TAP	68	192	2
TAP	68	240	0
TAP	68	240	7
TAP	68	288	1
TAP	68	288	6
STR	68	336	2
SXR	68	336	2	96	144	4
STR	68	336	5
SXL	68	336	5	96	144	3
HLD	70	0	4	96
TAP	70	48	1
HLD	70	96	3	96
TAP	70	144	6
HLD	70	192	5	144
TAP	70	240	7
TAP	70	288	0
HLD	70	336	2	144
TAP	71	48	7
STR	71	96	5
SXL	71	96	5	96	144	3
STR	71	144	2
SXR	71	144	2	96	96	4
TAP	71	192	5
TAP	71	240	2
TAP	72	48	3
TAP	72	48	7
TAP	72	96	0
TAP	72	96	4
TAP	72	144	3
TAP	72	144	7
STR	72	192	2
SI_	72	192	2	96	48	5
STR	72	192	6
SI_	72	192	6	96	48	1
STR	72	240	1
SCL	72	240	1	96	240	5
STR	72	240	5
SCL	72	240	5	96	240	1
HLD	74	0	2	96
TAP	74	48	0
HLD	74	96	5	96
TAP	74	144	7
TAP	74	192	0
TAP	74	240	7
STR	74	288	2
SXR	74	288	2	96	192	4
STR	74	336	5
SXL	74	336	5	96	144	3
HLD	76	0	5	96
TAP	76	48	7
HLD	76	96	2	96
TAP	76	144	0
TAP	76	192	7
TAP	76	240	0
STR	76	288	5
SXL	76	288	5	96	192	3
STR	76	336	2
SXR	76	336	2	96	144	4
TAP	78	0	2
TAP	78	0	3
TAP	78	48	1
TAP	78	48	4
TAP	78	96	0
TAP	78	96	5
HLD	78	144	6	48
HLD	78	144	7	48
HLD	78	240	0	48
HLD	78	240	1	48
STR	78	336	2
SXR	78	336	2	96	144	4
STR	78	336	5
SXL	78	336	5	96	144	3
TAP	79	48	2
TAP	79	48	5
TAP	79	288	7
TAP	79	336	0
HLD	80	0	6	96
TAP	80	48	5
HLD	80	96	1	96
TAP	80	144	2
HLD	80	192	4	144
TAP	80	240	0
TAP	80	288	6
BRK	80	336	2

T_REC_TAP	335
T_REC_BRK	1
T_REC_XTP	0
T_REC_HLD	159
T_REC_XHO	0
T_REC_STR	33
T_REC_BST	0
T_REC_XST	0
T_REC_TTP	0
T_REC_THO	0
T_REC_SLD	33
T_REC_ALL	561
T_NUM_TAP	368
T_NUM_BRK	1
T_NUM_HLD	159
T_NUM_SLD	33
T_NUM_ALL	561
T_JUDGE_TAP	369
T_JUDGE_HLD	448
T_JUDGE_SLD	33
T_JUDGE_ALL	850
TTM_EACHPAIRS	52
TTM_SCR_TAP	184000
TTM_SCR_BRK	2600
TTM_SCR_HLD	159000
TTM_SCR_SLD	49500
TTM_SCR_ALL	395100
TTM_SCR_S	383150
TTM_SCR_SS	395000
TTM_RAT_ACV	10002

