VERSION	0.00.00	1.03.00
FES_MODE	0
BPM_DEF	135.000	135.000	135.000	135.000
MET_DEF	4	4
RESOLUTION	384
CLK_DEF	384
COMPATIBLE_CODE	MA2

BPM	0	0	135.000
MET	0	0	4	4

HLD	1	336	2	144
HLD	2	96	3	96
TAP	2	192	2
HLD	2	336	5	144
HLD	3	96	4	96
TAP	3	192	5
HLD	3	336	1	144
HLD	4	96	0	96
TAP	4	192	1
HLD	4	336	6	144
HLD	5	96	7	96
TAP	5	192	6
TAP	6	0	3
TAP	6	0	4
TAP	6	96	5
TAP	6	192	6
TAP	6	288	7
TAP	7	0	0
TAP	7	0	7
TAP	7	96	1
TAP	7	192	2
TAP	7	288	3
TAP	8	48	3
TAP	8	48	4
TAP	8	96	3
TAP	8	96	4
TAP	8	192	0
TAP	8	192	7
TAP	8	240	0
TAP	8	240	7
STR	8	336	0
SCR	8	336	0	96	48	3
STR	8	336	7
SCL	8	336	7	96	48	4
HLD	10	0	1	96
TAP	10	96	0
HLD	10	192	6	96
TAP	10	288	7
HLD	11	0	1	96
TAP	11	96	0
TAP	11	192	3
TAP	11	192	4
TAP	11	240	3
TAP	11	240	4
HLD	12	0	6	96
TAP	12	96	7
HLD	12	192	1	384
TAP	12	288	6
TAP	13	0	3
TAP	13	96	6
TAP	13	192	3
HLD	14	0	7	192
TAP	14	96	0
TAP	14	192	1
HLD	14	288	3	288
TAP	14	288	7
TAP	15	0	5
TAP	15	96	7
TAP	15	192	5
HLD	16	0	2	96
TAP	16	192	1
TAP	16	192	2
TAP	16	240	0
TAP	16	240	1
HLD	17	0	5	96
TAP	17	192	5
TAP	17	192	6
TAP	17	240	6
TAP	17	240	7
HLD	18	0	1	96
TAP	18	96	7
HLD	18	192	6	96
TAP	18	288	0
HLD	19	0	1	96
TAP	19	96	7
TAP	19	192	3
TAP	19	192	4
TAP	19	240	3
TAP	19	240	4
HLD	20	0	6	96
TAP	20	96	0
HLD	20	192	1	384
TAP	20	288	6
TAP	21	0	3
TAP	21	96	6
TAP	21	192	3
HLD	22	0	7	192
TAP	22	96	0
TAP	22	192	1
HLD	22	288	3	288
TAP	22	288	7
TAP	23	0	5
TAP	23	96	7
TAP	23	192	5
HLD	24	0	2	96
TAP	24	192	1
TAP	24	192	2
TAP	24	240	0
TAP	24	240	1
TAP	25	0	0
TAP	25	0	7
TAP	25	96	6
TAP	25	96	7
TAP	25	192	6
STR	25	288	6
SUL	25	288	6	96	192	2
TAP	27	0	1
TAP	27	96	6
TAP	27	192	5
TAP	27	288	2
TAP	28	0	3
TAP	28	96	2
TAP	28	96	3
TAP	28	192	4
TAP	28	288	4
TAP	28	288	5
STR	29	0	0
SCL	29	0	0	96	96	5
STR	29	0	1
SUL	29	0	1	96	96	4
TAP	30	0	2
TAP	30	96	1
TAP	30	96	3
TAP	30	192	5
TAP	30	288	4
TAP	30	288	6
TAP	31	0	1
TAP	31	96	0
TAP	31	96	2
TAP	31	192	6
TAP	31	288	5
STR	31	288	7
SCR	31	288	7	96	96	3
TAP	32	192	6
TAP	32	288	5
TAP	32	288	7
TAP	33	0	1
TAP	33	96	0
TAP	33	96	2
TAP	33	192	5
TAP	33	288	4
TAP	33	288	6
HLD	34	0	3	192
STR	34	192	4
SCR	34	192	4	96	288	3
TAP	36	0	4
TAP	36	96	5
TAP	36	96	6
TAP	36	192	3
TAP	36	288	1
TAP	36	288	2
STR	37	0	6
SUR	37	0	6	96	96	3
STR	37	0	7
SCR	37	0	7	96	96	2
TAP	38	0	5
TAP	38	96	4
TAP	38	96	7
TAP	38	192	2
TAP	38	288	0
TAP	38	288	3
TAP	39	0	6
TAP	39	96	4
TAP	39	96	7
TAP	39	192	1
STR	39	288	0
SCL	39	288	0	96	96	4
TAP	39	288	3
TAP	40	192	1
TAP	40	288	3
TAP	40	288	7
TAP	41	0	6
TAP	41	96	0
TAP	41	96	4
TAP	41	192	1
TAP	41	288	3
TAP	41	288	7
HLD	42	0	4	192
STR	42	192	3
SCL	42	192	3	96	288	4
TAP	44	0	6
HLD	44	0	7	192
TAP	44	96	6
TAP	44	192	0
HLD	45	0	3	192
TAP	45	0	4
TAP	45	96	4
TAP	45	192	0
TAP	45	288	4
TAP	46	0	7
STR	46	96	0
SI_	46	96	0	96	96	3
TAP	46	192	7
HLD	47	0	1	288
HLD	47	96	6	192
TAP	48	0	0
TAP	48	0	7
TAP	48	96	0
TAP	48	96	7
TAP	48	192	3
TAP	48	192	4
TAP	48	288	3
TAP	49	0	5
TAP	49	96	7
STR	49	144	7
SI_	49	144	7	96	48	4
TAP	50	0	6
TAP	50	0	7
TAP	50	96	0
TAP	50	96	5
TAP	50	192	1
TAP	50	192	4
TAP	50	288	2
STR	50	288	3
SCL	50	288	3	96	192	4
TAP	52	0	4
TAP	52	0	5
TAP	52	96	3
TAP	52	96	6
TAP	52	192	2
TAP	52	192	7
TAP	52	288	0
TAP	52	288	1
HLD	53	0	2	96
TAP	53	96	0
HLD	53	192	5	96
TAP	53	288	7
TAP	54	0	1
TAP	54	0	6
STR	54	96	0
SI_	54	96	0	96	48	4
TAP	54	96	7
TAP	54	192	6
TAP	54	240	6
HLD	55	0	5	96
TAP	55	96	7
HLD	55	192	2	96
TAP	55	288	0
TAP	56	0	0
TAP	56	0	7
STR	56	96	0
SI_	56	96	0	96	48	4
STR	56	96	7
SI_	56	96	7	96	48	3
HLD	57	0	7	192
TAP	57	96	0
TAP	57	192	1
HLD	57	288	3	192
TAP	57	288	7
TAP	58	0	5
STR	58	96	7
SCL	58	96	7	96	48	4
HLD	59	0	2	96
BRK	59	192	1
BRK	59	192	2
BRK	59	240	0
BRK	59	240	1
HLD	60	0	5	96
BRK	60	192	5
BRK	60	192	6
BRK	60	240	6
BRK	60	240	7
HLD	61	0	2	96
TAP	61	96	1
HLD	61	192	5	96
TAP	61	288	6
TAP	62	0	0
TAP	62	0	7
TAP	62	96	0
STR	62	96	7
SI_	62	96	7	96	48	3
TAP	62	192	1
TAP	62	240	1
HLD	63	0	2	96
TAP	63	96	1
HLD	63	192	5	96
TAP	63	288	6
TAP	64	0	0
TAP	64	0	7
STR	64	96	0
SI_	64	96	0	96	48	4
STR	64	96	7
SI_	64	96	7	96	48	3
HLD	65	0	7	192
TAP	65	96	0
TAP	65	192	1
HLD	65	288	3	192
TAP	65	288	7
TAP	66	0	5
STR	66	96	7
SCL	66	96	7	96	48	4
HLD	67	0	2	96
BRK	67	192	1
BRK	67	192	2
BRK	67	240	0
BRK	67	240	1
TAP	68	0	5
TAP	68	0	7
TAP	68	96	0
TAP	68	96	2
TAP	68	192	5
TAP	68	192	7
TAP	68	288	6
STR	68	336	6
SUL	68	336	6	96	144	2
TAP	70	0	5
TAP	70	0	6
TAP	70	96	5
TAP	70	96	6
TAP	70	192	1
TAP	70	192	2
TAP	70	288	1
TAP	70	288	2
HLD	71	0	5	96
BRK	71	192	5
BRK	71	192	6
BRK	71	240	6
BRK	71	240	7
TAP	72	0	0
TAP	72	0	2
TAP	72	96	5
TAP	72	96	7
TAP	72	192	0
TAP	72	192	2
TAP	72	288	1
STR	72	336	1
SUR	72	336	1	96	144	5
TAP	74	0	0
TAP	74	0	2
TAP	74	96	0
TAP	74	96	2
TAP	74	192	5
TAP	74	192	7
TAP	74	288	6
STR	74	336	6
SUL	74	336	6	96	144	2
TAP	76	0	3
TAP	76	0	4
TAP	76	96	3
TAP	76	96	4
TAP	76	192	0
TAP	76	192	7
TAP	76	288	1
TAP	76	288	6
STR	76	336	1
SUR	76	336	1	96	336	5
STR	76	336	6
SUL	76	336	6	96	336	2
TAP	78	144	6
TAP	78	144	7
TAP	78	240	4
TAP	78	240	5
TAP	78	336	2
TAP	78	336	3
TAP	79	48	0
TAP	79	48	1
TAP	80	0	3
TAP	80	0	7
TAP	80	96	2
TAP	80	96	6
STR	80	192	1
SI_	80	192	1	96	96	6
STR	80	192	5
SI_	80	192	5	96	96	2

T_REC_TAP	243
T_REC_BRK	16
T_REC_XTP	0
T_REC_HLD	47
T_REC_XHO	0
T_REC_STR	29
T_REC_BST	0
T_REC_XST	0
T_REC_TTP	0
T_REC_THO	0
T_REC_SLD	29
T_REC_ALL	364
T_NUM_TAP	272
T_NUM_BRK	16
T_NUM_HLD	47
T_NUM_SLD	29
T_NUM_ALL	364
T_JUDGE_TAP	288
T_JUDGE_HLD	144
T_JUDGE_SLD	29
T_JUDGE_ALL	461
TTM_EACHPAIRS	97
TTM_SCR_TAP	136000
TTM_SCR_BRK	41600
TTM_SCR_HLD	47000
TTM_SCR_SLD	43500
TTM_SCR_ALL	268100
TTM_SCR_S	258550
TTM_SCR_SS	266500
TTM_RAT_ACV	10060

