VERSION	0.00.00	1.03.00
FES_MODE	0
BPM_DEF	135.000	135.000	135.000	135.000
MET_DEF	4	4
RESOLUTION	384
CLK_DEF	384
COMPATIBLE_CODE	MA2

BPM	0	0	135.000
MET	0	0	4	4

TAP	1	336	0
TAP	1	336	7
TAP	2	48	0
TAP	2	48	7
TAP	2	144	1
TAP	2	240	1
TAP	2	336	2
TAP	3	48	2
TAP	3	144	3
TAP	3	240	3
TAP	3	336	4
TAP	4	48	4
TAP	4	144	5
TAP	4	240	5
TAP	4	336	6
TAP	5	48	6
HLD	5	144	0	96
HLD	5	144	7	96
TAP	5	336	0
TAP	5	336	7
TAP	6	0	0
TAP	6	0	7
TAP	6	96	0
TAP	6	96	7
TAP	6	192	6
TAP	6	288	6
TAP	7	0	5
TAP	7	96	5
TAP	7	192	4
TAP	7	288	4
TAP	8	0	3
TAP	8	96	3
TAP	8	192	2
TAP	8	288	2
TAP	9	0	1
TAP	9	96	1
TAP	9	192	0
TAP	9	192	7
TAP	10	0	2
TAP	10	96	2
TAP	10	192	3
TAP	10	288	3
TAP	11	0	2
TAP	11	96	3
TAP	11	192	1
TAP	11	192	4
TAP	12	0	5
TAP	12	96	5
TAP	12	192	4
TAP	12	288	4
TAP	13	0	5
TAP	13	96	4
TAP	13	192	3
TAP	13	192	6
TAP	14	0	0
TAP	14	0	1
TAP	14	96	0
TAP	14	96	1
TAP	14	192	2
TAP	14	192	7
TAP	15	0	6
TAP	15	0	7
TAP	15	96	6
TAP	15	96	7
TAP	15	192	0
TAP	15	192	5
TAP	16	0	1
TAP	16	96	2
TAP	16	192	3
TAP	16	288	4
TAP	17	0	5
TAP	17	96	6
TAP	17	192	0
TAP	17	192	7
TAP	17	288	0
TAP	17	288	7
TAP	18	0	5
TAP	18	96	5
TAP	18	192	4
TAP	18	288	4
TAP	19	0	5
TAP	19	96	4
TAP	19	192	3
TAP	19	192	6
TAP	20	0	2
TAP	20	96	2
TAP	20	192	3
TAP	20	288	3
TAP	21	0	2
TAP	21	96	3
TAP	21	192	1
TAP	21	192	4
TAP	22	0	6
TAP	22	0	7
TAP	22	96	6
TAP	22	96	7
TAP	22	192	0
TAP	22	192	5
TAP	23	0	0
TAP	23	0	1
TAP	23	96	0
TAP	23	96	1
TAP	23	192	2
TAP	23	192	7
TAP	24	0	6
TAP	24	96	5
TAP	24	192	4
TAP	24	288	3
TAP	25	0	2
TAP	25	96	1
TAP	25	192	0
TAP	25	192	7
TAP	25	288	0
TAP	25	288	7
STR	26	0	0
SI_	26	0	0	96	96	3
STR	26	0	7
SI_	26	0	7	96	96	4
HLD	28	0	2	96
TAP	28	96	3
TAP	28	192	1
TAP	28	192	4
HLD	29	0	5	96
TAP	29	96	4
TAP	29	192	3
TAP	29	192	6
HLD	30	0	2	96
TAP	30	96	3
TAP	30	192	1
TAP	30	192	4
HLD	31	0	6	192
HLD	31	0	7	192
TAP	31	288	0
TAP	31	288	5
HLD	32	0	1	96
TAP	32	96	0
TAP	32	192	2
TAP	32	192	7
HLD	33	0	6	96
TAP	33	96	7
TAP	33	192	0
TAP	33	192	5
STR	34	0	0
SCR	34	0	0	96	144	3
STR	34	0	7
SCL	34	0	7	96	144	4
TAP	35	0	3
TAP	35	0	4
TAP	35	96	2
TAP	35	96	5
TAP	35	192	1
TAP	35	192	6
HLD	36	0	5	96
TAP	36	96	4
TAP	36	192	3
TAP	36	192	6
HLD	37	0	2	96
TAP	37	96	3
TAP	37	192	1
TAP	37	192	4
HLD	38	0	5	96
TAP	38	96	4
TAP	38	192	3
TAP	38	192	6
HLD	39	0	0	192
HLD	39	0	1	192
TAP	39	288	2
TAP	39	288	7
HLD	40	0	6	96
TAP	40	96	7
TAP	40	192	0
TAP	40	192	5
HLD	41	0	1	96
TAP	41	96	0
TAP	41	192	2
TAP	41	192	7
STR	42	0	0
SCR	42	0	0	96	144	3
STR	42	0	7
SCL	42	0	7	96	144	4
TAP	43	0	3
TAP	43	0	4
TAP	43	96	2
TAP	43	96	5
TAP	43	192	1
TAP	43	192	6
STR	44	0	6
SI_	44	0	6	96	96	3
STR	45	0	1
SI_	45	0	1	96	96	4
STR	46	0	7
SI_	46	0	7	96	144	3
BRK	47	0	0
TAP	48	0	6
TAP	48	96	6
TAP	48	192	7
TAP	48	288	7
TAP	49	0	6
TAP	49	96	7
TAP	49	192	0
TAP	49	192	5
TAP	50	0	1
TAP	50	96	1
TAP	50	192	0
TAP	50	288	0
TAP	51	0	1
TAP	51	96	0
TAP	51	192	2
TAP	51	192	7
TAP	52	0	0
TAP	52	0	7
TAP	52	96	1
TAP	52	96	6
TAP	52	192	2
TAP	52	192	5
TAP	52	288	3
TAP	52	288	4
TAP	53	0	2
TAP	53	96	2
TAP	53	96	3
TAP	53	192	5
TAP	53	288	4
TAP	53	288	5
TAP	54	0	2
TAP	54	96	2
TAP	54	96	3
TAP	54	192	1
TAP	54	192	4
TAP	54	288	0
TAP	54	288	5
TAP	55	0	6
TAP	55	96	6
TAP	55	96	7
TAP	55	192	5
TAP	55	288	4
TAP	55	288	5
TAP	56	0	2
TAP	56	96	2
TAP	56	96	3
BRK	56	192	0
BRK	56	192	7
TAP	57	0	2
TAP	57	0	3
TAP	57	96	2
TAP	57	96	3
TAP	57	192	0
TAP	57	192	5
TAP	58	0	4
TAP	58	0	5
TAP	58	96	4
TAP	58	96	5
TAP	58	192	2
TAP	58	192	7
HLD	59	0	1	96
TAP	59	96	0
HLD	59	192	6	96
TAP	59	288	7
HLD	60	0	1	96
TAP	60	96	0
TAP	60	192	0
TAP	60	192	7
TAP	60	288	1
TAP	60	288	6
TAP	61	0	5
TAP	61	96	4
TAP	61	96	5
TAP	61	192	2
TAP	61	288	2
TAP	61	288	3
TAP	62	0	5
TAP	62	96	4
TAP	62	96	5
TAP	62	192	3
TAP	62	192	6
TAP	62	288	2
TAP	62	288	7
TAP	63	0	1
TAP	63	96	0
TAP	63	96	1
TAP	63	192	2
TAP	63	288	2
TAP	63	288	3
TAP	64	0	5
TAP	64	96	4
TAP	64	96	5
BRK	64	192	0
BRK	64	192	7
TAP	65	0	4
TAP	65	0	5
TAP	65	96	4
TAP	65	96	5
TAP	65	192	2
TAP	65	192	7
TAP	66	0	2
TAP	66	0	3
TAP	66	96	2
TAP	66	96	3
TAP	66	192	0
TAP	66	192	5
HLD	67	0	6	96
TAP	67	96	7
HLD	67	192	1	96
TAP	67	288	0
HLD	68	0	6	96
TAP	68	96	7
TAP	68	192	0
TAP	68	192	7
TAP	68	288	0
TAP	68	288	7
STR	69	0	0
SI_	69	0	0	96	96	5
STR	69	0	1
SI_	69	0	1	96	96	4
STR	70	0	6
SI_	70	0	6	96	96	3
STR	70	0	7
SI_	70	0	7	96	96	2
TAP	71	0	2
TAP	71	96	1
TAP	71	96	3
TAP	71	192	5
TAP	71	288	4
TAP	71	288	6
TAP	72	0	2
TAP	72	96	1
TAP	72	96	3
TAP	72	192	5
TAP	72	288	4
TAP	72	288	6
STR	73	0	2
SI_	73	0	2	96	96	7
STR	73	0	3
SI_	73	0	3	96	96	6
TAP	74	0	6
TAP	74	0	7
TAP	74	96	6
TAP	74	96	7
TAP	74	192	0
TAP	74	192	7
TAP	74	288	0
TAP	74	288	7
STR	75	0	4
SI_	75	0	4	96	96	1
STR	75	0	5
SI_	75	0	5	96	96	0
TAP	76	0	0
TAP	76	0	1
TAP	76	96	0
TAP	76	96	1
TAP	76	192	0
TAP	76	192	7
TAP	76	288	0
TAP	76	288	7
STR	77	0	0
SCR	77	0	0	96	144	3
STR	77	0	7
SCL	77	0	7	96	144	4
TAP	78	0	2
TAP	78	0	3
TAP	78	96	2
TAP	78	96	3
TAP	78	192	4
TAP	78	192	5
TAP	78	288	4
TAP	78	288	5
TAP	79	0	3
TAP	79	0	4
TAP	79	96	3
TAP	79	96	4
TAP	79	192	2
TAP	79	192	5
TAP	79	288	2
TAP	79	288	5
TAP	80	0	1
TAP	80	0	6
TAP	80	96	1
TAP	80	96	6
TAP	80	192	0
TAP	80	192	7
TAP	80	288	0
TAP	80	288	7
BRK	80	336	0
BRK	80	336	7

T_REC_TAP	316
T_REC_BRK	7
T_REC_XTP	0
T_REC_HLD	22
T_REC_XHO	0
T_REC_STR	19
T_REC_BST	0
T_REC_XST	0
T_REC_TTP	0
T_REC_THO	0
T_REC_SLD	19
T_REC_ALL	383
T_NUM_TAP	335
T_NUM_BRK	7
T_NUM_HLD	22
T_NUM_SLD	19
T_NUM_ALL	383
T_JUDGE_TAP	342
T_JUDGE_HLD	52
T_JUDGE_SLD	19
T_JUDGE_ALL	413
TTM_EACHPAIRS	120
TTM_SCR_TAP	167500
TTM_SCR_BRK	18200
TTM_SCR_HLD	22000
TTM_SCR_SLD	28500
TTM_SCR_ALL	236200
TTM_SCR_S	228450
TTM_SCR_SS	235500
TTM_RAT_ACV	10029

