VERSION	0.00.00	1.03.00
FES_MODE	0
BPM_DEF	135.000	135.000	135.000	135.000
MET_DEF	4	4
RESOLUTION	384
CLK_DEF	384
COMPATIBLE_CODE	MA2

BPM	0	0	135.000
MET	0	0	4	4

TAP	6	0	0
TAP	6	192	0
TAP	7	0	1
TAP	7	192	1
TAP	8	0	2
TAP	8	192	2
BRK	9	0	3
BRK	9	0	4
HLD	10	0	3	192
HLD	10	0	4	192
TAP	11	0	3
TAP	11	0	4
TAP	11	192	3
TAP	11	192	4
HLD	12	0	2	192
HLD	12	0	4	192
TAP	13	0	4
TAP	13	192	4
HLD	14	0	7	192
TAP	15	0	6
TAP	15	192	6
HLD	16	0	1	192
HLD	17	0	6	192
HLD	18	0	3	192
HLD	18	0	4	192
TAP	19	0	3
TAP	19	0	4
TAP	19	192	3
TAP	19	192	4
HLD	20	0	2	192
HLD	20	0	4	192
TAP	21	0	4
TAP	21	192	4
HLD	22	0	7	192
TAP	23	0	6
TAP	23	192	6
HLD	24	0	1	192
TAP	25	0	6
STR	25	192	6
SI_	25	192	6	96	288	1
TAP	28	0	0
TAP	28	192	0
TAP	29	0	1
TAP	29	192	1
TAP	30	0	2
TAP	30	192	2
TAP	31	0	3
TAP	31	96	3
TAP	31	192	3
TAP	32	0	4
TAP	32	192	4
TAP	33	0	5
TAP	33	192	5
TAP	34	0	6
TAP	34	192	6
TAP	35	0	7
TAP	35	96	7
TAP	35	192	7
TAP	36	0	0
TAP	36	192	0
TAP	37	0	7
TAP	37	192	7
TAP	38	0	6
TAP	38	192	6
TAP	39	0	5
TAP	39	96	5
TAP	39	192	5
TAP	40	0	4
TAP	40	192	4
TAP	41	0	3
TAP	41	192	3
TAP	42	0	2
TAP	42	192	2
TAP	43	0	1
TAP	43	96	1
TAP	43	192	1
TAP	44	0	0
TAP	44	0	1
TAP	44	192	0
TAP	44	192	1
TAP	45	0	6
TAP	45	0	7
TAP	45	192	6
TAP	45	192	7
TAP	46	0	0
TAP	46	192	7
TAP	47	0	0
TAP	47	0	7
BRK	47	192	0
BRK	47	192	7
TAP	48	0	0
TAP	48	0	1
TAP	48	192	0
TAP	48	192	1
TAP	49	0	6
TAP	49	0	7
TAP	49	192	6
TAP	49	192	7
TAP	50	0	0
TAP	50	192	7
STR	51	0	0
SI_	51	0	0	96	288	3
STR	51	0	7
SI_	51	0	7	96	288	4
HLD	53	0	3	192
HLD	53	0	4	192
TAP	54	0	3
TAP	54	0	4
TAP	54	192	3
TAP	54	192	4
HLD	55	0	2	192
HLD	55	0	4	192
TAP	56	0	4
TAP	56	192	4
HLD	57	0	7	192
TAP	58	0	6
TAP	58	192	6
HLD	59	0	1	192
HLD	60	0	6	192
HLD	61	0	0	192
HLD	61	0	7	192
TAP	62	0	0
TAP	62	0	7
TAP	62	96	0
TAP	62	96	7
TAP	62	192	0
TAP	62	192	7
HLD	63	0	6	192
TAP	64	0	6
TAP	64	96	6
TAP	64	192	6
HLD	65	0	7	192
TAP	66	0	6
TAP	66	192	6
HLD	67	0	1	192
TAP	68	0	6
STR	68	192	6
SI_	68	192	6	96	288	1
HLD	71	0	1	192
TAP	72	0	6
STR	72	192	6
SI_	72	192	6	96	288	1
STR	75	0	0
SI_	75	0	0	96	288	3
TAP	77	0	4
TAP	77	192	4
TAP	78	0	5
TAP	78	192	5
TAP	79	0	6
TAP	79	192	6
STR	80	0	7
SI_	80	0	7	96	288	3

T_REC_TAP	108
T_REC_BRK	4
T_REC_XTP	0
T_REC_HLD	26
T_REC_XHO	0
T_REC_STR	7
T_REC_BST	0
T_REC_XST	0
T_REC_TTP	0
T_REC_THO	0
T_REC_SLD	7
T_REC_ALL	152
T_NUM_TAP	115
T_NUM_BRK	4
T_NUM_HLD	26
T_NUM_SLD	7
T_NUM_ALL	152
T_JUDGE_TAP	119
T_JUDGE_HLD	104
T_JUDGE_SLD	7
T_JUDGE_ALL	230
TTM_EACHPAIRS	28
TTM_SCR_TAP	57500
TTM_SCR_BRK	10400
TTM_SCR_HLD	26000
TTM_SCR_SLD	10500
TTM_SCR_ALL	104400
TTM_SCR_S	100900
TTM_SCR_SS	104000
TTM_RAT_ACV	10038

