VERSION	0.00.00	1.03.00
FES_MODE	0
BPM_DEF	210.000	210.000	210.000	210.000
MET_DEF	4	4
RESOLUTION	384
CLK_DEF	384
COMPATIBLE_CODE	MA2

BPM	0	0	210.000
MET	0	0	4	4

TAP	1	48	3
TAP	1	96	4
TAP	1	144	2
TAP	1	192	5
STR	1	240	1
SI_	1	240	1	96	48	4
STR	1	240	6
SI_	1	240	6	96	48	3
TAP	2	48	2
TAP	2	48	5
TAP	2	96	2
TAP	2	96	5
TAP	2	192	3
TAP	2	192	4
TAP	2	288	0
TAP	2	288	1
HLD	2	336	7	96
TAP	3	48	5
TAP	3	96	5
TAP	3	192	3
TAP	3	192	4
TAP	3	288	6
TAP	3	288	7
HLD	3	336	0	144
TAP	4	48	2
TAP	4	96	2
TAP	4	192	3
TAP	4	192	4
TAP	4	288	0
TAP	4	288	1
HLD	4	336	7	144
TAP	5	48	5
TAP	5	96	5
TAP	5	192	3
TAP	5	192	4
TAP	5	288	6
TAP	5	288	7
HLD	5	336	0	144
TAP	6	48	2
TAP	6	96	2
TAP	6	192	3
TAP	6	192	4
TAP	6	288	0
TAP	6	288	1
HLD	6	336	7	144
TAP	7	48	6
TAP	7	96	6
TAP	7	192	3
TAP	7	192	4
TAP	7	288	6
TAP	7	288	7
HLD	7	336	0	144
TAP	8	48	1
TAP	8	96	1
TAP	8	192	3
TAP	8	192	4
TAP	8	288	0
TAP	8	288	7
STR	8	336	1
SI_	8	336	1	96	48	4
STR	9	48	6
SI_	9	48	6	96	48	3
STR	9	144	0
SI_	9	144	0	96	48	4
TAP	9	240	7
TAP	9	288	7
TAP	9	336	1
TAP	9	336	6
TAP	10	48	2
TAP	10	48	5
TAP	10	96	2
TAP	10	96	5
TAP	10	192	2
TAP	10	192	3
TAP	10	288	0
TAP	10	288	7
HLD	10	336	1	144
TAP	11	48	3
TAP	11	96	3
TAP	11	192	4
TAP	11	192	5
TAP	11	288	0
TAP	11	288	7
HLD	11	336	6	144
TAP	12	48	4
TAP	12	96	4
TAP	12	192	2
TAP	12	192	3
TAP	12	288	0
TAP	12	288	7
HLD	12	336	1	144
TAP	13	48	3
TAP	13	96	3
TAP	13	192	4
TAP	13	192	5
TAP	13	288	0
TAP	13	288	7
HLD	13	336	6	144
TAP	14	48	4
TAP	14	96	4
TAP	14	192	2
TAP	14	192	3
TAP	14	288	6
TAP	14	288	7
HLD	14	336	1	144
TAP	15	48	2
TAP	15	96	2
TAP	15	192	4
TAP	15	192	5
TAP	15	288	0
TAP	15	288	1
HLD	15	336	6	144
TAP	16	48	5
TAP	16	96	5
TAP	16	192	4
TAP	16	192	5
TAP	16	288	2
TAP	16	288	3
TAP	17	0	0
TAP	17	0	7
TAP	17	144	1
TAP	17	144	6
TAP	17	288	2
TAP	17	288	5
TAP	18	96	6
TAP	18	96	7
TAP	18	144	6
TAP	18	144	7
TAP	18	240	6
HLD	18	240	7	192
TAP	18	336	5
HLD	19	48	4	192
TAP	19	144	0
TAP	19	240	1
TAP	19	336	2
TAP	19	336	5
TAP	20	96	0
TAP	20	96	1
TAP	20	144	0
TAP	20	144	1
HLD	20	240	0	192
TAP	20	240	1
TAP	20	336	2
HLD	21	48	3	192
TAP	21	144	7
TAP	21	240	6
TAP	21	336	2
TAP	21	336	5
TAP	22	48	1
STR	22	96	1
SCR	22	96	1	96	48	4
TAP	22	192	7
TAP	22	288	0
TAP	22	336	0
TAP	23	48	6
STR	23	96	6
SCL	23	96	6	96	48	3
TAP	23	192	0
TAP	23	288	7
TAP	23	336	7
TAP	24	48	1
STR	24	96	1
SCR	24	96	1	96	48	4
TAP	24	192	7
TAP	24	288	6
TAP	24	336	0
TAP	24	336	2
TAP	25	48	2
TAP	25	48	4
TAP	25	144	5
TAP	25	144	7
TAP	25	240	3
TAP	25	240	5
TAP	25	336	0
TAP	25	336	7
TAP	26	96	0
TAP	26	96	1
TAP	26	144	0
TAP	26	144	1
HLD	26	240	0	192
TAP	26	240	1
TAP	26	336	2
HLD	27	48	3	192
TAP	27	144	7
TAP	27	240	6
TAP	27	336	2
TAP	27	336	5
TAP	28	96	6
TAP	28	96	7
TAP	28	144	6
TAP	28	144	7
TAP	28	240	6
HLD	28	240	7	192
TAP	28	336	5
HLD	29	48	4	192
TAP	29	144	0
TAP	29	240	1
TAP	29	336	2
TAP	29	336	5
TAP	30	48	6
STR	30	96	6
SCL	30	96	6	96	48	3
TAP	30	192	0
TAP	30	288	7
TAP	30	336	7
TAP	31	48	1
STR	31	96	1
SCR	31	96	1	96	48	4
TAP	31	192	7
TAP	31	288	0
TAP	31	336	0
TAP	32	48	6
STR	32	96	6
SCL	32	96	6	96	48	3
TAP	32	192	0
TAP	32	288	1
TAP	32	336	6
TAP	32	336	7
TAP	33	48	2
TAP	33	48	3
TAP	33	144	0
TAP	33	144	1
STR	33	240	4
SI_	33	240	4	96	48	0
STR	33	240	5
SI_	33	240	5	96	48	0
TAP	34	288	2
HLD	34	336	4	240
TAP	35	192	3
TAP	36	0	5
TAP	36	144	4
TAP	36	288	3
TAP	37	0	2
TAP	37	144	3
TAP	37	168	3
TAP	37	192	4
TAP	38	0	3
TAP	38	48	4
TAP	38	144	4
HLD	38	192	2	96
HLD	38	192	3	96
TAP	38	336	2
TAP	38	336	3
TAP	39	0	4
TAP	39	48	3
TAP	39	144	3
HLD	39	192	4	96
HLD	39	192	5	96
TAP	39	336	4
TAP	39	336	5
TAP	40	0	2
TAP	40	48	3
TAP	40	96	2
TAP	40	144	5
TAP	40	192	4
TAP	40	240	5
STR	40	288	3
SCL	40	288	3	96	144	4
TAP	41	0	3
BRK	41	192	1
BRK	41	192	6
TAP	41	288	0
TAP	41	288	7
TAP	41	336	1
TAP	41	336	6
TAP	42	48	0
TAP	42	48	7
STR	42	96	0
SCR	42	96	0	96	48	3
STR	42	96	7
SI_	42	96	7	96	48	4
TAP	42	192	0
TAP	42	192	7
TAP	42	288	0
TAP	42	288	1
TAP	42	336	2
TAP	42	336	7
TAP	43	48	0
TAP	43	48	1
STR	43	96	0
SCL	43	96	0	96	48	5
STR	43	96	1
SCR	43	96	1	96	48	4
TAP	43	192	0
TAP	43	192	1
TAP	43	288	0
TAP	43	288	7
TAP	43	336	1
TAP	43	336	6
TAP	44	48	0
TAP	44	48	7
STR	44	96	0
SV_	44	96	0	96	48	3
STR	44	96	7
SI_	44	96	7	96	48	4
TAP	44	192	0
TAP	44	192	7
TAP	44	288	2
TAP	44	288	6
HLD	44	336	2	96
HLD	44	336	6	96
TAP	45	96	3
STR	45	96	7
SI_	45	96	7	96	48	3
TAP	45	192	0
TAP	45	240	0
TAP	45	336	4
TAP	46	48	2
TAP	46	48	6
STR	46	96	4
SLL	46	96	4	96	96	0
SLR	46	96	4	96	96	0
TAP	46	192	4
TAP	46	336	1
TAP	46	336	7
TAP	47	48	0
TAP	47	96	2
TAP	47	96	6
TAP	47	192	1
TAP	47	240	0
TAP	47	288	7
TAP	47	336	6
TAP	48	48	0
TAP	48	48	7
TAP	48	96	2
TAP	48	96	5
TAP	48	192	7
BST	48	240	0
SCR	48	240	0	96	48	3
BST	48	336	0
SCL	48	336	0	96	48	5
BST	49	48	0
SI_	49	48	0	96	48	4
BRK	49	144	0
BRK	49	240	2
BRK	49	240	6
BRK	49	336	0
BRK	49	336	4
TAP	50	48	0
TAP	50	48	7
STR	50	96	0
SCR	50	96	0	96	48	3
STR	50	96	7
SCL	50	96	7	96	48	4
TAP	50	192	0
TAP	50	192	7
TAP	50	288	6
TAP	50	288	7
TAP	50	336	0
TAP	50	336	5
TAP	51	48	6
TAP	51	48	7
STR	51	96	6
SCL	51	96	6	96	48	3
STR	51	96	7
SCR	51	96	7	96	48	2
TAP	51	192	6
TAP	51	192	7
TAP	51	288	0
TAP	51	288	1
TAP	51	336	2
TAP	51	336	7
TAP	52	48	0
TAP	52	48	1
STR	52	96	0
SCL	52	96	0	96	48	5
STR	52	96	1
SCR	52	96	1	96	48	4
TAP	52	192	0
TAP	52	192	1
TAP	52	288	3
TAP	52	288	6
HLD	52	336	3	96
HLD	52	336	6	96
TAP	53	96	4
TAP	53	96	5
TAP	53	192	4
STR	53	240	4
SI_	53	240	4	96	48	0
TAP	53	336	3
TAP	54	48	1
TAP	54	96	1
STR	54	192	3
SI_	54	192	3	96	48	7
TAP	54	288	4
TAP	54	336	4
TAP	55	48	6
TAP	55	96	6
TAP	55	192	2
TAP	55	240	3
TAP	55	288	4
TAP	55	336	5
TAP	56	48	1
TAP	56	48	5
TAP	56	96	2
TAP	56	96	6
TAP	56	192	7
BST	56	240	0
SI_	56	240	0	96	48	3
SI_	56	240	0	96	48	5
BRK	56	336	0
BST	57	48	7
SI_	57	48	7	96	48	2
SI_	57	48	7	96	48	4
BRK	57	144	7
BRK	57	240	1
BRK	57	240	6
TAP	58	0	7
TAP	58	48	7
STR	58	144	0
SI_	58	144	0	96	96	5
STR	58	144	1
SI_	58	144	1	96	96	4
TAP	58	192	0
TAP	58	192	1
TAP	59	0	0
TAP	59	48	0
STR	59	144	6
SI_	59	144	6	96	96	3
STR	59	144	7
SI_	59	144	7	96	96	2
TAP	59	192	6
TAP	59	192	7
TAP	60	0	0
TAP	60	0	1
TAP	60	144	2
TAP	60	144	3
TAP	60	288	4
TAP	60	288	5
STR	61	0	0
SF_	61	0	0	96	96	4
TAP	61	288	5
HLD	61	336	5	96
TAP	62	48	1
TAP	62	96	0
TAP	62	144	2
TAP	62	192	7
TAP	62	240	1
TAP	62	288	0
TAP	62	336	2
TAP	63	0	4
TAP	63	48	3
TAP	63	96	5
STR	63	144	2
SI_	63	144	2	96	48	7
TAP	63	192	4
TAP	63	240	2
TAP	64	0	5
TAP	64	0	7
TAP	64	48	5
TAP	64	48	7
TAP	64	96	0
TAP	64	96	6
TAP	64	144	0
TAP	64	144	6
TAP	64	192	1
TAP	64	192	7
TAP	64	240	1
TAP	64	240	7
TAP	64	288	0
HLD	65	0	3	288
TAP	65	0	4
HLD	65	192	7	96
BST	65	336	0
SCL	65	336	0	96	192	5
BST	65	336	1
SCR	65	336	1	96	192	4
HLD	66	336	2	144
HLD	66	336	6	144
TAP	67	192	0
TAP	67	240	3
HLD	67	336	3	96
TAP	68	48	4
TAP	68	96	5
TAP	68	144	6
TAP	68	192	7
STR	68	240	7
SCR	68	240	7	96	96	2
STR	68	336	2
SCR	68	336	2	96	96	5
STR	69	48	5
SCR	69	48	5	96	96	0
STR	69	144	0
SCR	69	144	0	96	96	3
STR	69	240	3
SSR	69	240	3	96	144	7
TAP	69	336	7
TAP	70	192	5
TAP	70	288	3
HLD	70	336	3	96
HLD	71	48	2	96
HLD	71	144	1	96
HLD	71	240	0	96
HLD	71	336	7	96
TAP	72	48	4
TAP	72	96	4
TAP	72	144	5
TAP	72	192	5
TAP	72	240	6
TAP	72	288	6
TAP	72	336	0
TAP	72	336	7
TAP	73	48	5
TAP	73	48	6
TAP	73	144	1
TAP	73	144	2
TAP	73	240	6
TAP	73	288	7
TAP	73	336	0
HLD	74	0	1	96
TAP	74	96	3
TAP	74	192	0
STR	74	240	0
SCL	74	240	0	96	96	5
STR	74	336	5
SCL	74	336	5	96	96	2
STR	75	48	2
SCL	75	48	2	96	96	7
STR	75	144	7
SCL	75	144	7	96	96	4
STR	75	240	4
SSL	75	240	4	96	144	0
TAP	75	336	0
TAP	76	192	2
TAP	76	288	4
HLD	76	336	4	96
HLD	77	48	5	96
HLD	77	144	6	96
HLD	77	240	7	96
HLD	77	336	0	96
TAP	78	48	3
TAP	78	96	3
TAP	78	144	2
TAP	78	192	2
TAP	78	240	1
TAP	78	288	1
HLD	78	336	0	240
TAP	79	192	2
TAP	79	288	3
TAP	79	288	4
TAP	79	336	3
TAP	79	336	4
TAP	80	96	2
TAP	80	96	5
TAP	80	144	2
TAP	80	144	5
TAP	80	192	1
TAP	80	192	6
TAP	80	240	1
TAP	80	240	6
TAP	80	288	0
HLD	80	288	7	96
HLD	81	0	6	96
HLD	81	96	5	96
HLD	81	192	4	96
HLD	81	288	3	96
HLD	82	0	2	288
TAP	82	288	4
TAP	82	336	3
TAP	83	192	5
TAP	84	0	4
TAP	84	144	3
TAP	84	288	2
TAP	85	0	3
TAP	85	144	3
TAP	85	168	3
TAP	85	192	4
TAP	86	0	0
TAP	86	48	7
TAP	86	144	7
HLD	86	192	0	96
HLD	86	192	2	96
TAP	86	336	0
TAP	86	336	2
TAP	87	0	7
TAP	87	48	0
TAP	87	144	0
HLD	87	192	5	96
HLD	87	192	7	96
TAP	87	336	5
TAP	87	336	7
TAP	88	0	1
TAP	88	48	0
TAP	88	96	1
TAP	88	144	6
TAP	88	192	7
TAP	88	240	6
STR	88	288	3
SCL	88	288	3	96	144	7
SCR	88	288	3	96	144	7
TAP	89	0	3
BRK	89	192	1
BRK	89	192	6
TAP	89	288	0
TAP	89	288	7
TAP	89	336	1
TAP	89	336	6
TAP	90	48	0
TAP	90	48	7
STR	90	96	0
SCR	90	96	0	96	48	3
STR	90	96	7
SI_	90	96	7	96	48	4
TAP	90	192	0
TAP	90	192	7
TAP	90	288	0
TAP	90	288	1
TAP	90	336	2
TAP	90	336	7
TAP	91	48	0
TAP	91	48	1
STR	91	96	0
SCL	91	96	0	96	48	5
STR	91	96	1
SCR	91	96	1	96	48	4
TAP	91	192	0
TAP	91	192	1
TAP	91	288	0
TAP	91	288	7
TAP	91	336	1
TAP	91	336	6
TAP	92	48	0
TAP	92	48	7
STR	92	96	0
SV_	92	96	0	96	48	3
STR	92	96	7
SI_	92	96	7	96	48	4
TAP	92	192	0
TAP	92	192	7
TAP	92	288	2
TAP	92	288	6
HLD	92	336	2	96
HLD	92	336	6	96
STR	93	96	0
SI_	93	96	0	96	48	4
TAP	93	96	3
TAP	93	192	7
TAP	93	240	7
TAP	93	336	3
TAP	94	48	1
TAP	94	48	5
STR	94	96	3
SLL	94	96	3	96	96	7
SLR	94	96	3	96	96	7
TAP	94	192	3
TAP	94	336	0
TAP	94	336	6
TAP	95	48	7
TAP	95	96	1
TAP	95	96	5
TAP	95	192	6
TAP	95	240	7
TAP	95	288	0
TAP	95	336	1
TAP	96	48	0
TAP	96	48	7
TAP	96	96	2
TAP	96	96	5
TAP	96	192	0
BST	96	240	7
SCR	96	240	7	96	48	2
BST	96	336	7
SCL	96	336	7	96	24	4
BST	97	48	7
SI_	97	48	7	96	48	3
BRK	97	144	7
BRK	97	240	1
BRK	97	240	5
BRK	97	336	3
BRK	97	336	7
TAP	98	48	0
TAP	98	48	7
STR	98	96	0
SCR	98	96	0	96	48	3
STR	98	96	7
SCL	98	96	7	96	48	4
TAP	98	192	0
TAP	98	192	7
TAP	98	288	6
TAP	98	288	7
TAP	98	336	0
TAP	98	336	5
TAP	99	48	6
TAP	99	48	7
STR	99	96	6
SCL	99	96	6	96	48	3
STR	99	96	7
SCR	99	96	7	96	48	2
TAP	99	192	6
TAP	99	192	7
TAP	99	288	0
TAP	99	288	1
TAP	99	336	2
TAP	99	336	7
TAP	100	48	0
TAP	100	48	1
STR	100	96	0
SCL	100	96	0	96	48	5
STR	100	96	1
SCR	100	96	1	96	48	4
TAP	100	192	0
TAP	100	192	1
TAP	100	288	3
TAP	100	288	6
HLD	100	336	3	96
HLD	100	336	6	96
TAP	101	96	4
TAP	101	96	5
TAP	101	192	4
STR	101	240	4
SI_	101	240	4	96	48	0
TAP	101	336	3
TAP	102	48	1
TAP	102	96	1
STR	102	192	3
SI_	102	192	3	96	48	7
TAP	102	288	4
TAP	102	336	4
TAP	103	48	6
TAP	103	96	6
TAP	103	192	1
TAP	103	192	3
TAP	103	240	2
TAP	103	288	4
TAP	103	288	6
TAP	103	336	5
TAP	104	48	1
TAP	104	48	5
TAP	104	96	2
TAP	104	96	6
TAP	104	192	7
BST	104	240	0
SF_	104	240	0	96	48	4
BRK	104	336	0
BST	105	48	7
SF_	105	48	7	96	48	3
BRK	105	144	7
BRK	105	240	1
BRK	105	240	5
TAP	106	0	7
TAP	106	48	7
STR	106	144	0
SUR	106	144	0	96	96	5
STR	106	144	1
SCR	106	144	1	96	96	4
TAP	106	192	0
TAP	106	192	1
TAP	107	0	0
TAP	107	48	0
STR	107	144	6
SCL	107	144	6	96	96	3
STR	107	144	7
SUL	107	144	7	96	96	2
TAP	107	192	6
TAP	107	192	7
TAP	108	0	0
TAP	108	0	1
TAP	108	144	4
TAP	108	144	5
TAP	108	288	2
TAP	108	288	3
STR	109	0	7
SF_	109	0	7	96	96	3
TAP	109	288	2
HLD	109	336	2	96
TAP	110	48	6
TAP	110	96	7
TAP	110	144	5
TAP	110	192	0
TAP	110	240	6
TAP	110	288	7
TAP	110	336	5
TAP	111	0	3
TAP	111	48	4
TAP	111	96	2
STR	111	144	5
SI_	111	144	5	96	48	0
TAP	111	192	3
TAP	111	240	5
TAP	112	0	0
TAP	112	0	2
TAP	112	48	0
TAP	112	48	2
TAP	112	96	1
TAP	112	96	7
TAP	112	144	1
TAP	112	144	7
TAP	112	192	0
TAP	112	192	6
TAP	112	240	0
TAP	112	240	6
TAP	112	288	7
TAP	113	0	3
HLD	113	0	4	288
HLD	113	192	0	96
BST	113	336	6
SXR	113	336	6	96	240	3
BST	113	336	7
SXL	113	336	7	96	240	2
TAP	115	0	2
TAP	115	24	3
TAP	115	48	2
TAP	115	72	3
TAP	115	192	4
TAP	115	192	5
TAP	115	240	3
TAP	115	240	4
HLD	115	336	1	96
TAP	116	48	6
TAP	116	96	6
TAP	116	192	5
TAP	116	216	4
TAP	116	240	5
TAP	116	264	4
TAP	117	0	0
TAP	117	24	7
TAP	117	48	0
TAP	117	96	5
TAP	117	144	1
TAP	117	192	6
TAP	117	240	2
TAP	117	336	0
TAP	117	336	7
TAP	118	48	3
TAP	118	96	4
TAP	118	192	0
TAP	118	192	7
TAP	118	240	0
TAP	118	240	7
TAP	118	288	2
TAP	118	288	5
TAP	119	0	2
TAP	119	24	3
TAP	119	48	2
TAP	119	72	3
TAP	119	192	0
TAP	119	192	1
TAP	119	240	0
TAP	119	240	7
HLD	119	336	6	96
TAP	120	48	1
TAP	120	96	1
TAP	120	192	5
TAP	120	216	4
TAP	120	240	5
TAP	120	264	4
TAP	121	0	0
TAP	121	24	7
TAP	121	48	0
TAP	121	96	5
TAP	121	144	2
TAP	121	192	6
TAP	121	240	1
TAP	122	0	0
HLD	122	0	7	96
TAP	122	48	1
TAP	122	96	2
HLD	122	144	3	96
TAP	122	144	6
TAP	122	192	5
TAP	122	240	4
HLD	122	288	1	96
HLD	122	288	5	96
TAP	123	48	3
TAP	123	48	7
TAP	123	96	2
TAP	123	96	6
TAP	123	144	1
TAP	123	144	5
TAP	123	192	0
TAP	123	192	4
TAP	123	240	3
TAP	123	240	7
HLD	123	336	0	288
HLD	123	336	4	288
BRK	124	288	1
BRK	124	288	5
BRK	124	336	3
BRK	124	336	7

T_REC_TAP	610
T_REC_BRK	26
T_REC_XTP	0
T_REC_HLD	72
T_REC_XHO	0
T_REC_STR	69
T_REC_BST	14
T_REC_XST	0
T_REC_TTP	0
T_REC_THO	0
T_REC_SLD	88
T_REC_ALL	879
T_NUM_TAP	679
T_NUM_BRK	40
T_NUM_HLD	72
T_NUM_SLD	88
T_NUM_ALL	879
T_JUDGE_TAP	719
T_JUDGE_HLD	199
T_JUDGE_SLD	88
T_JUDGE_ALL	1006
TTM_EACHPAIRS	222
TTM_SCR_TAP	339500
TTM_SCR_BRK	104000
TTM_SCR_HLD	72000
TTM_SCR_SLD	132000
TTM_SCR_ALL	647500
TTM_SCR_S	624200
TTM_SCR_SS	643500
TTM_RAT_ACV	10062

