VERSION	0.00.00	1.03.00
FES_MODE	0
BPM_DEF	210.000	210.000	210.000	210.000
MET_DEF	4	4
RESOLUTION	384
CLK_DEF	384
COMPATIBLE_CODE	MA2

BPM	0	0	210.000
MET	0	0	4	4

HLD	1	336	1	96
HLD	1	336	6	96
TAP	2	96	1
TAP	2	96	6
TAP	2	192	0
TAP	2	192	7
TAP	2	288	2
HLD	2	336	2	96
TAP	3	48	3
TAP	3	96	3
TAP	3	192	1
TAP	3	192	4
TAP	3	288	5
HLD	3	336	5	96
TAP	4	48	4
TAP	4	96	4
TAP	4	192	3
TAP	4	192	6
TAP	4	288	2
HLD	4	336	2	96
TAP	5	48	3
TAP	5	96	3
TAP	5	192	1
TAP	5	192	4
TAP	5	288	6
HLD	5	336	6	96
TAP	6	48	7
TAP	6	96	7
TAP	6	192	0
TAP	6	192	5
TAP	6	288	2
HLD	6	336	2	96
TAP	7	48	3
TAP	7	96	3
TAP	7	192	1
TAP	7	192	4
TAP	7	288	5
HLD	7	336	5	96
TAP	8	48	4
TAP	8	96	4
TAP	8	192	3
TAP	8	192	6
TAP	8	288	3
TAP	8	288	4
TAP	8	336	3
TAP	8	336	4
TAP	9	48	0
TAP	9	48	7
TAP	9	144	2
TAP	9	144	5
HLD	9	336	1	96
HLD	9	336	6	96
TAP	10	96	1
TAP	10	96	6
TAP	10	192	0
TAP	10	192	7
TAP	10	288	5
HLD	10	336	5	96
TAP	11	48	4
TAP	11	96	4
TAP	11	192	3
TAP	11	192	6
TAP	11	288	2
HLD	11	336	2	96
TAP	12	48	3
TAP	12	96	3
TAP	12	192	1
TAP	12	192	4
TAP	12	288	5
HLD	12	336	5	96
TAP	13	48	4
TAP	13	96	4
TAP	13	192	3
TAP	13	192	6
TAP	13	288	1
HLD	13	336	1	96
TAP	14	48	0
TAP	14	96	0
TAP	14	192	2
TAP	14	192	7
TAP	14	288	5
HLD	14	336	5	96
TAP	15	48	4
TAP	15	96	4
TAP	15	192	3
TAP	15	192	6
TAP	15	288	2
HLD	15	336	2	96
TAP	16	48	3
TAP	16	96	3
TAP	16	192	1
TAP	16	192	4
TAP	16	288	3
TAP	16	288	4
STR	17	0	3
SCL	17	0	3	96	192	0
STR	17	0	4
SCR	17	0	4	96	192	7
HLD	18	0	5	768
TAP	18	192	4
TAP	19	0	4
TAP	19	96	4
TAP	19	192	3
TAP	19	288	3
HLD	20	0	2	576
TAP	20	192	3
TAP	21	0	3
TAP	21	96	3
TAP	21	192	3
TAP	21	288	1
TAP	21	288	4
HLD	22	0	5	96
TAP	22	96	4
TAP	22	192	3
TAP	22	192	6
TAP	22	288	4
HLD	23	0	1	96
TAP	23	96	0
TAP	23	192	2
TAP	23	192	7
TAP	23	288	0
HLD	24	0	6	96
TAP	24	96	7
TAP	24	192	0
TAP	24	192	5
TAP	24	288	7
HLD	25	0	2	96
TAP	25	96	3
TAP	25	192	1
TAP	25	192	4
TAP	25	288	3
TAP	26	0	2
HLD	26	96	2	672
TAP	26	192	3
TAP	26	288	3
TAP	27	0	4
TAP	27	96	4
TAP	27	192	3
TAP	27	288	3
TAP	28	0	5
HLD	28	96	5	480
TAP	28	192	4
TAP	28	288	4
TAP	29	0	3
TAP	29	96	3
TAP	29	192	4
TAP	29	288	3
TAP	29	288	6
HLD	30	0	2	96
TAP	30	96	3
TAP	30	192	1
TAP	30	192	4
TAP	30	288	3
HLD	31	0	6	96
TAP	31	96	7
TAP	31	192	0
TAP	31	192	5
TAP	31	288	7
HLD	32	0	1	96
TAP	32	96	0
TAP	32	192	2
TAP	32	192	7
TAP	32	288	0
TAP	33	0	4
TAP	33	0	5
TAP	33	96	3
TAP	33	96	6
TAP	33	192	2
TAP	33	192	7
TAP	33	288	0
TAP	33	288	1
BRK	34	0	0
HLD	35	0	5	192
TAP	35	192	4
HLD	36	0	2	192
TAP	36	192	3
TAP	37	0	3
TAP	37	0	4
TAP	37	192	1
TAP	37	192	6
STR	38	0	0
SCR	38	0	0	96	144	3
STR	38	0	7
SCL	38	0	7	96	144	4
STR	39	0	3
SCL	39	0	3	96	144	0
STR	39	0	4
SCR	39	0	4	96	144	7
TAP	40	0	0
TAP	40	0	7
TAP	40	96	1
TAP	40	96	6
TAP	40	192	2
TAP	40	192	5
TAP	40	288	3
TAP	40	288	4
BRK	41	0	1
BRK	41	0	6
STR	41	288	0
SI_	41	288	0	96	96	4
STR	41	288	1
SI_	41	288	1	96	96	4
TAP	41	336	0
TAP	41	336	1
TAP	42	192	2
TAP	42	192	3
STR	42	288	6
SI_	42	288	6	96	96	3
STR	42	288	7
SI_	42	288	7	96	96	3
TAP	42	336	6
TAP	42	336	7
TAP	43	192	4
TAP	43	192	5
STR	43	288	0
SI_	43	288	0	96	96	4
STR	43	288	1
SI_	43	288	1	96	96	4
TAP	43	336	0
TAP	43	336	1
TAP	44	192	2
TAP	44	192	3
TAP	44	288	0
TAP	44	288	5
TAP	44	336	0
TAP	44	336	5
HLD	45	96	2	96
TAP	45	192	3
TAP	45	240	3
HLD	45	336	5	96
TAP	46	48	4
TAP	46	96	4
TAP	46	192	0
TAP	46	192	7
TAP	46	288	1
TAP	46	288	6
TAP	46	336	1
TAP	46	336	6
TAP	47	48	3
TAP	47	48	4
TAP	47	96	3
TAP	47	96	4
STR	47	192	2
SCL	47	192	2	96	192	5
TAP	47	192	5
TAP	48	192	7
HLD	48	240	7	96
HLD	48	336	5	96
HLD	49	48	3	96
HLD	49	144	1	96
TAP	49	240	0
BRK	49	336	2
BRK	49	336	7
TAP	50	192	1
TAP	50	192	6
STR	50	288	0
SI_	50	288	0	96	96	4
STR	50	288	1
SI_	50	288	1	96	96	4
TAP	50	336	0
TAP	50	336	1
TAP	51	192	2
TAP	51	192	3
STR	51	288	6
SI_	51	288	6	96	96	3
STR	51	288	7
SI_	51	288	7	96	96	3
TAP	51	336	6
TAP	51	336	7
TAP	52	192	4
TAP	52	192	5
TAP	52	288	2
TAP	52	288	7
TAP	52	336	2
TAP	52	336	7
HLD	53	96	5	96
TAP	53	192	4
TAP	53	240	4
HLD	53	336	2	96
TAP	54	48	3
TAP	54	96	3
STR	54	192	3
SI_	54	192	3	96	96	0
STR	54	192	4
SI_	54	192	4	96	96	7
TAP	55	96	1
TAP	55	96	6
STR	55	192	3
SI_	55	192	3	96	96	7
TAP	55	192	4
TAP	56	96	0
TAP	56	96	6
TAP	56	192	0
HLD	56	240	0	96
HLD	56	336	6	96
HLD	57	48	4	96
TAP	57	144	3
BRK	57	240	1
BRK	57	240	6
HLD	58	0	5	384
TAP	58	192	4
TAP	58	288	3
HLD	59	0	2	384
TAP	59	192	3
TAP	59	288	4
STR	60	0	4
SI_	60	0	4	96	96	7
STR	60	192	3
SI_	60	192	3	96	96	0
STR	61	0	4
SI_	61	0	4	96	96	7
TAP	61	192	3
TAP	61	288	3
TAP	61	288	4
TAP	62	0	2
TAP	62	96	1
TAP	62	96	3
TAP	62	192	5
TAP	62	288	4
TAP	62	288	6
TAP	63	0	1
TAP	63	96	0
TAP	63	96	2
TAP	63	192	6
TAP	63	288	5
TAP	63	288	7
TAP	64	0	0
TAP	64	0	7
TAP	64	96	1
TAP	64	96	6
TAP	64	192	2
TAP	64	192	5
TAP	64	288	3
TAP	64	288	4
TAP	65	0	0
TAP	65	0	7
STR	65	192	1
SCL	65	192	1	96	288	3
TAP	65	192	6
TAP	67	0	4
TAP	67	96	5
TAP	67	192	3
TAP	67	192	6
TAP	67	288	4
TAP	67	288	5
TAP	68	0	3
TAP	68	96	2
TAP	68	192	1
TAP	68	192	4
TAP	68	288	2
HLD	68	336	2	96
HLD	69	48	0	96
HLD	69	144	7	96
STR	69	240	5
SXL	69	240	5	96	288	1
HLD	70	336	5	96
HLD	71	48	7	96
HLD	71	144	0	96
STR	71	240	2
SSL	71	240	2	96	288	6
TAP	72	336	6
TAP	72	336	7
TAP	73	48	2
TAP	73	48	3
TAP	73	144	0
TAP	73	144	1
TAP	73	240	4
TAP	73	240	5
TAP	73	288	4
TAP	73	288	5
STR	74	0	2
SCL	74	0	2	96	144	7
STR	74	0	3
SCR	74	0	3	96	144	6
TAP	74	336	0
TAP	74	336	1
TAP	75	48	4
TAP	75	48	5
TAP	75	144	6
TAP	75	144	7
TAP	75	240	2
STR	75	240	3
SSR	75	240	3	96	288	7
TAP	76	336	5
TAP	76	336	7
TAP	77	48	1
TAP	77	48	3
TAP	77	144	0
TAP	77	144	2
TAP	77	240	4
TAP	77	240	6
TAP	77	336	5
TAP	77	336	7
TAP	78	48	4
TAP	78	96	4
TAP	78	192	3
TAP	78	192	6
TAP	78	288	4
TAP	78	288	5
TAP	79	0	2
TAP	79	48	2
TAP	79	96	3
TAP	79	192	1
TAP	79	192	4
TAP	79	288	3
TAP	79	288	6
TAP	80	0	0
TAP	80	0	1
TAP	80	96	2
TAP	80	96	7
TAP	80	192	3
TAP	80	192	6
TAP	80	288	4
TAP	80	288	5
HLD	81	0	2	96
HLD	81	96	0	96
HLD	81	192	7	96
TAP	81	288	5
STR	82	0	3
SCL	82	0	3	96	384	0
STR	82	0	4
SCR	82	0	4	96	384	7
TAP	83	192	3
TAP	83	192	4
STR	84	0	3
SCL	84	0	3	96	384	0
STR	84	0	4
SCR	84	0	4	96	384	7
TAP	85	192	3
TAP	85	192	4
TAP	86	0	5
HLD	86	48	5	96
TAP	86	144	4
TAP	86	192	5
TAP	86	288	3
TAP	86	288	6
TAP	87	0	2
HLD	87	48	2	96
TAP	87	144	3
TAP	87	192	2
TAP	87	288	1
TAP	87	288	4
TAP	88	0	3
TAP	88	0	4
STR	88	96	0
SI_	88	96	0	96	96	4
STR	88	96	7
SI_	88	96	7	96	96	3
BRK	89	0	1
BRK	89	0	6
STR	89	288	6
SI_	89	288	6	96	96	3
STR	89	288	7
SI_	89	288	7	96	96	2
TAP	89	336	6
TAP	89	336	7
TAP	90	192	4
TAP	90	192	5
STR	90	288	0
SI_	90	288	0	96	96	5
STR	90	288	1
SI_	90	288	1	96	96	4
TAP	90	336	0
TAP	90	336	1
TAP	91	192	2
TAP	91	192	3
STR	91	288	6
SI_	91	288	6	96	96	3
STR	91	288	7
SI_	91	288	7	96	96	2
TAP	91	336	6
TAP	91	336	7
TAP	92	192	4
TAP	92	192	5
TAP	92	288	2
TAP	92	288	7
TAP	92	336	2
TAP	92	336	7
HLD	93	96	6	96
TAP	93	192	7
TAP	93	240	7
HLD	93	336	1	96
TAP	94	48	0
TAP	94	96	0
TAP	94	192	3
TAP	94	192	4
TAP	94	288	1
TAP	94	288	6
TAP	94	336	1
TAP	94	336	6
TAP	95	48	3
TAP	95	48	4
TAP	95	96	3
TAP	95	96	4
TAP	95	192	2
STR	95	192	5
SCR	95	192	5	96	192	2
TAP	96	192	0
HLD	96	240	0	96
HLD	96	336	2	96
HLD	97	48	4	96
HLD	97	144	6	96
TAP	97	240	7
BRK	97	336	0
BRK	97	336	5
TAP	98	192	1
TAP	98	192	6
STR	98	288	6
SI_	98	288	6	96	96	3
STR	98	288	7
SI_	98	288	7	96	96	2
TAP	98	336	6
TAP	98	336	7
TAP	99	192	4
TAP	99	192	5
STR	99	288	0
SI_	99	288	0	96	96	5
STR	99	288	1
SI_	99	288	1	96	96	4
TAP	99	336	0
TAP	99	336	1
TAP	100	192	2
TAP	100	192	3
TAP	100	288	0
TAP	100	288	5
TAP	100	336	0
TAP	100	336	5
HLD	101	96	1	96
TAP	101	192	0
TAP	101	240	0
HLD	101	336	6	96
TAP	102	48	7
TAP	102	96	7
STR	102	192	3
SI_	102	192	3	96	96	0
STR	102	192	4
SI_	102	192	4	96	96	7
TAP	103	96	1
TAP	103	96	6
TAP	103	192	3
STR	103	192	4
SI_	103	192	4	96	96	0
TAP	104	96	1
TAP	104	96	7
TAP	104	192	7
HLD	104	240	7	96
HLD	104	336	1	96
HLD	105	48	3	96
TAP	105	144	4
BRK	105	240	1
BRK	105	240	6
HLD	106	0	2	384
TAP	106	192	0
HLD	107	0	5	384
TAP	107	192	7
STR	108	0	3
SI_	108	0	3	96	96	0
STR	108	192	4
SI_	108	192	4	96	96	7
STR	109	0	3
SI_	109	0	3	96	96	0
TAP	109	192	4
TAP	109	288	3
TAP	109	288	4
TAP	110	0	5
TAP	110	96	4
TAP	110	96	6
TAP	110	192	2
TAP	110	288	1
TAP	110	288	3
TAP	111	0	6
TAP	111	96	0
TAP	111	96	5
TAP	111	192	1
TAP	111	288	2
TAP	111	288	7
TAP	112	0	0
TAP	112	0	7
TAP	112	96	1
TAP	112	96	6
TAP	112	192	2
TAP	112	192	5
TAP	112	288	3
TAP	112	288	4
TAP	113	0	0
TAP	113	0	7
TAP	113	192	1
STR	113	192	6
SCR	113	192	6	96	288	4
TAP	115	0	5
TAP	115	48	5
TAP	115	96	4
TAP	115	192	0
TAP	115	192	1
HLD	115	288	2	96
TAP	115	288	7
TAP	116	0	3
TAP	116	96	4
TAP	116	96	5
TAP	116	192	3
HLD	116	192	6	96
TAP	116	288	4
TAP	117	0	2
TAP	117	48	2
TAP	117	96	3
TAP	117	192	6
TAP	117	192	7
TAP	117	288	0
HLD	117	288	5	96
TAP	118	0	4
TAP	118	96	2
TAP	118	96	3
HLD	118	192	1	96
TAP	118	192	4
TAP	118	288	3
TAP	119	0	6
TAP	119	48	6
TAP	119	96	7
TAP	119	192	2
TAP	119	192	3
HLD	119	288	1	96
TAP	119	288	4
TAP	120	0	0
TAP	120	96	6
TAP	120	96	7
TAP	120	192	0
HLD	120	192	5	96
TAP	120	288	4
TAP	121	0	1
TAP	121	48	1
TAP	121	96	0
TAP	121	192	2
TAP	121	192	7
TAP	121	288	3
TAP	121	288	4
TAP	122	0	1
TAP	122	0	6
TAP	122	96	0
TAP	122	96	5
TAP	122	144	0
TAP	122	144	5
TAP	122	240	2
TAP	122	240	7
TAP	122	288	2
TAP	122	288	7
TAP	123	0	3
TAP	123	0	4
TAP	123	96	2
TAP	123	96	5
TAP	123	192	1
TAP	123	192	6
STR	123	240	1
SUR	123	240	1	96	240	4
TAP	123	240	6
BRK	124	288	1
BRK	124	288	6
BRK	124	336	1
BRK	124	336	6

T_REC_TAP	461
T_REC_BRK	17
T_REC_XTP	0
T_REC_HLD	72
T_REC_XHO	0
T_REC_STR	54
T_REC_BST	0
T_REC_XST	0
T_REC_TTP	0
T_REC_THO	0
T_REC_SLD	54
T_REC_ALL	658
T_NUM_TAP	515
T_NUM_BRK	17
T_NUM_HLD	72
T_NUM_SLD	54
T_NUM_ALL	658
T_JUDGE_TAP	532
T_JUDGE_HLD	216
T_JUDGE_SLD	54
T_JUDGE_ALL	802
TTM_EACHPAIRS	192
TTM_SCR_TAP	257500
TTM_SCR_BRK	44200
TTM_SCR_HLD	72000
TTM_SCR_SLD	81000
TTM_SCR_ALL	454700
TTM_SCR_S	439450
TTM_SCR_SS	453000
TTM_RAT_ACV	10037

