VERSION	0.00.00	1.03.00
FES_MODE	0
BPM_DEF	210.000	210.000	210.000	210.000
MET_DEF	4	4
RESOLUTION	384
CLK_DEF	384
COMPATIBLE_CODE	MA2

BPM	0	0	210.000

HLD	1	336	2	144
TAP	2	192	2
HLD	2	336	5	144
TAP	3	192	5
HLD	3	336	2	144
TAP	4	192	2
HLD	4	336	5	144
TAP	5	192	5
HLD	5	336	2	144
TAP	6	192	2
TAP	6	192	3
HLD	6	336	5	144
TAP	7	192	4
TAP	7	192	5
HLD	7	336	3	144
HLD	7	336	4	144
TAP	8	192	3
TAP	8	192	4
TAP	8	336	2
TAP	8	336	5
TAP	9	48	2
TAP	9	48	5
TAP	9	144	2
TAP	9	144	5
HLD	9	336	2	144
TAP	10	96	3
TAP	10	192	2
TAP	10	192	3
HLD	10	336	5	144
TAP	11	96	4
TAP	11	192	4
TAP	11	192	5
HLD	11	336	2	144
TAP	12	96	3
TAP	12	192	2
TAP	12	192	3
HLD	12	336	5	144
TAP	13	96	4
TAP	13	192	4
TAP	13	192	5
HLD	13	336	2	144
TAP	14	96	3
TAP	14	192	1
TAP	14	192	4
HLD	14	336	5	144
TAP	15	96	4
TAP	15	192	3
TAP	15	192	6
HLD	15	336	2	144
HLD	15	336	5	144
TAP	16	192	2
TAP	16	192	5
BRK	17	0	3
BRK	17	0	4
TAP	18	0	2
TAP	18	96	2
TAP	18	192	3
TAP	18	288	3
TAP	19	0	2
TAP	19	96	3
TAP	19	192	1
TAP	19	192	4
TAP	20	0	5
TAP	20	96	5
TAP	20	192	4
TAP	20	288	4
TAP	21	0	5
TAP	21	96	4
TAP	21	192	3
TAP	21	192	6
TAP	22	0	2
TAP	22	96	2
TAP	22	192	1
TAP	22	192	3
TAP	23	0	5
TAP	23	96	5
TAP	23	192	4
TAP	23	192	6
TAP	24	0	2
TAP	24	96	2
TAP	24	192	1
TAP	24	192	3
TAP	25	0	5
TAP	25	96	5
TAP	25	192	4
TAP	25	192	6
TAP	26	0	1
TAP	26	96	1
TAP	26	192	0
TAP	26	288	0
TAP	27	0	1
TAP	27	96	0
TAP	27	192	2
TAP	27	192	7
TAP	28	0	6
TAP	28	96	6
TAP	28	192	7
TAP	28	288	7
TAP	29	0	6
TAP	29	96	7
TAP	29	192	0
TAP	29	192	5
TAP	30	0	1
TAP	30	96	1
TAP	30	192	0
TAP	30	192	2
TAP	31	0	6
TAP	31	96	6
TAP	31	192	5
TAP	31	192	7
TAP	32	0	1
TAP	32	96	1
TAP	32	192	0
TAP	32	192	2
TAP	33	0	6
TAP	33	96	6
TAP	33	192	5
TAP	33	192	7
STR	34	0	0
SI_	34	0	0	96	288	5
STR	34	0	1
SI_	34	0	1	96	288	4
STR	36	0	6
SI_	36	0	6	96	288	3
STR	36	0	7
SI_	36	0	7	96	288	2
TAP	38	0	2
TAP	38	0	3
TAP	38	192	1
TAP	38	192	4
TAP	39	0	4
TAP	39	0	5
TAP	39	192	3
TAP	39	192	6
TAP	40	0	0
TAP	40	0	7
TAP	40	192	0
TAP	40	192	7
BRK	41	0	1
BRK	41	0	6
TAP	41	288	3
TAP	41	288	4
TAP	41	336	3
TAP	41	336	4
TAP	42	96	6
TAP	42	192	5
TAP	42	288	3
TAP	42	288	4
TAP	42	336	3
TAP	42	336	4
TAP	43	96	1
TAP	43	192	2
TAP	43	288	3
TAP	43	288	4
TAP	43	336	3
TAP	43	336	4
TAP	44	96	6
TAP	44	192	5
TAP	44	288	3
TAP	44	288	4
TAP	44	336	3
TAP	44	336	4
TAP	45	96	1
TAP	45	96	6
TAP	45	192	0
TAP	45	192	7
TAP	45	240	0
TAP	45	240	7
HLD	45	336	1	144
HLD	45	336	6	144
TAP	46	192	1
TAP	46	192	6
HLD	46	336	0	144
HLD	46	336	1	144
TAP	47	192	0
TAP	47	192	1
HLD	47	336	6	144
HLD	47	336	7	144
TAP	48	192	6
TAP	48	192	7
TAP	48	336	0
TAP	48	336	7
TAP	49	48	1
TAP	49	48	6
TAP	49	144	2
TAP	49	144	5
TAP	49	240	3
TAP	49	240	4
TAP	49	336	3
TAP	49	336	4
TAP	50	96	1
TAP	50	192	2
TAP	50	288	3
TAP	50	288	4
TAP	50	336	3
TAP	50	336	4
TAP	51	96	6
TAP	51	192	5
TAP	51	288	3
TAP	51	288	4
TAP	51	336	3
TAP	51	336	4
TAP	52	96	1
TAP	52	192	2
TAP	52	288	3
TAP	52	288	4
TAP	52	336	3
TAP	52	336	4
TAP	53	96	1
TAP	53	96	6
TAP	53	192	0
TAP	53	192	7
TAP	53	240	0
TAP	53	240	7
HLD	53	336	0	144
HLD	53	336	7	144
TAP	54	192	0
TAP	54	192	7
HLD	54	336	6	144
HLD	54	336	7	144
TAP	55	192	6
TAP	55	192	7
HLD	55	336	0	144
HLD	55	336	1	144
TAP	56	192	0
TAP	56	192	1
TAP	56	336	3
TAP	56	336	4
TAP	57	48	3
TAP	57	48	4
BRK	57	144	1
BRK	57	144	6
HLD	58	0	1	192
HLD	58	192	2	192
HLD	59	0	3	192
TAP	59	192	4
HLD	60	0	6	192
HLD	60	192	5	192
HLD	61	0	4	192
TAP	61	192	3
TAP	62	0	1
TAP	62	96	1
TAP	62	192	2
TAP	62	288	2
TAP	63	0	3
TAP	63	96	3
TAP	63	192	4
TAP	63	288	4
TAP	64	0	5
TAP	64	96	5
TAP	64	192	6
TAP	64	288	6
BRK	65	0	0
BRK	65	0	7
STR	66	0	1
SI_	66	0	1	96	288	4
STR	67	0	6
SI_	67	0	6	96	288	3
STR	68	0	0
SI_	68	0	0	96	288	5
STR	69	0	7
SI_	69	0	7	96	288	2
STR	70	0	0
SSL	70	0	0	96	480	4
HLD	72	0	2	192
HLD	72	0	5	192
TAP	72	336	2
TAP	72	336	5
TAP	73	48	2
TAP	73	48	5
TAP	73	144	2
TAP	73	144	5
HLD	74	0	2	192
TAP	74	192	3
HLD	75	0	5	192
TAP	75	192	4
HLD	76	0	1	192
TAP	76	192	2
HLD	77	0	6	192
TAP	77	192	5
HLD	78	0	1	192
TAP	78	192	0
HLD	79	0	6	192
TAP	79	192	7
HLD	80	0	2	192
TAP	80	192	1
HLD	81	0	5	192
TAP	81	192	6
STR	82	0	3
SI_	82	0	3	96	288	0
STR	82	0	4
SI_	82	0	4	96	288	7
STR	84	0	3
SI_	84	0	3	96	288	0
STR	84	0	4
SI_	84	0	4	96	288	7
HLD	86	0	5	192
TAP	86	192	4
HLD	87	0	2	192
TAP	87	192	3
TAP	88	0	3
TAP	88	0	4
TAP	88	192	2
TAP	88	192	5
BRK	89	0	1
BRK	89	0	6
TAP	89	288	0
TAP	89	288	7
TAP	89	336	0
TAP	89	336	7
TAP	90	96	5
TAP	90	192	6
TAP	90	288	0
TAP	90	288	7
TAP	90	336	0
TAP	90	336	7
TAP	91	96	2
TAP	91	192	1
TAP	91	288	0
TAP	91	288	7
TAP	91	336	0
TAP	91	336	7
TAP	92	96	5
TAP	92	192	6
TAP	92	288	0
TAP	92	288	7
TAP	92	336	0
TAP	92	336	7
TAP	93	96	1
TAP	93	96	6
TAP	93	192	3
TAP	93	192	4
TAP	93	240	3
TAP	93	240	4
HLD	93	336	2	144
HLD	93	336	5	144
TAP	94	192	2
TAP	94	192	5
HLD	94	336	6	144
HLD	94	336	7	144
TAP	95	192	6
TAP	95	192	7
HLD	95	336	0	144
HLD	95	336	1	144
TAP	96	192	0
TAP	96	192	1
TAP	96	336	3
TAP	96	336	4
TAP	97	48	2
TAP	97	48	5
TAP	97	144	1
TAP	97	144	6
TAP	97	240	0
TAP	97	240	7
TAP	97	336	0
TAP	97	336	7
TAP	98	96	2
TAP	98	192	1
TAP	98	288	0
TAP	98	288	7
TAP	98	336	0
TAP	98	336	7
TAP	99	96	5
TAP	99	192	6
TAP	99	288	0
TAP	99	288	7
TAP	99	336	0
TAP	99	336	7
TAP	100	96	2
TAP	100	192	1
TAP	100	288	0
TAP	100	288	7
TAP	100	336	0
TAP	100	336	7
TAP	101	96	1
TAP	101	96	6
TAP	101	192	3
TAP	101	192	4
TAP	101	240	3
TAP	101	240	4
HLD	101	336	2	144
HLD	101	336	5	144
TAP	102	192	2
TAP	102	192	5
HLD	102	336	6	144
HLD	102	336	7	144
TAP	103	192	6
TAP	103	192	7
HLD	103	336	0	144
HLD	103	336	1	144
TAP	104	192	0
TAP	104	192	1
TAP	104	336	3
TAP	104	336	4
TAP	105	48	3
TAP	105	48	4
BRK	105	144	1
BRK	105	144	6
HLD	106	0	6	192
HLD	106	192	5	192
HLD	107	0	4	192
TAP	107	192	3
HLD	108	0	1	192
HLD	108	192	2	192
HLD	109	0	3	192
TAP	109	192	4
TAP	110	0	6
TAP	110	96	6
TAP	110	192	5
TAP	110	288	5
TAP	111	0	4
TAP	111	96	4
TAP	111	192	3
TAP	111	288	3
TAP	112	0	2
TAP	112	96	2
TAP	112	192	1
TAP	112	288	1
BST	113	0	0
SI_	113	0	0	96	288	3
BST	113	0	7
SI_	113	0	7	96	288	4
HLD	115	0	5	96
TAP	115	96	4
TAP	115	192	3
TAP	115	192	6
HLD	116	0	2	96
TAP	116	96	3
TAP	116	192	1
TAP	116	192	4
HLD	117	0	5	96
TAP	117	96	4
TAP	117	192	3
TAP	117	192	6
HLD	118	0	1	96
TAP	118	96	0
TAP	118	192	2
TAP	118	192	7
HLD	119	0	6	96
TAP	119	96	7
TAP	119	192	0
TAP	119	192	5
HLD	120	0	1	96
TAP	120	96	0
TAP	120	192	2
TAP	120	192	7
HLD	121	0	6	96
TAP	121	96	7
TAP	121	192	0
TAP	121	192	5
STR	122	0	0
SI_	122	0	0	96	288	3
STR	122	0	7
SI_	122	0	7	96	288	4
HLD	123	336	1	336
HLD	123	336	6	336
BRK	124	336	1
BRK	124	336	6

T_REC_TAP	337
T_REC_BRK	14
T_REC_XTP	0
T_REC_HLD	73
T_REC_XHO	0
T_REC_STR	15
T_REC_BST	2
T_REC_XST	0
T_REC_TTP	0
T_REC_THO	0
T_REC_SLD	17
T_REC_ALL	458
T_NUM_TAP	352
T_NUM_BRK	16
T_NUM_HLD	73
T_NUM_SLD	17
T_NUM_ALL	458
T_JUDGE_TAP	368
T_JUDGE_HLD	244
T_JUDGE_SLD	17
T_JUDGE_ALL	629
TTM_EACHPAIRS	138
TTM_SCR_TAP	176000
TTM_SCR_BRK	41600
TTM_SCR_HLD	73000
TTM_SCR_SLD	25500
TTM_SCR_ALL	316100
TTM_SCR_S	305100
TTM_SCR_SS	314500
TTM_RAT_ACV	10050

