VERSION	0.00.00	1.03.00
FES_MODE	0
BPM_DEF	210.000	210.000	210.000	210.000
MET_DEF	4	4
RESOLUTION	384
CLK_DEF	384
COMPATIBLE_CODE	MA2

BPM	0	0	210.000

TAP	2	0	0
TAP	2	192	0
TAP	3	0	1
TAP	3	192	1
TAP	4	0	2
TAP	4	192	2
TAP	5	0	3
TAP	5	192	3
TAP	5	192	4
TAP	6	0	4
TAP	6	192	4
TAP	7	0	5
TAP	7	192	5
TAP	8	0	6
TAP	8	192	6
TAP	9	0	7
TAP	9	192	0
TAP	9	192	7
TAP	10	0	7
TAP	10	192	7
TAP	11	0	6
TAP	11	192	6
TAP	12	0	5
TAP	12	192	5
TAP	13	0	4
TAP	13	192	3
TAP	13	192	4
TAP	14	0	3
TAP	14	192	3
TAP	15	0	2
TAP	15	192	2
TAP	16	0	1
TAP	16	192	1
BRK	17	0	0
BRK	17	0	7
TAP	18	0	0
TAP	18	96	0
TAP	19	0	0
TAP	19	96	0
TAP	20	0	1
TAP	20	96	1
TAP	21	0	1
TAP	21	96	1
HLD	22	0	2	384
HLD	24	0	3	384
TAP	26	0	4
TAP	26	96	4
TAP	27	0	4
TAP	27	96	4
TAP	28	0	5
TAP	28	96	5
TAP	29	0	5
TAP	29	96	5
HLD	30	0	6	384
HLD	32	0	7	384
STR	34	0	7
SI_	34	0	7	96	288	4
STR	36	0	0
SI_	36	0	0	96	288	3
HLD	38	0	3	192
HLD	38	0	4	192
HLD	39	0	2	192
HLD	39	0	5	192
TAP	40	0	1
TAP	40	0	6
TAP	40	192	1
TAP	40	192	6
BRK	41	0	0
BRK	41	0	7
TAP	42	0	0
TAP	42	96	0
TAP	42	192	0
TAP	43	0	1
TAP	43	96	1
TAP	43	192	1
TAP	44	0	2
TAP	44	96	2
TAP	44	192	2
TAP	45	0	3
TAP	45	96	3
TAP	45	192	3
HLD	46	0	4	192
HLD	47	0	3	192
TAP	48	0	4
TAP	48	96	3
TAP	48	192	4
TAP	49	0	3
TAP	49	0	4
TAP	49	96	3
TAP	49	96	4
TAP	49	192	3
TAP	49	192	4
TAP	50	0	4
TAP	50	96	4
TAP	50	192	4
TAP	51	0	5
TAP	51	96	5
TAP	51	192	5
TAP	52	0	6
TAP	52	96	6
TAP	52	192	6
TAP	53	0	7
TAP	53	96	7
TAP	53	192	7
TAP	54	0	0
TAP	54	96	0
TAP	54	192	0
TAP	55	0	1
TAP	55	96	1
TAP	55	192	1
TAP	56	0	2
TAP	56	96	2
TAP	56	192	2
TAP	57	0	3
TAP	57	0	4
TAP	57	96	3
TAP	57	96	4
TAP	57	192	3
TAP	57	192	4
HLD	58	0	3	192
HLD	59	0	4	192
TAP	60	0	3
TAP	60	0	4
TAP	60	192	3
TAP	60	192	4
TAP	61	0	2
TAP	61	0	5
TAP	62	0	3
TAP	62	96	3
TAP	62	192	3
TAP	63	0	2
TAP	63	96	2
TAP	63	192	2
TAP	64	0	1
TAP	64	96	1
TAP	64	192	1
TAP	65	0	0
TAP	65	0	7
STR	66	0	7
SI_	66	0	7	96	288	4
STR	68	0	0
SI_	68	0	0	96	288	3
STR	70	0	6
SI_	70	0	6	96	288	3
STR	72	0	1
SI_	72	0	1	96	288	4
TAP	74	0	3
TAP	74	192	3
TAP	75	0	3
TAP	75	192	2
TAP	75	192	4
TAP	76	0	4
TAP	76	192	4
TAP	77	0	4
TAP	77	192	3
TAP	77	192	5
TAP	78	0	3
TAP	78	96	3
TAP	78	192	3
TAP	79	0	4
TAP	79	96	4
TAP	79	192	4
TAP	80	0	2
TAP	80	96	2
TAP	80	192	2
TAP	80	192	3
TAP	81	0	5
TAP	81	96	5
TAP	81	192	4
TAP	81	192	5
HLD	82	0	3	384
HLD	84	0	2	384
TAP	86	0	1
TAP	86	192	1
TAP	87	0	0
TAP	87	192	0
TAP	88	0	0
TAP	88	0	7
TAP	88	192	0
TAP	88	192	7
BRK	89	0	1
BRK	89	0	6
TAP	90	0	7
TAP	90	96	7
TAP	90	192	7
TAP	91	0	6
TAP	91	96	6
TAP	91	192	6
TAP	92	0	5
TAP	92	96	5
TAP	92	192	5
TAP	93	0	4
TAP	93	96	4
TAP	93	192	4
TAP	94	0	3
TAP	94	96	3
TAP	94	192	3
TAP	95	0	2
TAP	95	96	2
TAP	95	192	2
TAP	96	0	1
TAP	96	96	1
TAP	96	192	1
TAP	97	0	0
TAP	97	0	7
TAP	97	96	0
TAP	97	96	7
TAP	97	192	0
TAP	97	192	7
TAP	98	0	0
TAP	98	96	0
TAP	98	192	0
TAP	99	0	1
TAP	99	96	1
TAP	99	192	1
TAP	100	0	2
TAP	100	96	2
TAP	100	192	2
TAP	101	0	3
TAP	101	96	3
TAP	101	192	3
TAP	102	0	4
TAP	102	96	4
TAP	102	192	4
TAP	103	0	5
TAP	103	96	5
TAP	103	192	5
TAP	104	0	6
TAP	104	96	6
TAP	104	192	6
TAP	105	0	0
TAP	105	0	7
TAP	105	96	0
TAP	105	96	7
TAP	105	192	0
TAP	105	192	7
HLD	106	0	0	192
HLD	106	0	1	192
HLD	107	0	6	192
HLD	107	0	7	192
TAP	108	0	0
TAP	108	192	7
HLD	109	0	1	192
HLD	109	0	6	192
TAP	110	0	0
TAP	110	96	0
TAP	110	192	0
TAP	111	0	1
TAP	111	96	1
TAP	111	192	1
TAP	112	0	2
TAP	112	96	2
TAP	112	192	2
TAP	113	0	3
TAP	113	0	4
TAP	114	0	4
TAP	114	192	4
TAP	115	0	5
TAP	115	192	5
TAP	116	0	6
TAP	116	192	6
TAP	117	0	7
TAP	117	192	7
TAP	118	0	0
TAP	118	192	0
TAP	119	0	1
TAP	119	192	1
TAP	120	0	2
TAP	120	192	2
TAP	121	0	3
TAP	121	192	3
TAP	122	0	3
TAP	122	0	4
TAP	122	192	2
TAP	122	192	5
TAP	123	0	1
TAP	123	0	6
TAP	123	192	0
TAP	123	192	7
STR	124	0	0
SI_	124	0	0	96	288	3
STR	124	0	7
SI_	124	0	7	96	288	4

T_REC_TAP	241
T_REC_BRK	6
T_REC_XTP	0
T_REC_HLD	20
T_REC_XHO	0
T_REC_STR	8
T_REC_BST	0
T_REC_XST	0
T_REC_TTP	0
T_REC_THO	0
T_REC_SLD	8
T_REC_ALL	283
T_NUM_TAP	249
T_NUM_BRK	6
T_NUM_HLD	20
T_NUM_SLD	8
T_NUM_ALL	283
T_JUDGE_TAP	255
T_JUDGE_HLD	104
T_JUDGE_SLD	8
T_JUDGE_ALL	367
TTM_EACHPAIRS	41
TTM_SCR_TAP	124500
TTM_SCR_BRK	15600
TTM_SCR_HLD	20000
TTM_SCR_SLD	12000
TTM_SCR_ALL	172100
TTM_SCR_S	166400
TTM_SCR_SS	171500
TTM_RAT_ACV	10034

