VERSION	0.00.00	1.03.00
FES_MODE	0
BPM_DEF	148.000	148.000	148.000	148.000
MET_DEF	4	4
RESOLUTION	384
CLK_DEF	384
COMPATIBLE_CODE	MA2

BPM	0	0	148.000

STR	1	0	6
SXR	1	0	6	96	192	3
TAP	1	336	7
TAP	1	360	0
STR	2	0	1
SXL	2	0	1	96	192	4
STR	3	0	7
SXR	3	0	7	96	192	4
TAP	3	240	0
TAP	3	288	1
TAP	3	336	2
STR	4	0	3
SXR	4	0	3	96	192	0
STR	5	0	6
SI_	5	0	6	96	48	3
TAP	5	96	6
STR	5	192	0
SI_	5	192	0	96	48	4
TAP	5	288	0
STR	6	0	7
SI_	6	0	7	96	48	3
TAP	6	96	7
STR	6	192	1
SI_	6	192	1	96	48	4
TAP	6	288	1
STR	7	0	6
SI_	7	0	6	96	48	3
TAP	7	48	6
STR	7	96	0
SI_	7	96	0	96	72	4
TAP	7	144	0
STR	7	192	7
SI_	7	192	7	96	48	3
TAP	7	240	7
STR	7	288	1
SI_	7	288	1	96	48	4
TAP	7	336	1
STR	8	0	7
SCL	8	0	7	96	96	0
BRK	8	288	2
BRK	8	288	5
STR	9	0	4
SI_	9	0	4	96	48	7
TAP	9	0	6
STR	9	96	3
SI_	9	96	3	96	48	0
TAP	9	96	4
STR	9	192	1
SCL	9	192	1	96	48	6
TAP	9	192	3
TAP	9	288	1
TAP	9	288	6
TAP	10	0	5
STR	10	0	7
SI_	10	0	7	96	48	4
STR	10	96	0
SI_	10	96	0	96	48	3
TAP	10	96	7
TAP	10	192	0
STR	10	192	2
SCR	10	192	2	96	48	5
TAP	10	288	2
TAP	10	288	5
STR	11	0	1
SI_	11	0	1	96	48	4
STR	11	0	4
SCR	11	0	4	96	48	7
STR	11	192	3
SCL	11	192	3	96	48	0
STR	11	192	6
SI_	11	192	6	96	48	3
STR	12	0	0
SI_	12	0	0	96	48	3
STR	12	0	4
SI_	12	0	4	96	48	7
TAP	12	96	0
TAP	12	96	4
BRK	12	192	1
BRK	12	192	6
TAP	12	288	3
TAP	12	288	5
TAP	12	336	2
TAP	12	336	4
TAP	13	0	1
STR	13	0	3
SXL	13	0	3	96	48	5
SXR	13	0	3	96	48	1
BRK	13	96	3
TAP	13	192	3
TAP	13	192	7
TAP	13	288	2
TAP	13	288	4
TAP	13	336	3
TAP	13	336	5
STR	14	0	4
SI_	14	0	4	96	48	1
SI_	14	0	4	96	48	7
TAP	14	0	6
BRK	14	96	4
TAP	14	192	0
TAP	14	192	4
TAP	14	288	3
TAP	14	288	7
STR	15	0	1
SCL	15	0	1	96	48	6
STR	15	0	2
SUL	15	0	2	96	48	5
STR	15	192	5
SUR	15	192	5	96	48	2
STR	15	192	6
SCR	15	192	6	96	48	1
STR	16	0	2
SCR	16	0	2	96	48	5
TAP	16	0	7
STR	16	96	2
SUR	16	96	2	96	48	6
STR	16	192	2
SV_	16	192	2	96	48	7
BRK	16	288	2
HLD	17	0	6	72
HLD	17	72	5	72
STR	17	144	4
SCL	17	144	4	96	48	1
SUL	17	144	4	96	48	7
HLD	18	0	1	72
HLD	18	72	2	72
TAP	18	144	3
TAP	18	240	0
TAP	18	240	7
TAP	18	288	1
TAP	18	288	6
TAP	18	336	2
TAP	18	336	5
STR	19	0	3
SCR	19	0	3	96	48	6
SUR	19	0	3	96	48	0
TAP	19	0	4
TAP	19	240	1
TAP	19	240	6
HLD	20	0	0	96
HLD	20	0	7	96
TAP	20	144	1
TAP	20	144	6
STR	20	192	1
SI_	20	192	1	96	48	4
STR	20	192	6
SI_	20	192	6	96	48	3
STR	21	0	7
SCL	21	0	7	96	96	5
STR	21	96	5
SCL	21	96	5	96	96	3
STR	21	192	3
SCL	21	192	3	96	96	1
STR	21	288	1
SCL	21	288	1	96	96	6
STR	22	0	6
SCL	22	0	6	96	96	3
STR	22	96	3
SCL	22	96	3	96	96	0
STR	22	192	0
SCL	22	192	0	96	96	5
STR	22	288	5
SCL	22	288	5	96	96	1
STR	23	0	1
SCL	23	0	1	96	96	5
STR	23	96	5
SCL	23	96	5	96	96	1
STR	23	192	1
SCL	23	192	1	96	96	4
STR	23	288	4
SCL	23	288	4	96	96	7
BST	24	0	7
SCL	24	0	7	96	96	0
TAP	24	288	3
TAP	24	288	4
TAP	24	336	2
TAP	24	336	6
STR	25	0	1
SI_	25	0	1	96	48	3
TAP	25	0	5
STR	25	96	0
SI_	25	96	0	96	48	4
TAP	25	96	1
TAP	25	192	0
STR	25	192	3
SI_	25	192	3	96	48	7
TAP	25	288	3
TAP	25	288	5
TAP	26	0	2
STR	26	0	6
SI_	26	0	6	96	48	4
TAP	26	96	6
STR	26	96	7
SI_	26	96	7	96	48	3
STR	26	192	4
SI_	26	192	4	96	48	0
TAP	26	192	7
TAP	26	288	2
TAP	26	288	4
STR	27	0	3
SUL	27	0	3	96	48	6
STR	27	0	7
SUL	27	0	7	96	48	2
STR	27	192	0
SUR	27	192	0	96	48	5
STR	27	192	4
SUR	27	192	4	96	48	1
STR	28	0	2
SI_	28	0	2	96	48	5
STR	28	0	6
SI_	28	0	6	96	48	1
TAP	28	96	2
TAP	28	96	6
TAP	28	192	3
TAP	28	192	7
TAP	28	288	2
TAP	28	288	4
TAP	28	336	3
TAP	28	336	5
TAP	29	0	4
STR	29	0	6
SI_	29	0	6	96	48	2
BRK	29	96	0
BRK	29	96	6
TAP	29	192	0
TAP	29	192	1
TAP	29	288	3
TAP	29	288	5
TAP	29	336	2
TAP	29	336	4
STR	30	0	1
SI_	30	0	1	96	48	5
TAP	30	0	3
BRK	30	96	1
BRK	30	96	7
TAP	30	192	6
TAP	30	192	7
TAP	30	288	3
TAP	30	288	4
STR	31	0	1
SCR	31	0	1	96	48	4
STR	31	96	6
SUL	31	96	6	96	48	2
STR	31	192	1
SUR	31	192	1	96	48	5
STR	31	288	6
SCL	31	288	6	96	48	3
STR	32	0	0
SCR	32	0	0	96	192	7
BRK	33	0	1
BRK	33	0	6
TAP	33	288	3
TAP	33	288	5
TAP	33	336	2
TAP	33	336	4
TAP	34	0	1
STR	34	0	3
SI_	34	0	3	96	48	0
TAP	34	96	3
STR	34	96	4
SI_	34	96	4	96	48	7
TAP	34	192	4
STR	34	192	6
SCR	34	192	6	96	48	1
TAP	34	288	1
TAP	34	288	6
STR	35	0	0
SI_	35	0	0	96	48	3
TAP	35	0	2
TAP	35	96	0
STR	35	96	7
SI_	35	96	7	96	48	4
STR	35	192	5
SCL	35	192	5	96	48	2
TAP	35	192	7
TAP	35	288	2
TAP	35	288	5
STR	36	0	3
SCL	36	0	3	96	48	0
STR	36	0	7
SI_	36	0	7	96	48	3
STR	36	192	0
SI_	36	192	0	96	48	4
STR	36	192	4
SCR	36	192	4	96	48	7
STR	37	0	3
SI_	37	0	3	96	48	0
STR	37	0	7
SI_	37	0	7	96	48	4
TAP	37	96	3
TAP	37	96	7
BRK	37	192	1
BRK	37	192	6
TAP	37	288	2
TAP	37	288	4
TAP	37	336	3
TAP	37	336	5
STR	38	0	4
SXL	38	0	4	96	48	6
SXR	38	0	4	96	48	2
TAP	38	0	6
BRK	38	96	4
TAP	38	192	0
TAP	38	192	4
TAP	38	288	3
TAP	38	288	5
TAP	38	336	2
TAP	38	336	4
TAP	39	0	1
STR	39	0	3
SI_	39	0	3	96	48	0
SI_	39	0	3	96	48	6
BRK	39	96	3
TAP	39	192	3
TAP	39	192	7
TAP	39	288	0
TAP	39	288	4
STR	40	0	5
SUR	40	0	5	96	48	2
STR	40	0	6
SCR	40	0	6	96	48	1
STR	40	192	1
SCL	40	192	1	96	48	6
STR	40	192	2
SUL	40	192	2	96	48	5
TAP	41	0	0
STR	41	0	5
SCL	41	0	5	96	48	2
STR	41	96	5
SUL	41	96	5	96	48	1
STR	41	192	5
SV_	41	192	5	96	48	0
BRK	41	288	5
STR	42	0	3
SUL	42	0	3	96	48	7
STR	42	0	7
SUL	42	0	7	96	48	3
STR	42	96	3
SCR	42	96	3	96	48	7
STR	42	96	7
SCR	42	96	7	96	48	3
STR	42	192	3
SF_	42	192	3	96	48	7
TAP	42	192	7
STR	43	0	0
SUR	43	0	0	96	48	4
STR	43	0	4
SUR	43	0	4	96	48	0
STR	43	96	0
SCL	43	96	0	96	48	4
STR	43	96	4
SCL	43	96	4	96	48	0
TAP	43	192	0
STR	43	192	4
SXL	43	192	4	96	48	6
SXR	43	192	4	96	48	2
STR	44	0	5
SCR	44	0	5	96	48	2
SUR	44	0	5	96	48	2
STR	44	192	2
SCL	44	192	2	96	48	5
SUL	44	192	2	96	48	5
STR	45	0	3
SCL	45	0	3	96	48	1
STR	45	0	4
SUL	45	0	4	96	48	0
STR	45	96	3
SUR	45	96	3	96	48	7
STR	45	96	4
SCR	45	96	4	96	48	6
TAP	45	192	3
TAP	45	192	4
TAP	45	288	3
TAP	45	288	4
STR	46	0	3
SUL	46	0	3	96	48	7
STR	46	0	7
SUL	46	0	7	96	48	3
BST	46	96	3
SCR	46	96	3	96	48	7
BST	46	96	7
SCR	46	96	7	96	48	3
STR	46	192	3
SXL	46	192	3	96	48	5
SXR	46	192	3	96	48	1
TAP	46	192	7
STR	47	0	0
SUR	47	0	0	96	48	4
STR	47	0	4
SUR	47	0	4	96	48	0
BST	47	96	0
SCL	47	96	0	96	48	4
BST	47	96	4
SCL	47	96	4	96	48	0
TAP	47	192	0
STR	47	192	4
SF_	47	192	4	96	48	0
STR	48	0	1
SCR	48	0	1	96	48	4
STR	48	0	5
SCR	48	0	5	96	48	0
BRK	48	96	1
BRK	48	96	5
STR	48	192	2
SCL	48	192	2	96	48	7
STR	48	192	6
SCL	48	192	6	96	48	3
BRK	48	288	2
BRK	48	288	6
TAP	49	0	2
STR	49	0	3
SI_	49	0	3	96	48	7
TAP	49	96	3
STR	49	96	4
SI_	49	96	4	96	48	0
TAP	49	192	4
STR	49	192	6
SCR	49	192	6	96	48	1
TAP	49	288	1
TAP	49	288	6
STR	50	0	1
SXL	50	0	1	96	192	4
TAP	50	336	0
TAP	50	360	7
STR	51	0	6
SXR	51	0	6	96	192	3
STR	52	0	0
SXL	52	0	0	96	192	3
TAP	52	240	7
TAP	52	288	6
TAP	52	336	5
STR	53	0	4
SXL	53	0	4	96	192	7
TAP	54	0	2
TAP	54	48	5
TAP	54	72	4
TAP	54	120	4
TAP	54	144	3
TAP	54	192	5
TAP	54	240	2
TAP	54	264	3
TAP	54	312	3
TAP	54	336	4
TAP	55	0	2
TAP	55	48	5
TAP	55	72	4
TAP	55	120	4
TAP	55	144	3
TAP	55	192	5
TAP	55	240	2
TAP	55	264	3
TAP	55	312	3
TAP	55	336	4
TAP	56	0	1
TAP	56	48	5
TAP	56	72	4
TAP	56	120	4
TAP	56	144	3
TAP	56	192	6
TAP	56	240	2
TAP	56	264	3
TAP	56	312	3
TAP	56	336	4
BST	57	0	2
SCR	57	0	2	96	144	7
BRK	57	0	5
STR	58	0	1
SCR	58	0	1	96	48	4
STR	58	0	4
SCR	58	0	4	96	48	7
TAP	58	96	1
TAP	58	96	4
STR	58	192	3
SCL	58	192	3	96	48	0
STR	58	192	6
SCL	58	192	6	96	48	3
TAP	58	288	3
TAP	58	288	6
STR	59	0	2
SCR	59	0	2	96	48	5
STR	59	0	7
SCR	59	0	7	96	48	2
TAP	59	96	2
TAP	59	96	7
STR	59	192	0
SCL	59	192	0	96	48	5
STR	59	192	5
SCL	59	192	5	96	48	2
TAP	59	288	0
TAP	59	288	5
STR	60	0	0
SCR	60	0	0	96	48	3
STR	60	0	4
SCR	60	0	4	96	48	7
STR	60	96	0
SUL	60	96	0	96	48	4
STR	60	96	4
SUL	60	96	4	96	48	0
STR	60	192	0
SCR	60	192	0	96	48	3
STR	60	192	4
SCR	60	192	4	96	48	7
BRK	60	288	0
BRK	60	288	4
STR	61	0	0
SI_	61	0	0	96	48	5
STR	61	0	4
SI_	61	0	4	96	48	1
STR	61	192	3
SI_	61	192	3	96	48	6
STR	61	192	7
SI_	61	192	7	96	48	2
STR	62	0	3
SCL	62	0	3	96	48	0
STR	62	0	6
SCL	62	0	6	96	48	3
TAP	62	96	3
TAP	62	96	6
STR	62	192	1
SCR	62	192	1	96	48	4
STR	62	192	4
SCR	62	192	4	96	48	7
TAP	62	288	1
TAP	62	288	4
STR	63	0	0
SCL	63	0	0	96	48	5
STR	63	0	5
SCL	63	0	5	96	48	2
TAP	63	96	0
TAP	63	96	5
STR	63	192	2
SCR	63	192	2	96	48	5
STR	63	192	7
SCR	63	192	7	96	48	2
TAP	63	288	2
TAP	63	288	7
STR	64	0	3
SCL	64	0	3	96	48	0
STR	64	0	7
SCL	64	0	7	96	48	4
STR	64	96	3
SUR	64	96	3	96	48	7
STR	64	96	7
SUR	64	96	7	96	48	3
STR	64	192	3
SCL	64	192	3	96	48	0
STR	64	192	7
SCL	64	192	7	96	48	4
BRK	64	288	3
BRK	64	288	7
STR	65	0	3
SI_	65	0	3	96	48	6
STR	65	0	7
SI_	65	0	7	96	48	2
STR	65	192	0
SI_	65	192	0	96	48	5
STR	65	192	4
SI_	65	192	4	96	48	1
STR	66	0	0
SCR	66	0	0	96	48	3
STR	66	0	4
SCR	66	0	4	96	48	7
STR	66	96	0
SUL	66	96	0	96	48	4
STR	66	96	4
SUL	66	96	4	96	48	0
STR	66	192	0
SCR	66	192	0	96	48	3
STR	66	192	4
SCR	66	192	4	96	48	7
STR	66	288	0
SUL	66	288	0	96	48	4
STR	66	288	4
SUL	66	288	4	96	48	0
STR	67	0	0
SCR	67	0	0	96	48	3
STR	67	0	4
SCR	67	0	4	96	48	7
STR	67	96	0
SUL	67	96	0	96	48	4
STR	67	96	4
SUL	67	96	4	96	48	0
STR	67	192	0
SLR	67	192	0	96	48	4
STR	67	192	4
SLR	67	192	4	96	48	0
BRK	67	288	0
BRK	67	288	4
STR	68	0	3
SCL	68	0	3	96	48	0
STR	68	0	7
SCL	68	0	7	96	48	4
STR	68	96	3
SUR	68	96	3	96	48	7
STR	68	96	7
SUR	68	96	7	96	48	3
STR	68	192	3
SCL	68	192	3	96	48	0
STR	68	192	7
SCL	68	192	7	96	48	4
STR	68	288	3
SUR	68	288	3	96	48	7
STR	68	288	7
SUR	68	288	7	96	48	3
STR	69	0	3
SCL	69	0	3	96	48	0
STR	69	0	7
SCL	69	0	7	96	48	4
STR	69	96	3
SUR	69	96	3	96	48	7
STR	69	96	7
SUR	69	96	7	96	48	3
STR	69	192	3
SLL	69	192	3	96	48	7
STR	69	192	7
SLL	69	192	7	96	48	3
BRK	69	288	3
BRK	69	288	7
STR	70	0	0
SV_	70	0	0	96	48	3
STR	70	0	4
SV_	70	0	4	96	48	7
STR	70	96	0
SCL	70	96	0	96	48	5
STR	70	96	4
SCL	70	96	4	96	48	1
STR	70	192	0
SV_	70	192	0	96	48	3
STR	70	192	4
SV_	70	192	4	96	48	7
STR	70	288	0
SCL	70	288	0	96	48	5
STR	70	288	4
SCL	70	288	4	96	48	1
STR	71	0	0
SUR	71	0	0	96	48	4
STR	71	0	4
SUR	71	0	4	96	48	0
STR	71	96	0
SCL	71	96	0	96	48	5
STR	71	96	4
SCL	71	96	4	96	48	1
STR	71	192	0
SUR	71	192	0	96	48	5
STR	71	192	4
SUR	71	192	4	96	48	1
BRK	71	288	0
BRK	71	288	4
STR	72	0	3
SV_	72	0	3	96	48	0
STR	72	0	7
SV_	72	0	7	96	48	4
STR	72	96	3
SCR	72	96	3	96	48	6
STR	72	96	7
SCR	72	96	7	96	48	2
STR	72	192	3
SV_	72	192	3	96	48	0
STR	72	192	7
SV_	72	192	7	96	48	4
STR	72	288	3
SCR	72	288	3	96	48	6
STR	72	288	7
SCR	72	288	7	96	48	2
STR	73	0	3
SUL	73	0	3	96	48	7
STR	73	0	7
SUL	73	0	7	96	48	3
STR	73	96	3
SCR	73	96	3	96	48	6
STR	73	96	7
SCR	73	96	7	96	48	2
STR	73	192	3
SUL	73	192	3	96	48	6
STR	73	192	7
SUL	73	192	7	96	48	2
BRK	73	288	3
BRK	73	288	7
STR	74	0	3
SI_	74	0	3	96	48	6
STR	74	0	7
SI_	74	0	7	96	48	2
TAP	74	96	3
TAP	74	96	7
STR	74	192	0
SI_	74	192	0	96	48	5
STR	74	192	4
SI_	74	192	4	96	48	1
TAP	74	288	0
TAP	74	288	4
STR	75	0	4
SI_	75	0	4	96	48	6
STR	75	0	7
SI_	75	0	7	96	48	3
TAP	75	96	4
TAP	75	96	7
STR	75	192	0
SI_	75	192	0	96	48	4
STR	75	192	3
SI_	75	192	3	96	48	1
TAP	75	288	0
TAP	75	288	3
STR	76	0	3
SCR	76	0	3	96	48	6
STR	76	0	7
SCR	76	0	7	96	48	2
TAP	76	96	3
TAP	76	96	7
STR	76	192	0
SCL	76	192	0	96	48	5
STR	76	192	4
SCL	76	192	4	96	48	1
TAP	76	288	0
TAP	76	288	4
STR	77	0	3
SCR	77	0	3	96	480	2
STR	77	0	7
SCR	77	0	7	96	480	6

T_REC_TAP	197
T_REC_BRK	35
T_REC_XTP	0
T_REC_HLD	6
T_REC_XHO	0
T_REC_STR	229
T_REC_BST	6
T_REC_XST	0
T_REC_TTP	0
T_REC_THO	0
T_REC_SLD	245
T_REC_ALL	718
T_NUM_TAP	426
T_NUM_BRK	41
T_NUM_HLD	6
T_NUM_SLD	245
T_NUM_ALL	718
T_JUDGE_TAP	467
T_JUDGE_HLD	12
T_JUDGE_SLD	245
T_JUDGE_ALL	724
TTM_EACHPAIRS	186
TTM_SCR_TAP	213000
TTM_SCR_BRK	106600
TTM_SCR_HLD	6000
TTM_SCR_SLD	367500
TTM_SCR_ALL	693100
TTM_SCR_S	668350
TTM_SCR_SS	689000
TTM_RAT_ACV	10059

