VERSION	0.00.00	1.03.00
FES_MODE	0
BPM_DEF	148.000	148.000	148.000	148.000
MET_DEF	4	4
RESOLUTION	384
CLK_DEF	384
COMPATIBLE_CODE	MA2

BPM	0	0	148.000

BRK	1	0	3
BRK	1	0	4
TAP	1	336	2
TAP	1	360	3
HLD	2	0	2	336
TAP	2	336	3
TAP	3	0	3
TAP	3	0	4
TAP	3	240	5
TAP	3	288	4
TAP	3	336	3
HLD	4	0	2	216
HLD	4	216	5	72
TAP	4	288	4
TAP	4	336	3
TAP	4	336	4
STR	5	0	2
SI_	5	0	2	96	48	7
HLD	5	0	3	96
HLD	5	192	4	96
STR	5	192	5
SI_	5	192	5	96	48	0
HLD	6	0	0	96
STR	6	0	1
SI_	6	0	1	96	48	4
STR	6	192	6
SI_	6	192	6	96	48	3
HLD	6	192	7	96
TAP	7	0	1
TAP	7	48	1
TAP	7	96	3
TAP	7	144	3
TAP	7	192	4
TAP	7	240	4
TAP	7	288	6
TAP	7	336	6
STR	8	0	0
SCR	8	0	0	96	144	7
BRK	8	288	0
TAP	8	336	7
HLD	9	0	6	72
HLD	9	72	5	72
TAP	9	144	4
TAP	9	240	7
TAP	9	288	7
TAP	9	336	0
HLD	10	0	1	72
HLD	10	72	2	72
TAP	10	144	3
TAP	10	240	0
TAP	10	288	0
TAP	10	336	5
HLD	11	0	5	72
TAP	11	72	7
TAP	11	144	0
HLD	11	192	0	72
TAP	11	264	2
TAP	11	336	4
HLD	12	0	4	72
HLD	12	72	0	72
BRK	12	144	7
TAP	12	288	5
TAP	12	336	3
HLD	13	0	1	72
STR	13	72	0
SCL	13	72	0	96	48	5
TAP	13	288	2
TAP	13	336	4
HLD	14	0	6	72
STR	14	72	7
SCR	14	72	7	96	48	2
TAP	14	336	4
TAP	14	336	5
TAP	15	0	4
TAP	15	0	5
TAP	15	72	1
TAP	15	72	7
TAP	15	144	2
TAP	15	144	3
TAP	15	192	2
TAP	15	192	3
TAP	15	264	0
TAP	15	264	6
TAP	15	336	3
TAP	15	336	4
TAP	16	0	3
TAP	16	0	4
STR	16	72	1
SLR	16	72	1	96	120	0
STR	16	72	6
SLL	16	72	6	96	120	7
HLD	17	0	0	72
HLD	17	72	1	72
STR	17	144	2
SCR	17	144	2	96	96	5
HLD	18	0	7	72
HLD	18	72	6	72
TAP	18	144	5
TAP	18	240	1
STR	18	288	0
SXL	18	288	0	96	240	5
TAP	18	336	7
TAP	19	0	6
HLD	20	0	2	96
HLD	20	0	6	96
TAP	20	144	0
TAP	20	144	4
STR	20	192	0
SCR	20	192	0	96	48	2
STR	20	192	4
SCR	20	192	4	96	48	6
HLD	21	0	7	72
HLD	21	72	6	72
STR	21	144	5
SCL	21	144	5	96	96	2
HLD	22	0	0	72
HLD	22	72	1	72
TAP	22	144	2
TAP	22	240	6
STR	22	288	7
SXR	22	288	7	96	240	2
TAP	22	336	0
TAP	23	0	1
STR	24	0	0
SI_	24	0	0	96	48	4
STR	24	0	7
SI_	24	0	7	96	48	3
TAP	24	192	1
TAP	24	192	6
TAP	24	288	0
TAP	24	336	1
TAP	25	0	2
HLD	25	0	3	72
HLD	25	72	4	72
HLD	25	144	6	144
TAP	25	288	7
TAP	25	336	6
HLD	26	0	4	72
TAP	26	0	5
HLD	26	72	3	72
HLD	26	144	1	144
TAP	26	288	0
TAP	26	336	2
STR	27	0	2
SI_	27	0	2	96	48	5
TAP	27	144	6
STR	27	192	6
SI_	27	192	6	96	48	1
TAP	27	336	2
TAP	28	0	2
STR	28	72	0
SI_	28	72	0	96	48	3
STR	28	72	4
SI_	28	72	4	96	48	7
TAP	28	288	3
TAP	28	336	4
HLD	29	0	5	72
STR	29	72	4
SCL	29	72	4	96	48	1
TAP	29	288	4
TAP	29	336	3
HLD	30	0	2	72
STR	30	72	3
SCR	30	72	3	96	48	6
TAP	30	336	2
TAP	30	336	3
TAP	31	0	2
TAP	31	0	3
TAP	31	72	0
TAP	31	72	6
TAP	31	144	4
TAP	31	144	5
TAP	31	192	4
TAP	31	192	5
TAP	31	264	1
TAP	31	264	7
TAP	31	336	3
TAP	31	336	4
TAP	32	0	3
TAP	32	0	4
STR	32	72	2
SUR	32	72	2	96	96	7
STR	32	72	5
SUL	32	72	5	96	96	0
STR	33	0	0
SXL	33	0	0	96	120	3
STR	33	0	7
SXR	33	0	7	96	120	4
BRK	33	288	1
BRK	33	288	6
HLD	34	0	6	72
HLD	34	72	5	72
TAP	34	144	4
TAP	34	240	6
TAP	34	288	7
TAP	34	336	0
HLD	35	0	1	72
HLD	35	72	2	72
TAP	35	144	3
TAP	35	240	0
TAP	35	288	1
TAP	35	336	2
TAP	35	336	3
HLD	36	0	2	72
TAP	36	0	3
TAP	36	72	0
TAP	36	144	4
TAP	36	144	5
TAP	36	192	4
HLD	36	192	5	72
TAP	36	264	7
TAP	36	336	3
TAP	36	336	4
HLD	37	0	3	72
TAP	37	0	4
HLD	37	72	7	72
BRK	37	144	0
TAP	37	288	2
TAP	37	336	4
HLD	38	0	6	72
STR	38	72	7
SCR	38	72	7	96	48	2
TAP	38	288	5
TAP	38	336	3
HLD	39	0	1	72
STR	39	72	0
SCL	39	72	0	96	48	5
TAP	39	336	0
TAP	39	336	1
TAP	40	0	0
TAP	40	0	1
TAP	40	72	3
TAP	40	72	5
TAP	40	144	6
TAP	40	144	7
TAP	40	192	6
TAP	40	192	7
TAP	40	264	2
TAP	40	264	4
TAP	40	336	0
TAP	40	336	7
TAP	41	0	0
TAP	41	0	7
STR	41	72	3
SI_	41	72	3	96	48	0
STR	41	72	4
SI_	41	72	4	96	48	7
TAP	41	288	2
TAP	41	288	5
TAP	41	336	1
TAP	41	336	6
HLD	42	0	0	72
TAP	42	0	7
HLD	42	72	1	72
TAP	42	144	2
TAP	42	240	2
TAP	42	288	1
TAP	42	336	0
HLD	43	0	7	72
HLD	43	72	6	72
TAP	43	144	5
TAP	43	240	7
TAP	43	288	6
TAP	43	336	4
TAP	43	336	5
TAP	44	0	4
HLD	44	0	5	72
TAP	44	72	1
TAP	44	144	0
TAP	44	144	1
TAP	44	192	0
HLD	44	192	1	72
TAP	44	264	5
TAP	44	336	3
TAP	44	336	4
TAP	45	0	3
HLD	45	0	4	72
HLD	45	72	0	72
BRK	45	144	7
TAP	45	288	4
TAP	45	288	5
TAP	45	336	3
TAP	45	336	4
HLD	46	0	2	72
TAP	46	0	3
STR	46	72	0
SCL	46	72	0	96	48	5
TAP	46	288	2
TAP	46	288	3
TAP	46	336	3
TAP	46	336	4
TAP	47	0	4
HLD	47	0	5	72
STR	47	72	7
SCR	47	72	7	96	48	2
TAP	47	336	4
TAP	47	336	5
TAP	48	0	4
TAP	48	0	5
TAP	48	72	1
TAP	48	72	7
TAP	48	144	2
TAP	48	144	3
TAP	48	192	2
TAP	48	192	3
TAP	48	264	0
TAP	48	264	6
TAP	48	336	3
TAP	48	336	4
TAP	49	0	3
TAP	49	0	4
STR	49	72	1
SXL	49	72	1	96	144	0
STR	49	72	6
SXR	49	72	6	96	144	7
BRK	50	0	0
BRK	50	0	7
TAP	50	336	5
TAP	50	360	4
HLD	51	0	5	384
HLD	52	0	3	672
TAP	52	240	4
TAP	52	288	5
TAP	52	336	6
HLD	53	0	7	288
HLD	54	0	1	72
HLD	54	72	2	72
TAP	54	144	3
HLD	54	192	6	72
HLD	54	264	5	72
TAP	54	336	4
HLD	55	0	0	72
HLD	55	72	1	72
TAP	55	144	2
HLD	55	192	7	72
HLD	55	264	6	72
TAP	55	336	5
HLD	56	0	2	72
HLD	56	72	1	72
TAP	56	144	0
HLD	56	192	5	72
HLD	56	264	6	72
TAP	56	336	7
TAP	57	0	1
TAP	57	48	1
TAP	57	96	3
TAP	57	144	3
TAP	57	192	4
TAP	57	240	4
TAP	57	288	6
TAP	57	336	6
STR	58	0	1
SI_	58	0	1	96	48	4
HLD	58	0	7	96
TAP	58	96	1
HLD	58	192	0	96
STR	58	192	6
SI_	58	192	6	96	48	3
TAP	58	288	6
STR	59	0	2
SI_	59	0	2	96	48	0
STR	59	96	4
SI_	59	96	4	96	48	6
STR	59	192	3
SI_	59	192	3	96	48	7
TAP	59	288	4
HLD	60	0	0	96
STR	60	0	6
SI_	60	0	6	96	48	3
TAP	60	96	6
STR	60	192	1
SI_	60	192	1	96	48	4
HLD	60	192	7	96
TAP	60	288	1
STR	61	0	5
SI_	61	0	5	96	48	7
STR	61	96	3
SI_	61	96	3	96	48	1
STR	61	192	4
SI_	61	192	4	96	48	0
STR	61	288	3
SCL	61	288	3	96	192	4
TAP	62	240	7
TAP	62	288	6
STR	62	336	5
SUR	62	336	5	96	96	2
STR	63	192	3
SI_	63	192	3	96	48	0
STR	63	192	4
SI_	63	192	4	96	48	7
STR	64	0	1
SI_	64	0	1	96	48	4
STR	64	96	0
SI_	64	96	0	96	48	5
STR	64	192	7
SI_	64	192	7	96	48	2
STR	64	288	6
SI_	64	288	6	96	48	3
STR	65	0	2
SCL	65	0	2	96	192	5
HLD	66	0	0	96
STR	66	0	6
SI_	66	0	6	96	48	3
TAP	66	96	6
STR	66	192	1
SI_	66	192	1	96	48	4
HLD	66	192	7	96
TAP	66	288	1
HLD	67	0	2	96
STR	67	0	7
SI_	67	0	7	96	48	3
TAP	67	96	7
STR	67	192	0
SI_	67	192	0	96	48	4
HLD	67	192	5	96
TAP	67	288	0
HLD	68	0	0	96
STR	68	0	6
SI_	68	0	6	96	48	2
TAP	68	96	6
STR	68	192	1
SI_	68	192	1	96	48	5
HLD	68	192	7	96
TAP	68	288	1
STR	69	0	6
SI_	69	0	6	96	48	2
HLD	69	0	7	96
TAP	69	96	6
HLD	69	192	0	96
STR	69	192	1
SI_	69	192	1	96	48	5
TAP	69	288	1
STR	70	0	7
SI_	70	0	7	96	48	3
TAP	70	96	0
TAP	70	96	7
STR	70	192	0
SI_	70	192	0	96	48	4
TAP	70	288	0
TAP	70	288	7
STR	71	0	6
SI_	71	0	6	96	48	2
TAP	71	96	6
TAP	71	96	7
STR	71	192	1
SI_	71	192	1	96	48	5
TAP	71	288	0
TAP	71	288	1
STR	72	0	7
SCL	72	0	7	96	48	4
STR	72	96	7
SCR	72	96	7	96	48	2
STR	72	192	7
SI_	72	192	7	96	48	3
TAP	72	288	7
STR	73	0	0
SCR	73	0	0	96	48	3
STR	73	96	0
SCL	73	96	0	96	48	5
STR	73	192	0
SI_	73	192	0	96	48	4
TAP	73	288	0
BRK	74	0	7
TAP	74	96	0
TAP	74	192	1
TAP	74	288	2
TAP	75	0	6
TAP	75	96	5
TAP	75	192	4
TAP	75	288	3
TAP	76	0	2
TAP	76	96	3
TAP	76	192	4
TAP	76	288	5
TAP	77	0	4
TAP	77	96	3
TAP	77	192	4
TAP	77	288	3

T_REC_TAP	241
T_REC_BRK	11
T_REC_XTP	0
T_REC_HLD	82
T_REC_XHO	0
T_REC_STR	72
T_REC_BST	0
T_REC_XST	0
T_REC_TTP	0
T_REC_THO	0
T_REC_SLD	72
T_REC_ALL	478
T_NUM_TAP	313
T_NUM_BRK	11
T_NUM_HLD	82
T_NUM_SLD	72
T_NUM_ALL	478
T_JUDGE_TAP	324
T_JUDGE_HLD	196
T_JUDGE_SLD	72
T_JUDGE_ALL	592
TTM_EACHPAIRS	92
TTM_SCR_TAP	156500
TTM_SCR_BRK	28600
TTM_SCR_HLD	82000
TTM_SCR_SLD	108000
TTM_SCR_ALL	375100
TTM_SCR_S	362800
TTM_SCR_SS	374000
TTM_RAT_ACV	10029

