VERSION	0.00.00	1.03.00
FES_MODE	0
BPM_DEF	148.000	148.000	148.000	148.000
MET_DEF	4	4
RESOLUTION	384
CLK_DEF	384
COMPATIBLE_CODE	MA2

BPM	0	0	148.000

STR	1	0	3
SCL	1	0	3	96	288	0
STR	1	0	4
SCR	1	0	4	96	288	7
STR	3	0	0
SCR	3	0	0	96	288	3
STR	3	0	7
SCL	3	0	7	96	288	4
TAP	5	0	2
TAP	5	96	2
TAP	5	192	3
TAP	6	0	5
TAP	6	96	5
TAP	6	192	4
TAP	7	0	2
TAP	7	96	2
TAP	7	96	3
TAP	7	192	5
TAP	7	288	4
TAP	7	288	5
TAP	8	0	3
TAP	8	0	4
TAP	8	96	2
TAP	8	96	5
TAP	8	192	1
TAP	8	192	6
BRK	8	288	0
BRK	8	288	7
HLD	9	0	2	96
TAP	9	96	3
TAP	9	192	1
TAP	9	192	4
HLD	10	0	5	96
TAP	10	96	4
TAP	10	192	3
TAP	10	192	6
HLD	11	0	2	96
TAP	11	96	3
HLD	11	192	5	96
TAP	11	288	4
TAP	12	0	3
TAP	12	0	4
TAP	12	96	2
TAP	12	96	5
TAP	12	192	1
TAP	12	192	6
HLD	13	0	1	96
TAP	13	96	0
TAP	13	192	2
TAP	13	192	7
HLD	14	0	6	96
TAP	14	96	7
TAP	14	192	0
TAP	14	192	5
HLD	15	0	0	96
HLD	15	0	7	96
HLD	15	192	1	96
HLD	15	192	6	96
STR	16	0	2
SV_	16	0	2	96	192	0
STR	16	0	5
SV_	16	0	5	96	192	7
TAP	17	0	1
TAP	17	96	2
TAP	17	192	1
TAP	17	192	3
TAP	18	0	6
TAP	18	96	5
TAP	18	192	4
TAP	18	192	6
TAP	19	0	3
TAP	19	96	2
TAP	19	96	4
TAP	19	192	4
TAP	19	288	3
TAP	19	288	5
HLD	20	0	3	96
HLD	20	0	4	96
TAP	20	192	2
TAP	20	192	5
TAP	21	0	0
TAP	21	96	1
TAP	21	192	0
TAP	21	192	2
TAP	22	0	7
TAP	22	96	6
TAP	22	192	5
TAP	22	192	7
TAP	23	0	1
TAP	23	96	0
TAP	23	96	2
TAP	23	192	6
TAP	23	288	5
TAP	23	288	7
TAP	24	0	0
TAP	24	0	7
TAP	24	96	0
TAP	24	96	7
TAP	24	192	2
TAP	24	192	5
STR	25	0	1
SV_	25	0	1	96	192	3
STR	25	0	7
SV_	25	0	7	96	192	5
TAP	26	192	3
TAP	26	192	4
TAP	26	288	2
TAP	26	288	5
HLD	27	0	5	192
HLD	27	192	6	192
HLD	28	0	7	192
TAP	28	192	0
STR	29	0	0
SV_	29	0	0	96	192	2
STR	29	0	6
SV_	29	0	6	96	192	4
TAP	30	192	3
TAP	30	192	4
TAP	30	288	2
TAP	30	288	5
HLD	31	0	2	192
HLD	31	192	1	192
HLD	32	0	0	192
TAP	32	192	7
TAP	32	288	1
TAP	32	288	6
BRK	33	0	2
BRK	33	0	5
HLD	34	0	2	96
TAP	34	96	3
TAP	34	192	1
TAP	34	192	4
HLD	35	0	5	96
TAP	35	96	4
TAP	35	192	3
TAP	35	192	6
HLD	36	0	3	96
TAP	36	96	2
HLD	36	192	4	96
TAP	36	288	5
TAP	37	0	3
TAP	37	0	4
TAP	37	96	2
TAP	37	96	5
TAP	37	192	1
TAP	37	192	6
HLD	38	0	1	96
TAP	38	96	0
TAP	38	192	2
TAP	38	192	7
HLD	39	0	6	96
TAP	39	96	7
TAP	39	192	0
TAP	39	192	5
HLD	40	0	0	96
HLD	40	0	7	96
HLD	40	192	1	96
HLD	40	192	6	96
HLD	41	0	2	96
HLD	41	0	5	96
TAP	41	192	1
TAP	41	192	6
TAP	41	288	1
TAP	41	288	6
HLD	42	0	1	96
TAP	42	96	0
TAP	42	192	2
TAP	42	192	7
HLD	43	0	6	96
TAP	43	96	7
TAP	43	192	0
TAP	43	192	5
HLD	44	0	0	96
TAP	44	96	1
HLD	44	192	7	96
TAP	44	288	6
TAP	45	0	0
TAP	45	0	7
TAP	45	96	1
TAP	45	96	6
TAP	45	192	2
TAP	45	192	5
HLD	46	0	1	96
TAP	46	96	0
TAP	46	192	2
TAP	46	192	7
HLD	47	0	6	96
TAP	47	96	7
TAP	47	192	0
TAP	47	192	5
HLD	48	0	0	96
HLD	48	0	7	96
HLD	48	192	1	96
HLD	48	192	6	96
STR	49	0	2
SV_	49	0	2	96	192	0
STR	49	0	5
SV_	49	0	5	96	192	7
BST	50	0	0
SV_	50	0	0	96	288	3
BST	50	0	7
SV_	50	0	7	96	288	4
HLD	52	0	3	96
HLD	52	0	4	96
HLD	52	192	2	96
HLD	52	192	5	96
STR	53	0	1
SCR	53	0	1	96	120	3
STR	53	0	6
SCL	53	0	6	96	120	4
TAP	54	0	5
TAP	54	96	4
TAP	54	96	5
TAP	54	192	2
TAP	54	288	2
TAP	54	288	3
TAP	55	0	5
TAP	55	96	4
TAP	55	96	6
TAP	55	192	2
TAP	55	288	1
TAP	55	288	3
TAP	56	0	6
TAP	56	96	6
TAP	56	96	7
TAP	56	192	1
STR	56	288	0
SUR	56	288	0	96	288	6
STR	56	288	1
SCR	56	288	1	96	288	5
HLD	58	0	6	96
TAP	58	96	7
HLD	58	192	1	96
TAP	58	288	0
HLD	59	0	6	96
TAP	59	96	7
TAP	59	192	0
TAP	59	192	5
TAP	59	288	1
TAP	59	288	4
HLD	60	0	2	96
TAP	60	96	3
HLD	60	192	5	96
TAP	60	288	4
HLD	61	0	2	96
HLD	61	0	3	96
TAP	61	192	1
TAP	61	192	4
HLD	62	0	5	96
TAP	62	96	4
HLD	62	192	2	96
TAP	62	288	3
HLD	63	0	5	96
TAP	63	96	4
TAP	63	192	3
TAP	63	192	6
TAP	63	288	2
TAP	63	288	7
HLD	64	0	1	96
TAP	64	96	0
HLD	64	192	6	96
TAP	64	288	7
HLD	65	0	0	96
HLD	65	0	1	96
TAP	65	192	2
TAP	65	192	7
TAP	66	0	6
TAP	66	96	6
TAP	66	96	7
TAP	66	192	1
TAP	66	288	0
TAP	66	288	1
TAP	67	0	6
TAP	67	96	6
TAP	67	96	7
TAP	67	192	0
TAP	67	192	5
TAP	67	288	1
TAP	67	288	4
TAP	68	0	2
TAP	68	96	2
TAP	68	96	3
TAP	68	192	5
TAP	68	288	4
TAP	68	288	5
TAP	69	0	2
TAP	69	0	3
TAP	69	96	2
TAP	69	96	3
TAP	69	192	1
TAP	69	192	4
TAP	70	0	5
TAP	70	96	4
TAP	70	96	5
TAP	70	192	2
TAP	70	288	2
TAP	70	288	3
TAP	71	0	5
TAP	71	96	4
TAP	71	96	5
TAP	71	192	3
TAP	71	192	6
TAP	71	288	2
TAP	71	288	7
TAP	72	0	1
TAP	72	96	0
TAP	72	96	1
TAP	72	192	6
TAP	72	288	6
TAP	72	288	7
TAP	73	0	0
TAP	73	0	1
TAP	73	96	0
TAP	73	96	1
TAP	73	192	2
TAP	73	192	7
TAP	74	0	7
TAP	74	96	7
TAP	74	192	0
TAP	74	288	0
TAP	75	0	6
TAP	75	96	6
TAP	75	192	1
TAP	75	288	1
TAP	76	0	5
TAP	76	96	5
TAP	76	192	2
TAP	76	288	2
TAP	77	0	4
TAP	77	96	4
TAP	77	192	3
TAP	77	288	3
TAP	78	0	2
TAP	78	0	5

T_REC_TAP	236
T_REC_BRK	4
T_REC_XTP	0
T_REC_HLD	58
T_REC_XHO	0
T_REC_STR	16
T_REC_BST	2
T_REC_XST	0
T_REC_TTP	0
T_REC_THO	0
T_REC_SLD	18
T_REC_ALL	334
T_NUM_TAP	252
T_NUM_BRK	6
T_NUM_HLD	58
T_NUM_SLD	18
T_NUM_ALL	334
T_JUDGE_TAP	258
T_JUDGE_HLD	128
T_JUDGE_SLD	18
T_JUDGE_ALL	404
TTM_EACHPAIRS	100
TTM_SCR_TAP	126000
TTM_SCR_BRK	15600
TTM_SCR_HLD	58000
TTM_SCR_SLD	27000
TTM_SCR_ALL	226600
TTM_SCR_S	219250
TTM_SCR_SS	226000
TTM_RAT_ACV	10026

