VERSION	0.00.00	1.03.00
FES_MODE	0
BPM_DEF	148.000	148.000	148.000	148.000
MET_DEF	4	4
RESOLUTION	384
CLK_DEF	384
COMPATIBLE_CODE	MA2

BPM	0	0	148.000

TAP	1	0	3
TAP	2	0	3
TAP	3	0	3
TAP	4	0	3
TAP	5	0	4
TAP	5	192	4
TAP	6	0	4
TAP	6	192	4
TAP	7	0	3
TAP	7	96	3
TAP	7	192	3
TAP	7	288	3
HLD	8	0	3	192
HLD	8	0	4	192
BRK	8	288	3
BRK	8	288	4
TAP	9	0	3
TAP	9	96	3
TAP	9	192	3
TAP	10	0	2
TAP	10	96	2
TAP	10	192	2
HLD	11	0	1	96
HLD	11	192	1	96
TAP	12	0	0
TAP	12	96	0
TAP	12	192	0
TAP	12	192	7
TAP	13	0	7
TAP	13	96	7
TAP	13	192	7
TAP	14	0	6
TAP	14	96	6
TAP	14	192	6
HLD	15	0	5	96
HLD	15	192	5	96
TAP	16	0	4
TAP	16	96	4
BRK	16	192	3
BRK	16	192	4
HLD	17	0	4	192
HLD	18	0	5	192
TAP	19	0	6
TAP	19	192	6
TAP	20	0	7
TAP	20	96	7
TAP	20	192	7
HLD	21	0	0	192
HLD	22	0	1	192
TAP	23	0	2
TAP	23	192	2
TAP	24	0	3
TAP	24	96	3
TAP	24	192	3
TAP	25	0	5
TAP	25	96	5
TAP	25	192	4
TAP	25	192	5
TAP	26	0	2
TAP	26	96	2
TAP	26	192	2
TAP	26	192	3
TAP	27	0	4
TAP	27	0	5
TAP	27	192	2
TAP	27	192	3
TAP	28	0	3
TAP	28	96	4
TAP	28	192	3
TAP	28	192	4
TAP	29	0	1
TAP	29	96	1
TAP	29	192	0
TAP	29	192	1
TAP	30	0	6
TAP	30	96	6
TAP	30	192	6
TAP	30	192	7
TAP	31	0	0
TAP	31	0	1
TAP	31	192	6
TAP	31	192	7
TAP	32	0	0
TAP	32	96	7
TAP	32	192	0
TAP	32	288	7
BRK	33	0	1
BRK	33	0	6
TAP	34	0	0
TAP	34	96	0
TAP	34	192	0
TAP	34	192	1
TAP	35	0	1
TAP	35	96	1
TAP	35	192	0
TAP	35	192	1
HLD	36	0	2	96
HLD	36	0	3	96
HLD	36	192	4	96
HLD	36	192	5	96
TAP	37	0	3
TAP	37	96	3
TAP	37	192	3
TAP	37	192	4
TAP	38	0	4
TAP	38	96	4
TAP	38	192	4
TAP	38	192	5
TAP	39	0	5
TAP	39	96	5
TAP	39	192	4
TAP	39	192	5
TAP	40	0	6
TAP	40	0	7
TAP	40	192	0
TAP	40	192	1
TAP	41	0	7
TAP	41	96	0
TAP	41	192	1
TAP	41	192	6
TAP	42	0	7
TAP	42	96	7
TAP	42	192	6
TAP	42	192	7
TAP	43	0	6
TAP	43	96	6
TAP	43	192	6
TAP	43	192	7
HLD	44	0	4	96
HLD	44	0	5	96
HLD	44	192	2	96
HLD	44	192	3	96
TAP	45	0	4
TAP	45	96	4
TAP	45	192	3
TAP	45	192	4
TAP	46	0	3
TAP	46	96	3
TAP	46	192	2
TAP	46	192	3
TAP	47	0	2
TAP	47	96	2
TAP	47	192	2
TAP	47	192	3
TAP	48	0	0
TAP	48	0	1
TAP	48	192	6
TAP	48	192	7
TAP	49	0	0
TAP	49	96	7
BRK	49	192	1
BRK	49	192	6
STR	50	0	0
SI_	50	0	0	96	288	3
STR	52	0	7
SI_	52	0	7	96	288	4
STR	54	0	0
SI_	54	0	0	96	288	4
STR	56	0	7
SI_	56	0	7	96	288	3
TAP	58	0	2
TAP	58	96	3
TAP	58	192	2
TAP	59	0	5
TAP	59	96	4
TAP	59	192	5
TAP	60	0	5
TAP	60	96	5
TAP	60	192	4
TAP	60	288	4
TAP	61	0	3
TAP	61	96	3
TAP	61	192	2
TAP	61	192	3
HLD	62	0	0	192
HLD	62	0	1	192
HLD	63	0	6	192
HLD	63	0	7	192
TAP	64	0	0
TAP	64	96	0
TAP	64	192	7
TAP	64	288	7
TAP	65	0	0
TAP	65	96	7
TAP	65	192	0
TAP	65	288	0
TAP	65	288	7
TAP	66	0	1
TAP	66	96	1
TAP	66	192	1
TAP	67	0	2
TAP	67	96	2
TAP	67	192	2
TAP	68	0	3
TAP	68	96	3
TAP	68	192	3
TAP	69	0	4
TAP	69	96	3
TAP	69	192	4
TAP	69	288	3
TAP	69	288	4
TAP	70	0	5
TAP	70	96	5
TAP	70	192	5
TAP	71	0	6
TAP	71	96	6
TAP	71	192	6
TAP	72	0	7
TAP	72	96	7
TAP	72	192	7
TAP	73	0	0
TAP	73	96	7
TAP	73	192	0
TAP	73	288	0
TAP	73	288	7
HLD	74	0	0	192
HLD	75	0	1	192
HLD	76	0	2	192
HLD	77	0	3	192
TAP	78	0	3
TAP	78	0	4

T_REC_TAP	179
T_REC_BRK	8
T_REC_XTP	0
T_REC_HLD	26
T_REC_XHO	0
T_REC_STR	4
T_REC_BST	0
T_REC_XST	0
T_REC_TTP	0
T_REC_THO	0
T_REC_SLD	4
T_REC_ALL	221
T_NUM_TAP	183
T_NUM_BRK	8
T_NUM_HLD	26
T_NUM_SLD	4
T_NUM_ALL	221
T_JUDGE_TAP	191
T_JUDGE_HLD	80
T_JUDGE_SLD	4
T_JUDGE_ALL	275
TTM_EACHPAIRS	41
TTM_SCR_TAP	91500
TTM_SCR_BRK	20800
TTM_SCR_HLD	26000
TTM_SCR_SLD	6000
TTM_SCR_ALL	144300
TTM_SCR_S	139200
TTM_SCR_SS	143500
TTM_RAT_ACV	10055

