VERSION	0.00.00	1.03.00
FES_MODE	0
BPM_DEF	 79.000	 79.000	 79.000	 79.000
MET_DEF	4	4
RESOLUTION	384
CLK_DEF	384
COMPATIBLE_CODE	MA2

BPM	0	0	 79.000

TAP	1	0	6
STR	1	96	1
SUR	1	96	1	96	48	6
HLD	1	96	5	24
HLD	1	120	4	24
HLD	1	144	3	24
HLD	1	168	2	24
STR	1	288	0
SSL	1	288	0	96	48	4
TAP	1	312	2
TAP	1	312	6
TAP	1	360	2
TAP	1	360	6
HLD	2	96	2	24
STR	2	96	6
SUL	2	96	6	96	48	1
HLD	2	120	3	24
HLD	2	144	4	24
HLD	2	168	5	24
HLD	2	288	7	24
HLD	2	312	5	24
HLD	2	336	3	24
HLD	2	360	1	24
STR	3	0	6
SUR	3	0	6	96	48	2
TAP	3	48	0
STR	3	96	1
SUR	3	96	1	96	48	5
TAP	3	144	7
STR	3	192	6
SCR	3	192	6	96	48	5
TAP	3	240	0
STR	4	0	1
SUL	4	0	1	96	48	5
TAP	4	48	7
STR	4	96	6
SUL	4	96	6	96	48	2
TAP	4	144	0
STR	4	192	1
SCL	4	192	1	96	24	6
TAP	4	240	7
TAP	4	336	3
TAP	4	348	3
TAP	4	360	4
TAP	4	372	4
STR	5	0	0
SUL	5	0	0	96	96	5
TAP	5	48	7
STR	5	96	5
SCL	5	96	5	96	96	0
TAP	5	120	6
TAP	5	144	6
STR	5	192	0
SUL	5	192	0	96	96	5
TAP	5	240	7
TAP	5	288	5
BRK	5	312	6
BRK	5	360	6
STR	6	0	7
SUR	6	0	7	96	96	2
TAP	6	48	0
STR	6	96	2
SCR	6	96	2	96	96	7
TAP	6	144	1
STR	6	192	7
SUR	6	192	7	96	96	2
TAP	6	240	0
TAP	6	288	2
STR	7	0	0
SI_	7	0	0	96	48	6
STR	7	48	6
SI_	7	48	6	96	48	1
STR	7	96	1
SI_	7	96	1	96	48	5
STR	7	144	5
SI_	7	144	5	96	48	2
STR	7	192	2
SI_	7	192	2	96	48	4
STR	7	240	4
SI_	7	240	4	96	48	0
STR	8	0	7
SI_	8	0	7	96	24	5
STR	8	48	0
SI_	8	48	0	96	24	4
STR	8	96	1
SI_	8	96	1	96	24	3
STR	8	192	6
SI_	8	192	6	96	24	4
STR	8	240	7
SI_	8	240	7	96	24	3
STR	8	288	0
SI_	8	288	0	96	24	2
STR	9	0	7
SUR	9	0	7	96	576	0
TAP	9	24	7
TAP	9	48	7
TAP	9	72	7
TAP	9	96	6
TAP	9	120	6
TAP	9	144	6
TAP	9	168	6
TAP	9	192	5
TAP	9	216	5
TAP	9	240	5
TAP	9	264	5
TAP	9	288	4
TAP	9	312	4
TAP	9	336	4
TAP	9	360	4
TAP	10	0	3
TAP	10	24	3
TAP	10	48	3
TAP	10	72	3
TAP	10	96	2
TAP	10	120	2
TAP	10	144	2
TAP	10	168	2
TAP	10	192	1
TAP	10	216	1
TAP	10	240	1
TAP	10	264	1
STR	11	0	1
SI_	11	0	1	96	24	4
TAP	11	24	1
TAP	11	48	0
TAP	11	72	7
STR	11	96	6
SI_	11	96	6	96	24	3
TAP	11	120	6
TAP	11	144	7
TAP	11	168	0
STR	11	192	1
SCR	11	192	1	96	24	4
TAP	11	216	1
TAP	11	240	0
TAP	11	264	7
STR	11	288	6
SCL	11	288	6	96	24	3
TAP	11	312	6
TAP	11	336	7
TAP	11	360	0
STR	12	0	1
SUR	12	0	1	96	24	5
TAP	12	24	1
TAP	12	48	0
TAP	12	72	7
STR	12	96	6
SUL	12	96	6	96	24	2
TAP	12	120	6
TAP	12	144	7
TAP	12	168	0
TAP	12	192	1
TAP	12	216	1
TAP	12	240	0
TAP	12	264	7
STR	12	288	7
SI_	12	288	7	96	24	1
STR	12	312	1
SI_	12	312	1	96	24	5
STR	12	336	5
SLR	12	336	5	96	48	3
STR	13	96	5
SCL	13	96	5	96	24	2
TAP	13	120	5
TAP	13	144	6
TAP	13	168	7
STR	13	192	1
SI_	13	192	1	96	24	4
TAP	13	216	1
TAP	13	240	0
TAP	13	264	7
STR	13	288	6
SI_	13	288	6	96	24	3
TAP	13	312	6
TAP	13	336	7
TAP	13	360	0
STR	14	0	2
SCR	14	0	2	96	12	5
TAP	14	24	2
TAP	14	48	1
TAP	14	72	0
TAP	14	96	6
TAP	14	120	6
TAP	14	144	7
TAP	14	168	0
TAP	14	192	1
TAP	14	216	6
TAP	14	240	3
TAP	14	252	5
TAP	14	264	0
TAP	14	276	6
TAP	14	288	2
TAP	14	300	4
TAP	14	312	1
TAP	14	324	7
TAP	14	336	0
STR	15	0	5
SI_	15	0	5	96	24	1
TAP	15	24	5
TAP	15	48	4
TAP	15	72	3
STR	15	96	2
SI_	15	96	2	96	24	6
TAP	15	120	2
TAP	15	144	3
TAP	15	168	4
STR	15	192	5
SCR	15	192	5	96	24	0
TAP	15	216	5
TAP	15	240	4
TAP	15	264	3
STR	15	288	2
SCL	15	288	2	96	24	7
TAP	15	312	2
TAP	15	336	3
TAP	15	360	4
STR	16	0	5
SUL	16	0	5	96	24	0
TAP	16	24	5
TAP	16	48	4
TAP	16	72	3
STR	16	96	2
SUR	16	96	2	96	24	7
TAP	16	120	2
TAP	16	144	3
TAP	16	168	4
TAP	16	192	5
TAP	16	216	5
TAP	16	240	4
TAP	16	264	3
STR	16	288	0
SCL	16	288	0	96	24	6
STR	16	312	6
SI_	16	312	6	96	24	2
STR	16	336	2
SCL	16	336	2	96	24	0
STR	16	360	0
SI_	16	360	0	96	24	4
STR	17	96	1
SCL	17	96	1	96	24	6
TAP	17	120	1
TAP	17	144	2
TAP	17	168	3
STR	17	192	5
SI_	17	192	5	96	24	0
TAP	17	216	5
TAP	17	240	4
TAP	17	264	3
STR	17	288	2
SI_	17	288	2	96	24	7
TAP	17	312	2
TAP	17	336	3
TAP	17	360	4
STR	18	0	6
SCR	18	0	6	96	24	1
TAP	18	24	6
TAP	18	48	5
TAP	18	72	4
TAP	18	96	2
TAP	18	120	2
TAP	18	144	3
TAP	18	168	4
TAP	18	192	6
HLD	18	192	7	24
TAP	18	216	6
TAP	18	240	2
HLD	18	240	3	24
TAP	18	264	2
HLD	18	288	0	24
TAP	18	288	1
TAP	18	312	1
HLD	18	336	4	24
TAP	18	336	5
TAP	18	360	5
TAP	19	0	1
TAP	19	96	7
STR	19	120	7
SCL	19	120	7	96	24	5
SCR	19	120	7	96	24	1
STR	19	144	1
SV_	19	144	1	96	24	3
STR	19	144	5
SV_	19	144	5	96	24	3
TAP	19	288	0
STR	19	312	0
SCL	19	312	0	96	24	6
SCR	19	312	0	96	24	2
STR	19	336	2
SV_	19	336	2	96	24	4
STR	19	336	6
SV_	19	336	6	96	24	4
STR	20	96	7
SV_	20	96	7	96	48	1
SV_	20	96	7	96	48	5
TAP	20	120	7
STR	20	144	1
SCR	20	144	1	96	24	3
STR	20	144	5
SCL	20	144	5	96	24	3
STR	20	288	0
SV_	20	288	0	96	48	2
SV_	20	288	0	96	48	6
TAP	20	312	0
STR	20	336	2
SCR	20	336	2	96	24	4
STR	20	336	6
SCL	20	336	6	96	24	4
STR	21	96	6
SCL	21	96	6	96	24	4
STR	21	120	4
SI_	21	120	4	96	24	0
STR	21	144	0
SCR	21	144	0	96	24	2
STR	21	168	2
SI_	21	168	2	96	24	6
STR	21	288	1
SCR	21	288	1	96	24	3
STR	21	312	3
SI_	21	312	3	96	24	7
STR	21	336	7
SCL	21	336	7	96	24	5
STR	21	360	5
SI_	21	360	5	96	24	1
TAP	22	96	7
TAP	22	120	2
TAP	22	144	5
TAP	22	168	0
TAP	22	192	4
TAP	22	204	1
TAP	22	216	6
TAP	22	228	3
TAP	22	240	7
TAP	22	252	2
TAP	22	264	5
TAP	22	276	0
TAP	22	288	4
TAP	22	300	1
TAP	22	312	6
TAP	22	324	3
TAP	22	336	7
TAP	22	348	2
TAP	22	360	5
TAP	22	372	0
HLD	23	0	4	96
HLD	23	96	1	96
STR	23	144	0
SI_	23	144	0	96	24	4
HLD	23	192	6	48
HLD	23	288	5	96
STR	23	336	7
SI_	23	336	7	96	24	3
HLD	24	0	2	48
HLD	24	96	0	96
STR	24	144	2
SCR	24	144	2	96	24	5
HLD	24	192	7	96
HLD	24	288	3	48
HLD	24	336	4	48
HLD	25	0	1	96
STR	25	48	7
SI_	25	48	7	96	24	2
HLD	25	96	6	96
STR	25	144	7
SI_	25	144	7	96	24	4
HLD	25	192	0	96
STR	25	240	7
SI_	25	240	7	96	24	2
HLD	25	288	5	96
STR	25	336	7
SI_	25	336	7	96	24	4
HLD	26	0	1	96
STR	26	48	7
SUR	26	48	7	96	24	3
HLD	26	96	6	96
STR	26	144	7
SUL	26	144	7	96	12	3
HLD	26	192	0	96
TAP	26	240	7
TAP	26	288	5
TAP	26	300	5
TAP	26	312	2
TAP	26	324	2
TAP	26	336	7
STR	27	0	0
SI_	27	0	0	96	12	2
STR	27	24	0
SI_	27	24	0	96	12	3
STR	27	48	0
SI_	27	48	0	96	12	4
STR	27	72	0
SI_	27	72	0	96	12	5
STR	27	192	7
SI_	27	192	7	96	12	5
STR	27	216	7
SI_	27	216	7	96	12	4
STR	27	240	7
SI_	27	240	7	96	12	3
STR	27	264	7
SI_	27	264	7	96	12	2
STR	28	0	1
SI_	28	0	1	96	12	6
STR	28	24	1
SI_	28	24	1	96	12	5
STR	28	48	1
SI_	28	48	1	96	12	4
STR	28	72	1
SI_	28	72	1	96	12	3
STR	28	192	6
SI_	28	192	6	96	12	1
STR	28	216	6
SI_	28	216	6	96	12	2
STR	28	240	6
SI_	28	240	6	96	12	3
STR	28	264	6
SI_	28	264	6	96	12	4
STR	29	0	2
SCR	29	0	2	96	12	5
STR	29	24	2
SUR	29	24	2	96	12	6
STR	29	48	2
SV_	29	48	2	96	12	7
STR	29	72	2
SI_	29	72	2	96	12	0
STR	29	192	5
SCL	29	192	5	96	12	2
STR	29	216	5
SUL	29	216	5	96	12	1
STR	29	240	5
SV_	29	240	5	96	12	0
STR	29	264	5
SI_	29	264	5	96	12	7
STR	30	0	3
SCR	30	0	3	96	12	6
STR	30	24	3
SUR	30	24	3	96	12	7
STR	30	48	3
SI_	30	48	3	96	12	0
STR	30	72	3
SCL	30	72	3	96	12	1
STR	30	192	4
SCL	30	192	4	96	48	4
TAP	30	216	4
TAP	30	240	4
TAP	30	264	4
TAP	31	0	7
TAP	31	12	6
TAP	31	24	5
TAP	31	36	4
STR	31	48	7
SI_	31	48	7	96	12	3
TAP	31	60	0
TAP	31	72	1
TAP	31	84	2
TAP	31	96	7
TAP	31	108	6
TAP	31	120	7
TAP	31	132	0
TAP	31	192	0
TAP	31	204	1
TAP	31	216	2
TAP	31	228	3
STR	31	240	0
SI_	31	240	0	96	12	4
TAP	31	252	7
TAP	31	264	6
TAP	31	276	5
TAP	31	288	0
TAP	31	300	1
TAP	31	312	0
TAP	31	324	7
TAP	32	0	1
TAP	32	12	2
TAP	32	24	3
TAP	32	36	4
STR	32	48	6
SSL	32	48	6	96	24	2
TAP	32	60	5
TAP	32	72	4
TAP	32	84	3
TAP	32	96	1
TAP	32	108	0
TAP	32	120	7
TAP	32	132	6
TAP	32	192	0
TAP	32	204	7
TAP	32	216	6
TAP	32	228	5
TAP	32	240	7
TAP	32	252	0
TAP	32	264	1
TAP	32	276	2
TAP	32	288	5
TAP	32	300	5
TAP	32	312	4
TAP	32	324	4
TAP	32	336	3
TAP	32	348	3
TAP	32	360	2
TAP	32	372	2
TAP	33	0	6
TAP	33	12	3
TAP	33	24	6
TAP	33	36	3
TAP	33	48	5
TAP	33	60	2
TAP	33	72	5
TAP	33	84	2
STR	33	96	4
SF_	33	96	4	96	48	0
TAP	33	108	1
TAP	33	120	4
TAP	33	132	1
TAP	33	144	5
TAP	33	156	2
TAP	33	168	5
TAP	33	180	2
STR	33	192	4
SXL	33	192	4	96	48	0
SXR	33	192	4	96	48	0
STR	34	0	0
SUL	34	0	0	96	48	3
STR	34	12	4
SUL	34	12	4	96	48	7
TAP	34	24	1
TAP	34	36	5
TAP	34	48	2
TAP	34	60	6
TAP	34	72	3
TAP	34	84	7
STR	34	192	7
SUR	34	192	7	96	48	4
STR	34	204	3
SUR	34	204	3	96	48	0
TAP	34	216	6
TAP	34	228	2
TAP	34	240	5
TAP	34	252	1
TAP	34	264	4
TAP	34	276	0
STR	35	0	3
SI_	35	0	3	96	24	6
TAP	35	48	7
STR	35	96	4
SI_	35	96	4	96	24	1
TAP	35	120	0
TAP	35	144	0
STR	35	192	2
SI_	35	192	2	96	24	7
TAP	35	240	6
STR	35	288	5
SI_	35	288	5	96	24	0
BRK	35	312	1
BRK	35	360	1
STR	36	0	7
SI_	36	0	7	96	24	2
TAP	36	48	3
STR	36	96	0
SI_	36	96	0	96	24	5
TAP	36	144	4
STR	36	192	6
SI_	36	192	6	96	24	3
TAP	36	240	2
TAP	36	288	1
TAP	36	312	1
TAP	36	336	5
TAP	36	344	4
TAP	36	352	5
TAP	36	360	4
TAP	36	368	5
TAP	36	376	4
STR	37	0	5
SI_	37	0	5	96	24	0
STR	37	24	0
SI_	37	24	0	96	24	5
STR	37	48	1
SI_	37	48	1	96	24	4
STR	37	72	4
SI_	37	72	4	96	24	1
STR	37	192	7
SI_	37	192	7	96	24	2
STR	37	216	2
SI_	37	216	2	96	24	7
STR	37	240	3
SI_	37	240	3	96	24	6
STR	37	264	6
SI_	37	264	6	96	24	3
STR	38	0	0
SI_	38	0	0	96	24	4
STR	38	24	4
SI_	38	24	4	96	24	0
STR	38	48	2
SI_	38	48	2	96	24	6
STR	38	72	6
SI_	38	72	6	96	24	2
STR	38	192	7
SI_	38	192	7	96	24	3
STR	38	216	3
SI_	38	216	3	96	24	7
STR	38	240	5
SI_	38	240	5	96	24	1
STR	38	264	1
SI_	38	264	1	96	24	5
STR	39	0	2
SV_	39	0	2	96	24	1
STR	39	24	6
SV_	39	24	6	96	24	5
STR	39	48	2
SV_	39	48	2	96	24	3
STR	39	72	6
SV_	39	72	6	96	24	7
STR	39	192	1
SV_	39	192	1	96	24	2
STR	39	216	5
SV_	39	216	5	96	24	6
STR	39	240	1
SV_	39	240	1	96	24	0
STR	39	264	5
SV_	39	264	5	96	24	4
STR	40	0	3
SV_	40	0	3	96	24	0
STR	40	24	7
SV_	40	24	7	96	24	4
STR	40	48	3
SV_	40	48	3	96	24	2
STR	40	72	7
SV_	40	72	7	96	24	6
STR	40	192	0
SV_	40	192	0	96	24	3
STR	40	216	4
SV_	40	216	4	96	24	7
STR	40	240	0
SV_	40	240	0	96	24	1
STR	40	264	4
SV_	40	264	4	96	24	5

T_REC_TAP	271
T_REC_BRK	4
T_REC_XTP	0
T_REC_HLD	32
T_REC_XHO	0
T_REC_STR	161
T_REC_BST	0
T_REC_XST	0
T_REC_TTP	0
T_REC_THO	0
T_REC_SLD	166
T_REC_ALL	634
T_NUM_TAP	432
T_NUM_BRK	4
T_NUM_HLD	32
T_NUM_SLD	166
T_NUM_ALL	634
T_JUDGE_TAP	436
T_JUDGE_HLD	72
T_JUDGE_SLD	166
T_JUDGE_ALL	674
TTM_EACHPAIRS	12
TTM_SCR_TAP	216000
TTM_SCR_BRK	10400
TTM_SCR_HLD	32000
TTM_SCR_SLD	249000
TTM_SCR_ALL	507400
TTM_SCR_S	491800
TTM_SCR_SS	507000
TTM_RAT_ACV	10007

