VERSION	0.00.00	1.03.00
FES_MODE	0
BPM_DEF	 79.000	 79.000	 79.000	 79.000
MET_DEF	4	4
RESOLUTION	384
CLK_DEF	384
COMPATIBLE_CODE	MA2

BPM	0	0	 79.000

STR	1	0	0
SI_	1	0	0	96	48	5
STR	1	192	5
SI_	1	192	5	96	48	2
STR	2	0	0
SI_	2	0	0	96	48	3
STR	2	192	3
SXL	2	192	3	96	48	5
SXR	2	192	3	96	48	1
TAP	3	0	7
TAP	3	48	1
TAP	3	48	5
TAP	3	96	3
TAP	3	144	1
TAP	3	144	5
STR	3	192	7
SXL	3	192	7	96	48	1
SXR	3	192	7	96	48	5
STR	4	0	0
SXL	4	0	0	96	48	2
SXR	4	0	0	96	48	6
STR	4	192	4
SI_	4	192	4	96	48	0
STR	4	288	3
SCL	4	288	3	96	240	4
HLD	5	0	7	288
TAP	5	288	0
TAP	5	312	0
TAP	5	312	7
TAP	5	360	2
TAP	5	360	5
STR	6	0	2
SUL	6	0	2	96	48	4
STR	6	0	5
SI_	6	0	5	96	48	0
STR	6	192	2
SI_	6	192	2	96	48	7
STR	6	192	5
SUR	6	192	5	96	48	3
TAP	7	0	0
TAP	7	48	2
TAP	7	48	6
TAP	7	96	4
TAP	7	144	2
TAP	7	144	6
STR	7	192	0
SI_	7	192	0	96	48	4
STR	7	288	6
SI_	7	288	6	96	48	2
STR	8	0	0
SI_	8	0	0	96	48	3
SI_	8	0	0	96	48	5
STR	8	192	4
SV_	8	192	4	96	48	3
STR	8	288	2
SUL	8	288	2	96	48	5
STR	9	0	6
SCR	9	0	6	96	528	1
BRK	10	288	0
BRK	10	288	7
HLD	11	0	3	96
TAP	11	24	4
TAP	11	48	5
HLD	11	96	5	96
TAP	11	120	4
TAP	11	144	3
HLD	11	192	2	96
TAP	11	216	3
TAP	11	240	4
HLD	11	288	6	96
TAP	11	312	5
TAP	11	336	4
HLD	12	0	1	96
TAP	12	24	2
TAP	12	48	3
HLD	12	96	7	96
TAP	12	120	6
TAP	12	144	5
TAP	12	192	2
TAP	12	216	2
TAP	12	240	4
TAP	12	264	4
TAP	12	288	3
TAP	12	312	3
TAP	12	336	2
TAP	12	336	6
HLD	13	0	4	96
TAP	13	24	3
TAP	13	48	2
HLD	13	96	2	96
TAP	13	120	3
TAP	13	144	4
HLD	13	192	5	96
TAP	13	216	4
TAP	13	240	3
HLD	13	288	1	96
TAP	13	312	2
TAP	13	336	3
HLD	14	0	6	96
TAP	14	24	5
TAP	14	48	4
HLD	14	96	0	96
TAP	14	120	1
TAP	14	144	2
HLD	14	192	5	144
TAP	14	216	4
TAP	14	240	3
TAP	14	264	2
HLD	14	288	1	48
HLD	15	0	2	96
TAP	15	24	3
TAP	15	48	4
HLD	15	96	1	96
TAP	15	120	2
TAP	15	144	3
HLD	15	192	0	96
TAP	15	216	1
TAP	15	240	2
HLD	15	288	7	96
TAP	15	312	6
TAP	15	336	5
HLD	16	0	6	96
TAP	16	24	5
TAP	16	48	4
HLD	16	96	5	96
TAP	16	120	4
TAP	16	144	3
TAP	16	192	4
TAP	16	216	4
TAP	16	240	3
TAP	16	264	3
TAP	16	288	5
TAP	16	312	4
TAP	16	336	3
TAP	16	336	6
HLD	17	0	5	96
TAP	17	24	4
TAP	17	48	3
HLD	17	96	6	96
TAP	17	120	5
TAP	17	144	4
HLD	17	192	7	96
TAP	17	216	6
TAP	17	240	5
HLD	17	288	0	96
TAP	17	312	1
TAP	17	336	2
HLD	18	0	1	96
TAP	18	24	2
TAP	18	48	3
HLD	18	96	2	96
TAP	18	120	3
TAP	18	144	4
TAP	18	192	3
TAP	18	240	5
TAP	18	240	6
TAP	18	288	0
TAP	18	288	1
TAP	18	336	3
TAP	18	336	4
TAP	19	0	6
TAP	19	0	7
TAP	19	48	0
STR	19	48	1
SI_	19	48	1	96	48	4
STR	19	96	3
SI_	19	96	3	96	48	6
STR	19	240	3
SI_	19	240	3	96	48	6
STR	19	288	5
SI_	19	288	5	96	48	0
STR	20	48	5
SI_	20	48	5	96	48	0
STR	20	96	7
SI_	20	96	7	96	48	2
HLD	20	240	1	96
TAP	20	288	0
TAP	20	336	2
TAP	21	0	3
TAP	21	0	4
TAP	21	48	5
STR	21	48	6
SI_	21	48	6	96	48	3
STR	21	96	4
SI_	21	96	4	96	48	1
STR	21	240	4
SI_	21	240	4	96	48	1
STR	21	288	2
SI_	21	288	2	96	48	7
TAP	22	48	6
TAP	22	72	6
TAP	22	96	7
TAP	22	120	7
TAP	22	144	0
TAP	22	168	0
TAP	22	192	1
TAP	22	216	1
TAP	22	240	2
TAP	22	264	2
TAP	22	288	3
TAP	22	312	3
TAP	22	336	4
TAP	22	336	5
TAP	23	0	1
TAP	23	0	2
STR	23	48	6
SI_	23	48	6	96	48	3
TAP	23	48	7
STR	23	96	4
SI_	23	96	4	96	48	1
STR	23	240	4
SI_	23	240	4	96	48	1
STR	23	288	2
SI_	23	288	2	96	48	7
STR	24	48	2
SI_	24	48	2	96	48	7
STR	24	96	0
SI_	24	96	0	96	48	5
HLD	24	240	6	96
TAP	24	288	7
TAP	24	336	5
TAP	25	0	3
TAP	25	0	4
STR	25	48	1
SI_	25	48	1	96	48	4
TAP	25	48	2
STR	25	96	3
SI_	25	96	3	96	48	6
STR	25	240	3
SI_	25	240	3	96	48	6
STR	25	288	5
SI_	25	288	5	96	48	0
TAP	26	48	1
TAP	26	72	1
TAP	26	96	0
TAP	26	120	0
TAP	26	144	7
TAP	26	168	7
TAP	26	192	6
TAP	26	216	6
TAP	26	240	5
TAP	26	264	5
TAP	26	288	4
TAP	26	312	4
TAP	26	336	2
TAP	26	336	3
HLD	27	0	0	336
STR	27	0	6
SSL	27	0	6	96	192	2
STR	27	336	2
SUL	27	336	2	96	48	6
HLD	28	0	4	144
STR	28	144	6
SUL	28	144	6	96	48	2
HLD	28	192	0	144
STR	28	336	2
SSL	28	336	2	96	192	6
HLD	29	0	4	384
STR	30	0	0
SXL	30	0	0	96	48	2
STR	30	96	4
SXL	30	96	4	96	48	6
TAP	30	192	0
TAP	30	240	1
TAP	30	288	2
TAP	30	288	5
BST	31	0	0
SCR	31	0	0	96	48	3
TAP	31	24	7
TAP	31	48	6
TAP	31	72	5
TAP	31	96	4
TAP	31	120	5
TAP	31	144	6
TAP	31	168	7
TAP	31	192	0
TAP	31	216	1
TAP	31	240	2
TAP	31	264	3
TAP	31	288	4
TAP	31	288	5
TAP	31	312	4
TAP	31	312	5
TAP	31	360	2
TAP	31	360	7
TAP	32	0	6
TAP	32	24	5
TAP	32	48	4
TAP	32	72	3
TAP	32	96	1
TAP	32	96	2
TAP	32	144	3
TAP	32	168	4
TAP	32	192	5
TAP	32	192	6
TAP	32	240	1
TAP	32	240	2
TAP	32	288	5
TAP	32	312	4
TAP	32	336	3
TAP	32	360	2
STR	33	0	1
SLR	33	0	1	96	72	7
STR	33	48	4
SI_	33	48	4	96	24	6
STR	33	192	3
SI_	33	192	3	96	24	1
STR	33	192	4
SI_	33	192	4	96	24	0
TAP	34	0	7
TAP	34	24	6
TAP	34	48	5
TAP	34	72	4
TAP	34	96	1
TAP	34	96	3
TAP	34	144	0
TAP	34	144	2
TAP	34	192	0
TAP	34	216	1
TAP	34	240	2
TAP	34	264	3
TAP	34	288	4
TAP	34	288	6
TAP	34	336	5
TAP	34	336	7
BST	35	0	7
SCL	35	0	7	96	48	4
TAP	35	24	0
TAP	35	48	1
TAP	35	72	2
TAP	35	96	3
TAP	35	120	2
TAP	35	144	1
TAP	35	168	0
TAP	35	192	7
TAP	35	216	6
TAP	35	240	5
TAP	35	264	4
TAP	35	288	2
TAP	35	288	3
TAP	35	312	2
TAP	35	312	3
TAP	35	360	0
TAP	35	360	5
TAP	36	0	1
TAP	36	24	2
TAP	36	48	3
TAP	36	72	4
TAP	36	96	5
TAP	36	96	6
TAP	36	144	7
TAP	36	168	0
TAP	36	192	1
TAP	36	192	2
TAP	36	240	5
TAP	36	240	6
TAP	36	288	2
TAP	36	312	1
TAP	36	336	0
TAP	36	360	7
STR	37	0	6
SLL	37	0	6	96	72	0
STR	37	48	3
SI_	37	48	3	96	24	1
STR	37	192	3
SI_	37	192	3	96	24	7
STR	37	192	4
SI_	37	192	4	96	24	6
TAP	38	0	0
TAP	38	24	1
TAP	38	48	2
TAP	38	72	3
TAP	38	96	4
TAP	38	96	6
TAP	38	144	1
TAP	38	144	3
TAP	38	192	7
TAP	38	216	6
TAP	38	240	5
TAP	38	264	4
STR	38	288	1
SCL	38	288	1	96	720	6
TAP	38	288	3
TAP	38	336	4
TAP	38	336	6

T_REC_TAP	236
T_REC_BRK	2
T_REC_XTP	0
T_REC_HLD	33
T_REC_XHO	0
T_REC_STR	53
T_REC_BST	2
T_REC_XST	0
T_REC_TTP	0
T_REC_THO	0
T_REC_SLD	59
T_REC_ALL	385
T_NUM_TAP	289
T_NUM_BRK	4
T_NUM_HLD	33
T_NUM_SLD	59
T_NUM_ALL	385
T_JUDGE_TAP	293
T_JUDGE_HLD	166
T_JUDGE_SLD	59
T_JUDGE_ALL	518
TTM_EACHPAIRS	48
TTM_SCR_TAP	144500
TTM_SCR_BRK	10400
TTM_SCR_HLD	33000
TTM_SCR_SLD	88500
TTM_SCR_ALL	276400
TTM_SCR_S	267750
TTM_SCR_SS	276000
TTM_RAT_ACV	10014

