VERSION	0.00.00	1.03.00
FES_MODE	0
BPM_DEF	 79.000	 79.000	 79.000	 79.000
MET_DEF	4	4
RESOLUTION	384
CLK_DEF	384
COMPATIBLE_CODE	MA2

BPM	0	0	 79.000

STR	1	0	0
SI_	1	0	0	96	96	5
STR	1	0	1
SI_	1	0	1	96	96	4
STR	2	0	6
SI_	2	0	6	96	96	3
STR	2	0	7
SI_	2	0	7	96	96	2
TAP	3	0	2
TAP	3	48	2
TAP	3	96	2
TAP	3	192	1
TAP	3	192	3
TAP	3	288	1
TAP	3	288	3
HLD	4	0	5	96
TAP	4	96	4
HLD	4	192	2	96
TAP	4	288	3
STR	5	0	4
SI_	5	0	4	96	96	1
STR	5	0	5
SI_	5	0	5	96	96	0
STR	6	0	2
SI_	6	0	2	96	96	7
STR	6	0	3
SI_	6	0	3	96	96	6
TAP	7	0	5
TAP	7	48	5
TAP	7	96	5
TAP	7	192	4
TAP	7	192	6
TAP	7	288	4
TAP	7	288	6
HLD	8	0	2	96
TAP	8	96	3
HLD	8	192	5	96
TAP	8	288	4
STR	9	0	0
SCR	9	0	0	96	192	3
STR	9	0	7
SCL	9	0	7	96	192	4
TAP	10	192	3
TAP	10	192	4
BRK	10	288	1
BRK	10	288	6
TAP	11	0	2
TAP	11	48	2
TAP	11	96	3
TAP	11	144	3
TAP	11	192	2
TAP	11	240	3
TAP	11	288	1
TAP	11	288	4
TAP	12	0	5
TAP	12	48	5
TAP	12	96	4
TAP	12	144	4
TAP	12	192	5
TAP	12	240	4
TAP	12	288	3
TAP	12	288	6
TAP	13	0	1
TAP	13	48	1
TAP	13	96	0
TAP	13	144	0
TAP	13	192	1
TAP	13	240	0
TAP	13	288	2
TAP	13	288	7
TAP	14	0	6
TAP	14	48	6
TAP	14	96	7
TAP	14	144	7
TAP	14	192	6
TAP	14	240	7
TAP	14	288	0
TAP	14	288	5
TAP	15	0	1
TAP	15	48	2
TAP	15	96	3
TAP	15	144	4
TAP	15	192	5
TAP	15	240	6
TAP	15	288	0
TAP	15	288	7
TAP	15	336	0
TAP	15	336	7
TAP	16	0	6
TAP	16	48	5
TAP	16	96	4
TAP	16	144	3
TAP	16	192	2
TAP	16	240	1
TAP	16	288	0
TAP	16	288	7
TAP	17	0	6
TAP	17	48	5
TAP	17	96	4
TAP	17	144	3
TAP	17	192	2
TAP	17	240	1
TAP	17	288	0
TAP	17	288	7
TAP	17	336	0
TAP	17	336	7
TAP	18	0	1
TAP	18	48	2
TAP	18	96	3
TAP	18	144	4
TAP	18	192	5
TAP	18	240	6
TAP	18	288	0
TAP	18	288	7
HLD	19	0	2	96
TAP	19	96	3
TAP	19	144	2
TAP	19	144	3
HLD	19	192	5	96
TAP	19	288	4
TAP	19	336	4
TAP	19	336	5
HLD	20	0	2	96
TAP	20	96	3
TAP	20	144	1
TAP	20	144	4
HLD	20	192	5	96
TAP	20	288	4
TAP	20	336	3
TAP	20	336	6
HLD	21	0	1	96
TAP	21	96	0
TAP	21	144	2
TAP	21	144	7
HLD	21	192	6	96
TAP	21	288	7
TAP	21	336	0
TAP	21	336	5
HLD	22	0	1	96
HLD	22	0	6	96
TAP	22	144	0
TAP	22	144	7
TAP	22	192	0
TAP	22	192	7
TAP	22	240	1
TAP	22	240	6
TAP	22	288	2
TAP	22	288	5
HLD	23	0	6	96
TAP	23	96	7
TAP	23	144	6
TAP	23	144	7
HLD	23	192	1	96
TAP	23	288	0
TAP	23	336	0
TAP	23	336	1
HLD	24	0	6	96
TAP	24	96	7
TAP	24	144	0
TAP	24	144	5
HLD	24	192	1	96
TAP	24	288	0
TAP	24	336	2
TAP	24	336	7
HLD	25	0	5	96
TAP	25	96	4
TAP	25	144	3
TAP	25	144	6
HLD	25	192	2	96
TAP	25	288	3
TAP	25	336	1
TAP	25	336	4
HLD	26	0	2	96
HLD	26	0	5	96
TAP	26	144	3
TAP	26	144	4
TAP	26	192	3
TAP	26	192	4
TAP	26	240	2
TAP	26	240	5
TAP	26	288	1
TAP	26	288	6
HLD	27	0	1	96
HLD	27	96	2	96
HLD	27	192	3	96
TAP	27	288	4
HLD	28	0	6	96
HLD	28	96	5	96
HLD	28	192	4	96
TAP	28	288	3
HLD	29	0	1	96
HLD	29	0	3	96
HLD	29	192	4	96
HLD	29	192	6	96
STR	30	0	3
SI_	30	0	3	96	96	0
STR	30	0	4
SI_	30	0	4	96	96	7
BRK	30	288	1
BRK	30	288	6
TAP	31	0	1
TAP	31	48	2
TAP	31	96	3
TAP	31	144	4
TAP	31	144	5
TAP	31	192	6
TAP	31	240	5
TAP	31	288	4
TAP	31	336	2
TAP	31	336	3
TAP	32	0	1
TAP	32	48	0
TAP	32	96	7
TAP	32	144	6
HLD	32	192	4	96
TAP	32	192	5
TAP	32	288	3
TAP	33	0	3
TAP	33	48	2
STR	33	96	0
SCL	33	96	0	96	96	5
STR	33	96	1
SCR	33	96	1	96	96	4
STR	34	0	6
SCL	34	0	6	96	96	3
STR	34	0	7
SCR	34	0	7	96	96	2
TAP	34	288	1
TAP	34	288	6
TAP	35	0	6
TAP	35	48	5
TAP	35	96	4
TAP	35	144	2
TAP	35	144	3
TAP	35	192	1
TAP	35	240	2
TAP	35	288	3
TAP	35	336	4
TAP	35	336	5
TAP	36	0	6
TAP	36	48	7
TAP	36	96	0
TAP	36	144	1
TAP	36	192	2
HLD	36	192	3	96
TAP	36	288	4
TAP	37	0	4
TAP	37	48	5
STR	37	96	6
SCL	37	96	6	96	96	3
STR	37	96	7
SCR	37	96	7	96	96	2
STR	38	0	0
SCL	38	0	0	96	96	5
STR	38	0	1
SCR	38	0	1	96	96	4
TAP	38	288	1
TAP	38	288	6
STR	39	0	3
SXR	39	0	3	96	672	0
STR	39	0	4
SXL	39	0	4	96	672	7

T_REC_TAP	182
T_REC_BRK	4
T_REC_XTP	0
T_REC_HLD	32
T_REC_XHO	0
T_REC_STR	22
T_REC_BST	0
T_REC_XST	0
T_REC_TTP	0
T_REC_THO	0
T_REC_SLD	22
T_REC_ALL	262
T_NUM_TAP	204
T_NUM_BRK	4
T_NUM_HLD	32
T_NUM_SLD	22
T_NUM_ALL	262
T_JUDGE_TAP	208
T_JUDGE_HLD	128
T_JUDGE_SLD	22
T_JUDGE_ALL	358
TTM_EACHPAIRS	60
TTM_SCR_TAP	102000
TTM_SCR_BRK	10400
TTM_SCR_HLD	32000
TTM_SCR_SLD	33000
TTM_SCR_ALL	177400
TTM_SCR_S	171700
TTM_SCR_SS	177000
TTM_RAT_ACV	10022

