VERSION	0.00.00	1.03.00
FES_MODE	0
BPM_DEF	 79.000	 79.000	 79.000	 79.000
MET_DEF	4	4
RESOLUTION	384
CLK_DEF	384
COMPATIBLE_CODE	MA2

BPM	0	0	 79.000

TAP	1	0	0
TAP	1	96	0
HLD	1	192	0	96
STR	2	0	7
SI_	2	0	7	96	96	4
TAP	3	0	7
TAP	3	96	7
HLD	3	192	7	96
STR	4	0	0
SI_	4	0	0	96	96	3
TAP	5	0	0
TAP	5	96	0
TAP	5	192	1
TAP	5	288	1
TAP	6	0	2
TAP	6	96	2
TAP	6	192	3
TAP	6	192	4
TAP	7	0	4
TAP	7	96	4
TAP	7	192	5
TAP	7	288	5
TAP	8	0	6
TAP	8	96	6
BRK	8	192	0
BRK	8	192	7
STR	9	0	7
SI_	9	0	7	96	96	3
STR	10	0	0
SI_	10	0	0	96	96	4
TAP	11	0	7
TAP	11	96	7
TAP	11	192	6
TAP	11	288	6
TAP	12	0	5
TAP	12	96	5
TAP	12	192	4
TAP	12	288	3
TAP	12	288	4
TAP	13	0	3
TAP	13	96	3
TAP	13	192	2
TAP	13	288	2
TAP	14	0	1
TAP	14	96	1
TAP	14	192	0
BRK	14	288	0
BRK	14	288	7
TAP	15	0	0
TAP	15	96	0
TAP	15	192	1
TAP	15	288	1
TAP	16	0	2
TAP	16	96	2
TAP	16	192	3
TAP	16	288	3
TAP	16	288	4
TAP	17	0	4
TAP	17	96	4
TAP	17	192	5
TAP	17	288	5
TAP	18	0	6
TAP	18	96	6
TAP	18	192	7
BRK	18	288	0
BRK	18	288	7
HLD	19	0	7	96
HLD	19	192	0	96
STR	20	0	7
SI_	20	0	7	96	96	4
HLD	21	0	0	96
HLD	21	192	7	96
STR	22	0	0
SI_	22	0	0	96	96	3
TAP	23	0	4
TAP	23	144	3
TAP	23	192	3
TAP	23	336	4
TAP	24	0	4
TAP	24	144	3
TAP	24	192	3
TAP	24	336	4
TAP	25	0	5
TAP	25	144	3
TAP	25	192	2
TAP	25	336	4
TAP	26	0	5
TAP	26	144	3
TAP	26	192	2
TAP	26	336	4
STR	27	0	5
SI_	27	0	5	96	96	0
STR	28	0	2
SI_	28	0	2	96	96	7
STR	29	0	4
SI_	29	0	4	96	96	0
STR	30	0	3
SI_	30	0	3	96	96	7
TAP	31	0	4
TAP	31	48	4
TAP	31	144	5
TAP	31	192	5
TAP	31	240	5
TAP	31	336	6
TAP	32	0	6
TAP	32	48	6
TAP	32	144	7
TAP	32	192	7
TAP	32	240	7
TAP	32	336	0
TAP	33	0	0
TAP	33	48	0
TAP	33	144	1
TAP	33	192	1
TAP	33	240	1
TAP	33	336	2
TAP	34	0	2
TAP	34	48	2
TAP	34	144	3
HLD	34	192	3	96
TAP	35	0	3
TAP	35	0	4
TAP	35	48	3
TAP	35	48	4
TAP	35	144	2
TAP	35	192	2
TAP	35	240	2
TAP	35	336	1
TAP	36	0	1
TAP	36	48	1
TAP	36	144	0
TAP	36	192	0
TAP	36	240	0
TAP	36	336	7
TAP	37	0	7
TAP	37	48	7
TAP	37	144	6
TAP	37	192	6
TAP	37	240	6
TAP	37	336	5
TAP	38	0	5
TAP	38	48	5
TAP	38	144	4
HLD	38	192	4	96
HLD	39	0	3	288
HLD	39	0	4	288
HLD	40	0	2	288
HLD	40	0	5	288

T_REC_TAP	110
T_REC_BRK	6
T_REC_XTP	0
T_REC_HLD	12
T_REC_XHO	0
T_REC_STR	10
T_REC_BST	0
T_REC_XST	0
T_REC_TTP	0
T_REC_THO	0
T_REC_SLD	10
T_REC_ALL	148
T_NUM_TAP	120
T_NUM_BRK	6
T_NUM_HLD	12
T_NUM_SLD	10
T_NUM_ALL	148
T_JUDGE_TAP	126
T_JUDGE_HLD	80
T_JUDGE_SLD	10
T_JUDGE_ALL	216
TTM_EACHPAIRS	10
TTM_SCR_TAP	60000
TTM_SCR_BRK	15600
TTM_SCR_HLD	12000
TTM_SCR_SLD	15000
TTM_SCR_ALL	102600
TTM_SCR_S	98950
TTM_SCR_SS	102000
TTM_RAT_ACV	10058

