VERSION	0.00.00	1.03.00
FES_MODE	0
BPM_DEF	174.000	174.000	174.000	174.000
MET_DEF	4	4
RESOLUTION	384
CLK_DEF	384
COMPATIBLE_CODE	MA2

BPM	0	0	174.000
MET	0	0	4	4

STR	1	0	1
SI_	1	0	1	96	48	4
TAP	1	0	4
TAP	1	96	1
TAP	1	96	7
TAP	1	144	7
TAP	1	192	3
STR	1	192	6
SI_	1	192	6	96	48	3
TAP	1	288	0
TAP	1	288	6
TAP	1	336	0
TAP	2	0	0
TAP	2	0	7
TAP	2	48	1
TAP	2	48	6
STR	2	96	0
SI_	2	96	0	96	48	4
STR	2	96	7
SI_	2	96	7	96	48	3
TAP	2	192	0
TAP	2	192	7
TAP	2	288	1
TAP	2	288	6
HLD	3	0	2	96
TAP	3	0	4
TAP	3	96	1
TAP	3	144	0
HLD	3	192	6	96
TAP	3	192	7
TAP	3	288	4
TAP	3	336	3
TAP	4	0	2
TAP	4	0	4
TAP	4	72	3
TAP	4	72	6
TAP	4	144	1
TAP	4	144	5
TAP	4	192	3
STR	4	192	7
SCR	4	192	7	96	48	2
TAP	4	288	5
TAP	4	288	7
TAP	4	336	6
STR	5	0	7
SI_	5	0	7	96	48	4
TAP	5	96	2
TAP	5	96	7
TAP	5	144	1
STR	5	192	0
SI_	5	192	0	96	48	3
TAP	5	240	7
TAP	5	288	0
TAP	5	288	6
TAP	5	336	5
TAP	6	0	4
TAP	6	48	2
TAP	6	72	3
TAP	6	96	2
TAP	6	144	5
TAP	6	168	4
TAP	6	192	5
TAP	6	240	1
TAP	6	264	0
TAP	6	288	1
TAP	6	336	6
TAP	6	360	7
STR	7	0	6
SI_	7	0	6	96	48	2
TAP	7	96	0
TAP	7	96	6
TAP	7	144	1
TAP	7	192	0
STR	7	192	1
SI_	7	192	1	96	48	5
TAP	7	288	1
TAP	7	288	7
TAP	7	336	6
STR	8	0	7
SI_	8	0	7	96	48	3
STR	8	48	0
SI_	8	48	0	96	48	4
TAP	8	96	7
TAP	8	144	0
TAP	8	240	7
TAP	8	288	0
STR	9	0	1
SUR	9	0	1	96	240	3
STR	9	0	5
SUR	9	0	5	96	240	7
HLD	10	48	0	96
HLD	10	48	4	96
BST	10	192	3
SCL	10	192	3	96	48	0
BST	10	192	7
SCL	10	192	7	96	48	4
BRK	10	288	3
BRK	10	288	7
HLD	11	0	0	48
TAP	11	48	7
TAP	11	72	0
TAP	11	120	0
TAP	11	120	1
TAP	11	168	2
TAP	11	168	7
TAP	11	216	5
TAP	11	240	4
TAP	11	264	5
TAP	11	312	2
TAP	11	336	3
TAP	11	360	2
HLD	12	0	4	48
TAP	12	48	3
TAP	12	72	4
TAP	12	120	4
TAP	12	120	5
TAP	12	168	3
TAP	12	168	6
TAP	12	216	1
TAP	12	240	0
TAP	12	264	1
TAP	12	312	6
TAP	12	336	7
TAP	12	360	6
HLD	13	0	0	48
TAP	13	48	7
TAP	13	72	0
TAP	13	120	0
TAP	13	120	1
TAP	13	168	2
TAP	13	168	7
TAP	13	216	5
TAP	13	240	4
TAP	13	264	5
TAP	13	312	2
TAP	13	336	3
TAP	13	360	2
HLD	14	0	4	48
TAP	14	48	3
TAP	14	72	4
TAP	14	120	2
TAP	14	144	2
TAP	14	192	6
TAP	14	216	7
TAP	14	240	6
TAP	14	264	7
TAP	14	312	1
TAP	14	336	0
TAP	14	360	1
HLD	15	0	7	48
TAP	15	48	0
TAP	15	72	7
TAP	15	120	6
TAP	15	120	7
TAP	15	168	0
TAP	15	168	5
TAP	15	216	2
TAP	15	240	3
TAP	15	264	2
TAP	15	312	5
TAP	15	336	4
TAP	15	360	5
HLD	16	0	3	48
TAP	16	48	4
TAP	16	72	3
TAP	16	120	2
TAP	16	120	3
TAP	16	168	1
TAP	16	168	4
TAP	16	216	6
TAP	16	240	7
TAP	16	264	6
TAP	16	312	1
TAP	16	336	0
TAP	16	360	1
HLD	17	0	7	48
TAP	17	48	0
TAP	17	72	7
TAP	17	120	6
TAP	17	120	7
TAP	17	168	0
TAP	17	168	5
TAP	17	216	2
TAP	17	240	3
TAP	17	264	2
TAP	17	312	5
TAP	17	336	4
TAP	17	360	5
HLD	18	0	3	48
TAP	18	48	4
TAP	18	72	3
TAP	18	120	5
TAP	18	144	5
TAP	18	192	0
TAP	18	192	6
TAP	18	264	2
TAP	18	264	7
TAP	18	336	3
TAP	18	336	4
HLD	19	0	2	96
TAP	19	48	0
HLD	19	96	5	96
TAP	19	144	1
HLD	19	192	3	96
TAP	19	240	0
HLD	19	288	4	96
TAP	19	336	1
HLD	20	0	2	96
TAP	20	48	6
HLD	20	96	5	96
TAP	20	144	7
HLD	20	192	3	96
TAP	20	240	6
HLD	20	288	4	96
TAP	20	336	7
TAP	21	0	2
TAP	21	48	6
TAP	21	48	7
TAP	21	96	4
TAP	21	144	0
TAP	21	144	1
TAP	21	192	3
TAP	21	240	0
TAP	21	240	6
TAP	21	288	5
TAP	21	336	1
TAP	21	336	7
TAP	22	0	1
TAP	22	24	0
TAP	22	48	2
TAP	22	72	7
TAP	22	96	3
TAP	22	120	6
TAP	22	144	4
TAP	22	168	5
TAP	22	192	7
TAP	22	216	6
TAP	22	240	0
TAP	22	264	5
TAP	22	288	1
TAP	22	312	4
TAP	22	336	2
TAP	22	360	3
HLD	23	0	2	96
TAP	23	48	4
HLD	23	96	6	96
TAP	23	144	3
HLD	23	192	0	96
TAP	23	240	7
HLD	23	288	7	96
TAP	23	336	0
HLD	24	0	1	96
TAP	24	48	4
HLD	24	96	5	96
TAP	24	144	3
HLD	24	192	2	96
TAP	24	240	6
HLD	24	288	7	96
TAP	24	336	0
TAP	25	0	1
TAP	25	48	0
TAP	25	48	2
TAP	25	96	5
TAP	25	144	4
TAP	25	144	6
TAP	25	192	2
TAP	25	216	1
TAP	25	240	0
TAP	25	264	7
TAP	25	288	6
TAP	25	312	5
STR	25	336	3
SI_	25	336	3	96	48	1
STR	25	336	4
SI_	25	336	4	96	48	1
BST	26	48	3
SI_	26	48	3	96	48	6
BST	26	48	4
SI_	26	48	4	96	48	6
BST	26	144	3
SI_	26	144	3	96	48	7
BST	26	144	4
SI_	26	144	4	96	48	0
BRK	26	240	3
BRK	26	240	4
STR	27	0	1
SV_	27	0	1	96	48	4
TAP	27	0	7
STR	27	72	4
SCL	27	72	4	96	48	0
TAP	27	144	6
TAP	27	240	7
TAP	27	288	0
TAP	27	288	6
TAP	27	336	1
TAP	27	336	5
TAP	28	0	2
STR	28	0	4
SV_	28	0	4	96	48	7
STR	28	72	7
SCL	28	72	7	96	48	3
TAP	28	144	1
TAP	28	240	0
TAP	28	288	1
TAP	28	288	7
TAP	28	336	2
TAP	28	336	6
TAP	29	0	3
HLD	29	0	5	336
TAP	29	96	0
TAP	29	192	6
TAP	29	240	6
TAP	29	288	6
STR	29	336	7
SCR	29	336	7	96	48	2
STR	30	48	7
SCL	30	48	7	96	48	4
STR	30	144	7
SF_	30	144	7	96	48	3
TAP	30	240	7
TAP	31	0	3
STR	31	0	5
SV_	31	0	5	96	48	0
STR	31	72	0
SCL	31	72	0	96	48	4
TAP	31	144	2
TAP	31	240	3
TAP	31	288	2
TAP	31	288	4
TAP	31	336	1
TAP	31	336	5
STR	32	0	0
SV_	32	0	0	96	48	3
TAP	32	0	6
STR	32	72	3
SCL	32	72	3	96	48	7
TAP	32	144	5
TAP	32	240	4
TAP	32	288	3
TAP	32	288	5
TAP	32	336	2
TAP	32	336	6
STR	33	0	1
SI_	33	0	1	96	48	6
STR	33	0	7
SI_	33	0	7	96	48	2
STR	33	96	1
SI_	33	96	1	96	48	4
STR	33	96	7
SI_	33	96	7	96	48	4
TAP	33	192	1
TAP	33	192	7
TAP	33	288	3
TAP	33	288	5
TAP	33	336	1
TAP	33	336	7
TAP	34	48	0
TAP	34	48	5
TAP	34	96	1
TAP	34	96	4
STR	34	144	2
SCL	34	144	2	96	48	6
STR	34	144	3
SUL	34	144	3	96	48	5
BRK	34	240	2
BRK	34	240	3
TAP	35	0	3
STR	35	0	4
SCL	35	0	4	96	48	1
TAP	35	96	4
TAP	35	96	5
TAP	35	144	6
TAP	35	192	6
STR	35	192	7
SCL	35	192	7	96	48	4
TAP	35	288	0
TAP	35	288	7
TAP	35	336	1
TAP	36	0	2
TAP	36	0	4
TAP	36	72	3
TAP	36	72	6
TAP	36	144	0
STR	36	144	1
SI_	36	144	1	96	48	5
STR	36	192	5
SI_	36	192	5	96	48	1
TAP	36	288	7
TAP	36	336	7
STR	37	0	7
SCL	37	0	7	96	48	4
TAP	37	96	0
TAP	37	144	0
STR	37	192	1
SCL	37	192	1	96	48	6
TAP	37	240	2
TAP	37	288	2
TAP	37	336	3
TAP	38	0	2
TAP	38	0	4
TAP	38	48	3
TAP	38	72	4
TAP	38	96	3
TAP	38	144	5
TAP	38	168	2
TAP	38	192	5
TAP	38	240	1
TAP	38	264	6
TAP	38	288	1
TAP	38	336	7
TAP	38	360	0
STR	39	0	7
SCR	39	0	7	96	48	2
TAP	39	96	6
TAP	39	96	7
TAP	39	144	5
STR	39	192	3
SCR	39	192	3	96	48	6
TAP	39	192	4
TAP	39	288	2
TAP	39	288	3
TAP	39	336	1
STR	40	0	1
SI_	40	0	1	96	48	5
STR	40	48	0
SI_	40	48	0	96	48	4
TAP	40	96	1
TAP	40	144	0
TAP	40	240	7
STR	40	288	0
SCR	40	288	0	96	48	3
STR	40	336	7
SCL	40	336	7	96	48	4
STR	41	0	0
SI_	41	0	0	96	48	4
STR	41	48	7
SI_	41	48	7	96	48	3
STR	41	96	0
SI_	41	96	0	96	48	5
STR	41	144	7
SI_	41	144	7	96	48	2
STR	41	192	0
SI_	41	192	0	96	48	3
STR	41	240	7
SCL	41	240	7	96	144	0
TAP	41	288	0
TAP	41	336	7
TAP	42	96	7
STR	42	192	0
SI_	42	192	0	96	48	5
STR	42	192	7
SI_	42	192	7	96	48	2
TAP	42	288	0
TAP	42	288	7
STR	43	0	3
SCR	43	0	3	96	48	6
TAP	43	0	4
TAP	43	96	2
TAP	43	96	3
TAP	43	144	1
STR	43	192	0
SCR	43	192	0	96	48	3
TAP	43	192	1
TAP	43	288	0
TAP	43	288	7
TAP	43	336	6
TAP	44	0	3
TAP	44	0	5
TAP	44	72	1
TAP	44	72	4
STR	44	144	6
SI_	44	144	6	96	48	2
TAP	44	144	7
STR	44	192	2
SI_	44	192	2	96	48	6
TAP	44	288	0
TAP	44	336	0
STR	45	0	0
SCR	45	0	0	96	48	3
TAP	45	96	7
TAP	45	144	7
STR	45	192	6
SCR	45	192	6	96	48	1
TAP	45	240	5
TAP	45	288	5
TAP	45	336	4
TAP	46	0	3
TAP	46	0	5
TAP	46	48	4
TAP	46	72	3
TAP	46	96	4
TAP	46	144	2
TAP	46	168	5
TAP	46	192	2
TAP	46	240	6
TAP	46	264	1
TAP	46	288	6
TAP	46	336	0
TAP	46	360	7
STR	47	0	0
SCL	47	0	0	96	48	5
TAP	47	96	0
TAP	47	96	1
TAP	47	144	2
TAP	47	192	3
STR	47	192	4
SCL	47	192	4	96	48	1
TAP	47	288	4
TAP	47	288	5
TAP	47	336	6
STR	48	0	6
SI_	48	0	6	96	48	2
STR	48	48	7
SI_	48	48	7	96	48	3
TAP	48	96	6
TAP	48	144	7
TAP	48	240	0
STR	48	288	7
SCL	48	288	7	96	48	4
STR	48	336	0
SCR	48	336	0	96	48	3
STR	49	0	7
SI_	49	0	7	96	48	3
STR	49	48	0
SI_	49	48	0	96	48	4
STR	49	96	7
SI_	49	96	7	96	48	2
STR	49	144	0
SI_	49	144	0	96	48	5
STR	49	192	7
SI_	49	192	7	96	48	4
STR	49	240	0
SCR	49	240	0	96	144	7
TAP	49	288	7
TAP	49	336	0
TAP	50	96	0
STR	50	192	3
SI_	50	192	3	96	48	7
STR	50	192	6
SI_	50	192	6	96	48	4
TAP	50	288	3
TAP	50	288	6
HLD	51	0	0	144
TAP	51	0	3
TAP	51	72	4
TAP	51	144	3
HLD	51	192	0	144
TAP	51	240	7
TAP	51	288	6
TAP	51	336	7
HLD	52	0	0	144
TAP	52	0	3
TAP	52	72	4
TAP	52	144	3
HLD	52	192	0	144
TAP	52	240	7
TAP	52	288	6
TAP	52	336	7
HLD	53	0	0	144
TAP	53	0	3
TAP	53	72	4
TAP	53	144	3
HLD	53	192	0	144
TAP	53	240	7
TAP	53	288	6
TAP	53	336	7
TAP	54	0	0
STR	54	0	6
SI_	54	0	6	96	48	3
TAP	54	96	0
TAP	54	96	6
BST	54	192	0
SCR	54	192	0	96	48	3
STR	54	192	4
SI_	54	192	4	96	48	6
BRK	54	288	0
TAP	54	288	4
TAP	55	0	4
HLD	55	0	7	144
TAP	55	72	3
TAP	55	144	4
HLD	55	192	7	144
TAP	55	240	0
TAP	55	288	1
TAP	55	336	0
TAP	56	0	4
HLD	56	0	7	144
TAP	56	72	3
TAP	56	144	4
HLD	56	192	7	144
TAP	56	240	0
TAP	56	288	1
TAP	56	336	0
TAP	57	0	4
HLD	57	0	7	144
TAP	57	72	3
TAP	57	144	4
HLD	57	192	7	144
TAP	57	240	0
TAP	57	288	1
TAP	57	336	0
STR	58	0	1
SI_	58	0	1	96	48	4
TAP	58	0	7
TAP	58	96	1
TAP	58	96	7
STR	58	192	3
SI_	58	192	3	96	48	1
BST	58	192	7
SCL	58	192	7	96	48	4
TAP	58	288	3
BRK	58	288	7
HLD	59	0	0	192
TAP	59	96	1
HLD	59	192	7	192
TAP	59	288	6
HLD	60	0	2	192
TAP	60	96	3
HLD	60	192	5	192
TAP	60	288	4
HLD	61	0	3	96
TAP	61	96	4
TAP	61	144	3
TAP	61	168	4
TAP	61	192	2
TAP	61	216	5
TAP	61	240	2
TAP	61	264	5
TAP	61	288	1
TAP	61	312	6
TAP	61	336	1
TAP	61	360	6
TAP	62	0	0
TAP	62	24	1
TAP	62	48	2
TAP	62	72	3
TAP	62	96	4
TAP	62	96	7
TAP	62	120	6
TAP	62	144	5
TAP	62	168	4
TAP	62	192	0
TAP	62	192	3
TAP	62	204	1
TAP	62	216	2
TAP	62	228	3
TAP	62	240	4
TAP	62	252	5
TAP	62	264	6
TAP	62	276	7
TAP	62	288	0
TAP	62	300	1
TAP	62	312	2
TAP	62	324	3
TAP	62	336	4
TAP	62	348	5
TAP	62	360	6
TAP	62	372	7
TAP	63	0	0
HLD	63	0	4	384
TAP	63	192	5
HLD	64	0	3	384
TAP	64	192	2
HLD	65	0	5	384
TAP	65	192	6
HLD	66	0	2	384
TAP	66	192	1
TAP	67	0	4
TAP	67	48	4
TAP	67	96	3
TAP	67	96	5
TAP	67	144	3
TAP	67	192	2
TAP	67	192	4
TAP	67	240	5
TAP	67	288	3
TAP	67	288	5
TAP	67	336	2
TAP	68	0	2
TAP	68	0	4
TAP	68	48	1
TAP	68	48	4
TAP	68	96	3
TAP	68	96	5
TAP	68	144	3
TAP	68	144	6
TAP	68	192	1
TAP	68	192	5
TAP	68	240	0
TAP	68	240	5
TAP	68	288	2
TAP	68	288	6
TAP	68	336	2
TAP	68	336	7
STR	69	0	0
SI_	69	0	0	96	48	5
STR	69	0	6
SI_	69	0	6	96	48	1
STR	69	96	0
SI_	69	96	0	96	48	3
STR	69	96	6
SI_	69	96	6	96	48	3
TAP	69	192	0
TAP	69	192	6
TAP	69	288	2
TAP	69	288	4
TAP	69	336	0
TAP	69	336	6
TAP	70	48	2
TAP	70	48	7
TAP	70	96	3
TAP	70	96	6
STR	70	144	4
SUR	70	144	4	96	72	2
STR	70	144	5
SCR	70	144	5	96	72	1
BRK	70	240	4
BRK	70	240	5
TAP	71	0	0
STR	71	0	7
SCR	71	0	7	96	48	2
TAP	71	96	6
TAP	71	96	7
TAP	71	144	5
STR	71	192	4
SCR	71	192	4	96	48	7
TAP	71	192	5
TAP	71	288	3
TAP	71	288	4
TAP	71	336	2
TAP	72	0	1
TAP	72	0	7
TAP	72	72	0
TAP	72	72	5
STR	72	144	2
SI_	72	144	2	96	48	6
TAP	72	144	3
STR	72	192	6
SI_	72	192	6	96	48	2
TAP	72	288	4
TAP	72	336	4
STR	73	0	4
SCR	73	0	4	96	48	7
TAP	73	96	3
TAP	73	144	3
STR	73	192	2
SCR	73	192	2	96	48	5
TAP	73	240	1
TAP	73	288	1
TAP	73	336	0
TAP	74	0	1
TAP	74	0	7
TAP	74	48	0
TAP	74	72	7
TAP	74	96	0
TAP	74	144	6
TAP	74	168	1
TAP	74	192	6
TAP	74	240	2
TAP	74	264	5
TAP	74	288	2
TAP	74	336	4
TAP	74	360	3
STR	75	0	4
SCL	75	0	4	96	48	1
TAP	75	96	4
TAP	75	96	5
TAP	75	144	6
STR	75	192	0
SCL	75	192	0	96	48	5
TAP	75	192	7
TAP	75	288	0
TAP	75	288	1
TAP	75	336	2
TAP	76	0	1
TAP	76	0	5
STR	76	48	0
SCR	76	48	0	96	48	3
STR	76	48	4
SCR	76	48	4	96	48	7
TAP	76	96	3
TAP	76	96	7
TAP	76	144	0
TAP	76	144	4
TAP	76	240	0
STR	76	288	7
SCL	76	288	7	96	48	4
STR	76	336	0
SCR	76	336	0	96	48	3
STR	77	0	7
SI_	77	0	7	96	48	3
STR	77	48	0
SI_	77	48	0	96	48	4
STR	77	96	7
SI_	77	96	7	96	48	2
STR	77	144	0
SI_	77	144	0	96	48	5
STR	77	192	7
SI_	77	192	7	96	48	4
STR	77	240	0
SCR	77	240	0	96	144	7
TAP	77	288	7
TAP	77	336	0
TAP	78	96	0
STR	78	192	1
SI_	78	192	1	96	48	4
STR	78	192	5
SI_	78	192	5	96	48	0
TAP	78	288	1
TAP	78	288	5
STR	79	0	0
SCL	79	0	0	96	48	5
TAP	79	0	7
TAP	79	96	0
TAP	79	96	1
TAP	79	144	2
TAP	79	192	2
STR	79	192	3
SCL	79	192	3	96	48	0
TAP	79	288	3
TAP	79	288	4
TAP	79	336	5
TAP	80	0	0
TAP	80	0	6
TAP	80	72	2
TAP	80	72	7
TAP	80	144	4
STR	80	144	5
SI_	80	144	5	96	48	1
STR	80	192	1
SI_	80	192	1	96	48	5
TAP	80	288	3
TAP	80	336	3
STR	81	0	3
SCL	81	0	3	96	48	0
TAP	81	96	4
TAP	81	144	4
STR	81	192	5
SCL	81	192	5	96	48	2
TAP	81	240	6
TAP	81	288	6
TAP	81	336	7
TAP	82	0	0
TAP	82	0	6
TAP	82	48	7
TAP	82	72	0
TAP	82	96	7
TAP	82	144	1
TAP	82	168	6
TAP	82	192	1
TAP	82	240	5
TAP	82	264	2
TAP	82	288	5
TAP	82	336	3
TAP	82	360	4
STR	83	0	3
SCR	83	0	3	96	48	6
TAP	83	96	2
TAP	83	96	3
TAP	83	144	1
TAP	83	192	0
STR	83	192	7
SCR	83	192	7	96	48	2
TAP	83	288	6
TAP	83	288	7
TAP	83	336	5
TAP	84	0	2
TAP	84	0	6
STR	84	48	3
SCL	84	48	3	96	48	0
STR	84	48	7
SCL	84	48	7	96	48	4
TAP	84	96	0
TAP	84	96	4
TAP	84	144	3
TAP	84	144	7
TAP	84	240	6
TAP	84	240	7
TAP	84	288	6
TAP	84	288	7
BRK	85	0	1
BRK	85	0	7
BRK	85	48	2
BRK	85	48	3
BRK	85	96	0
BRK	85	96	6
BRK	85	144	4
BRK	85	144	5
BRK	85	192	0
BRK	85	192	7
BST	85	240	3
SCL	85	240	3	96	144	4
BST	85	240	4
SCR	85	240	4	96	144	3
BRK	85	288	0
BRK	85	288	7
BRK	85	336	3
BRK	85	336	4
BST	86	192	1
SI_	86	192	1	96	48	3
BST	86	192	4
SI_	86	192	4	96	48	0
BRK	86	288	1
BRK	86	288	4
TAP	87	0	4
HLD	87	0	7	144
TAP	87	72	3
TAP	87	144	4
HLD	87	192	7	144
TAP	87	240	0
TAP	87	288	1
TAP	87	336	0
TAP	88	0	4
HLD	88	0	7	144
TAP	88	72	3
TAP	88	144	4
HLD	88	192	7	144
TAP	88	240	0
TAP	88	288	1
TAP	88	336	0
TAP	89	0	4
HLD	89	0	7	144
TAP	89	72	3
TAP	89	144	4
HLD	89	192	7	144
TAP	89	240	0
TAP	89	288	1
TAP	89	336	0
STR	90	0	1
SI_	90	0	1	96	48	4
TAP	90	0	7
TAP	90	96	1
TAP	90	96	7
STR	90	192	3
SI_	90	192	3	96	48	1
BST	90	192	7
SCL	90	192	7	96	48	4
TAP	90	288	3
BRK	90	288	7
HLD	91	0	0	144
TAP	91	0	3
TAP	91	72	4
TAP	91	144	3
HLD	91	192	0	144
TAP	91	240	7
TAP	91	288	6
TAP	91	336	7
HLD	92	0	0	144
TAP	92	0	3
TAP	92	72	4
TAP	92	144	3
HLD	92	192	0	144
TAP	92	240	7
TAP	92	288	6
TAP	92	336	7
HLD	93	0	0	144
TAP	93	0	3
TAP	93	72	4
TAP	93	144	3
HLD	93	192	0	144
TAP	93	240	7
TAP	93	288	6
TAP	93	336	7
TAP	94	0	0
STR	94	0	6
SI_	94	0	6	96	48	3
TAP	94	96	0
TAP	94	96	6
BST	94	192	0
SCR	94	192	0	96	48	3
STR	94	192	4
SI_	94	192	4	96	48	6
BRK	94	288	0
TAP	94	288	4
TAP	95	0	7
TAP	95	48	1
TAP	95	72	0
TAP	95	96	1
TAP	95	144	6
TAP	95	168	7
TAP	95	192	6
TAP	95	240	6
TAP	95	288	1
TAP	95	336	1
TAP	96	0	5
TAP	96	24	4
TAP	96	48	5
TAP	96	72	4
TAP	96	96	5
TAP	96	120	3
TAP	96	120	6
TAP	96	168	2
TAP	96	192	3
TAP	96	216	2
TAP	96	240	3
TAP	96	264	2
TAP	96	312	5
TAP	96	336	4
TAP	96	360	5
TAP	97	0	3
TAP	97	24	4
TAP	97	48	3
TAP	97	72	4
TAP	97	96	3
HLD	97	120	5	48
TAP	97	168	3
TAP	97	192	4
TAP	97	216	2
TAP	97	240	5
TAP	97	264	1
HLD	97	288	5	48
TAP	97	336	0
TAP	97	360	6
TAP	98	0	1
TAP	98	24	5
TAP	98	48	1
TAP	98	72	5
TAP	98	96	2
TAP	98	120	4
TAP	98	144	2
TAP	98	168	4
BRK	98	192	3
BRK	98	216	3
BRK	98	240	3
BRK	98	264	3
BRK	98	288	3
TAP	98	336	3
TAP	98	360	4
TAP	99	0	2
TAP	99	48	4
TAP	99	72	3
TAP	99	72	5
TAP	99	120	1
TAP	99	120	4
TAP	99	168	2
TAP	99	168	7
TAP	99	216	5
TAP	99	240	4
TAP	99	264	5
TAP	99	312	2
TAP	99	336	3
TAP	99	360	2
TAP	100	0	5
TAP	100	48	3
TAP	100	72	2
TAP	100	72	4
TAP	100	120	3
TAP	100	120	6
TAP	100	168	0
TAP	100	168	5
TAP	100	216	2
TAP	100	240	3
TAP	100	264	2
TAP	100	312	5
TAP	100	336	4
TAP	100	360	5
TAP	101	0	2
TAP	101	48	4
TAP	101	72	3
TAP	101	72	5
TAP	101	120	1
TAP	101	120	4
TAP	101	168	2
TAP	101	168	7
TAP	101	216	5
TAP	101	240	4
TAP	101	264	5
TAP	101	312	2
TAP	101	336	3
TAP	101	360	2
TAP	102	0	5
TAP	102	24	4
TAP	102	48	5
TAP	102	72	4
TAP	102	96	6
TAP	102	120	3
TAP	102	144	6
TAP	102	168	3
TAP	102	192	5
TAP	102	216	4
TAP	102	240	3
TAP	102	264	2
STR	102	288	1
SI_	102	288	1	96	48	5
TAP	102	312	0
TAP	102	336	7
TAP	102	360	6
BRK	103	0	1
BRK	103	0	5

T_REC_TAP	728
T_REC_BRK	35
T_REC_XTP	0
T_REC_HLD	64
T_REC_XHO	0
T_REC_STR	117
T_REC_BST	14
T_REC_XST	0
T_REC_TTP	0
T_REC_THO	0
T_REC_SLD	131
T_REC_ALL	1089
T_NUM_TAP	845
T_NUM_BRK	49
T_NUM_HLD	64
T_NUM_SLD	131
T_NUM_ALL	1089
T_JUDGE_TAP	894
T_JUDGE_HLD	179
T_JUDGE_SLD	131
T_JUDGE_ALL	1204
TTM_EACHPAIRS	204
TTM_SCR_TAP	422500
TTM_SCR_BRK	127400
TTM_SCR_HLD	64000
TTM_SCR_SLD	196500
TTM_SCR_ALL	810400
TTM_SCR_S	781350
TTM_SCR_SS	805500
TTM_RAT_ACV	10060

