VERSION	0.00.00	1.03.00
FES_MODE	0
BPM_DEF	174.000	174.000	174.000	174.000
MET_DEF	4	4
RESOLUTION	384
CLK_DEF	384
COMPATIBLE_CODE	MA2

BPM	0	0	174.000

STR	1	0	6
SI_	1	0	6	96	48	2
TAP	1	48	6
STR	1	192	1
SI_	1	192	1	96	48	5
TAP	1	240	1
STR	2	0	7
SI_	2	0	7	96	48	3
STR	2	96	2
SCL	2	96	2	96	120	5
TAP	3	0	6
TAP	3	48	4
TAP	3	96	5
TAP	3	144	5
TAP	3	192	1
TAP	3	240	3
TAP	3	288	2
TAP	3	336	2
STR	4	0	6
SI_	4	0	6	96	48	3
STR	4	96	2
SI_	4	96	2	96	48	7
TAP	4	192	6
TAP	4	288	3
TAP	4	288	5
TAP	4	336	2
TAP	4	336	6
STR	5	0	1
SI_	5	0	1	96	48	5
STR	5	0	7
SI_	5	0	7	96	48	3
STR	5	192	0
SI_	5	192	0	96	48	4
STR	5	192	6
SI_	5	192	6	96	48	2
TAP	6	0	3
TAP	6	48	3
TAP	6	96	5
TAP	6	144	5
TAP	6	192	1
TAP	6	240	1
TAP	6	288	0
TAP	6	288	7
STR	7	0	3
SI_	7	0	3	96	48	1
STR	7	0	4
SI_	7	0	4	96	48	0
STR	7	192	3
SI_	7	192	3	96	48	7
STR	7	192	4
SI_	7	192	4	96	48	6
TAP	8	0	0
TAP	8	48	7
TAP	8	96	0
TAP	8	144	1
TAP	8	144	6
TAP	8	240	0
TAP	8	240	7
BST	8	288	0
SXL	8	288	0	96	384	3
BST	8	288	7
SXR	8	288	7	96	384	4
TAP	10	48	1
TAP	10	48	6
TAP	10	144	3
TAP	10	144	4
STR	10	192	3
SI_	10	192	3	96	48	0
STR	10	192	4
SI_	10	192	4	96	48	7
TAP	11	0	1
TAP	11	48	0
TAP	11	96	2
TAP	11	96	7
TAP	11	192	6
TAP	11	240	7
TAP	11	288	0
TAP	11	288	5
TAP	12	0	2
TAP	12	48	2
TAP	12	96	3
TAP	12	144	1
TAP	12	192	7
TAP	12	240	7
TAP	12	288	0
TAP	12	288	6
TAP	13	0	5
TAP	13	48	4
TAP	13	96	3
TAP	13	96	6
TAP	13	192	2
TAP	13	240	3
TAP	13	288	1
TAP	13	288	4
STR	14	0	6
SI_	14	0	6	96	48	2
TAP	14	0	7
TAP	14	192	0
STR	14	192	1
SI_	14	192	1	96	48	5
TAP	15	0	6
TAP	15	48	7
TAP	15	96	0
TAP	15	96	5
TAP	15	192	1
TAP	15	240	0
TAP	15	288	2
TAP	15	288	7
TAP	16	0	5
TAP	16	48	5
TAP	16	96	4
TAP	16	144	6
TAP	16	192	0
TAP	16	240	0
TAP	16	288	1
TAP	16	288	7
TAP	17	0	2
TAP	17	48	3
TAP	17	96	1
TAP	17	96	4
TAP	17	192	5
TAP	17	240	4
TAP	17	288	3
TAP	17	288	6
STR	18	0	1
SI_	18	0	1	96	48	4
STR	18	0	6
SI_	18	0	6	96	48	3
TAP	18	192	0
TAP	18	192	7
TAP	18	264	1
TAP	18	264	6
TAP	18	336	2
TAP	18	336	5
HLD	19	0	2	96
HLD	19	96	3	96
TAP	19	192	2
TAP	19	240	1
TAP	19	288	0
TAP	19	336	6
TAP	19	336	7
TAP	20	48	4
TAP	20	48	5
TAP	20	96	3
TAP	20	96	6
TAP	20	144	2
TAP	20	144	7
TAP	20	240	0
STR	20	288	0
SI_	20	288	0	96	48	4
TAP	21	0	7
TAP	21	96	6
TAP	21	144	6
TAP	21	192	2
TAP	21	240	2
TAP	21	288	4
STR	21	336	4
SCL	21	336	4	96	192	5
TAP	22	288	0
TAP	22	288	7
HLD	23	0	5	96
HLD	23	96	4	96
TAP	23	192	5
TAP	23	240	6
TAP	23	288	7
TAP	23	336	0
TAP	23	336	1
TAP	24	48	2
TAP	24	48	3
TAP	24	96	1
TAP	24	96	4
TAP	24	144	0
TAP	24	144	5
TAP	24	240	7
STR	24	288	7
SI_	24	288	7	96	48	3
TAP	25	0	0
TAP	25	96	1
TAP	25	144	1
TAP	25	192	5
TAP	25	240	5
TAP	25	288	3
STR	25	336	3
SI_	25	336	3	96	48	0
STR	26	48	4
SI_	26	48	4	96	48	7
STR	26	144	3
SI_	26	144	3	96	48	0
BRK	26	240	7
HLD	27	0	1	96
TAP	27	96	0
TAP	27	192	5
TAP	27	240	4
TAP	27	288	3
TAP	27	288	6
HLD	28	0	6	96
TAP	28	96	7
TAP	28	192	2
TAP	28	240	3
TAP	28	288	1
TAP	28	288	4
TAP	29	0	0
TAP	29	0	7
TAP	29	96	3
TAP	29	96	4
TAP	29	192	1
TAP	29	192	6
TAP	29	240	1
TAP	29	240	6
TAP	29	336	0
TAP	29	336	2
TAP	30	48	6
TAP	30	48	7
TAP	30	144	0
TAP	30	144	1
TAP	30	240	5
TAP	30	240	7
HLD	31	0	6	96
TAP	31	96	7
TAP	31	192	2
TAP	31	240	3
TAP	31	288	1
TAP	31	288	4
HLD	32	0	1	96
TAP	32	96	0
TAP	32	192	5
TAP	32	240	4
TAP	32	288	3
TAP	32	288	6
HLD	33	0	0	96
HLD	33	0	7	96
HLD	33	192	1	96
HLD	33	192	6	96
STR	33	336	1
SLR	33	336	1	96	120	0
STR	33	336	6
SLL	33	336	6	96	120	7
BRK	34	240	1
BRK	34	240	6
HLD	35	0	4	96
STR	35	0	6
SCR	35	0	6	96	48	1
STR	35	192	2
SCL	35	192	2	96	48	7
HLD	35	192	3	96
STR	36	0	6
SI_	36	0	6	96	48	3
TAP	36	0	7
STR	36	96	2
SI_	36	96	2	96	48	7
TAP	36	192	5
TAP	36	288	2
TAP	36	288	7
TAP	37	0	1
TAP	37	48	0
TAP	37	96	2
TAP	37	96	7
TAP	37	192	6
TAP	37	240	7
TAP	37	288	0
TAP	37	288	5
HLD	38	0	0	48
HLD	38	0	1	48
HLD	38	96	2	48
HLD	38	96	3	48
HLD	38	192	4	48
HLD	38	192	5	48
HLD	38	288	6	48
HLD	38	288	7	48
HLD	39	0	0	96
STR	39	0	1
SI_	39	0	1	96	48	5
STR	39	192	6
SI_	39	192	6	96	48	2
HLD	39	192	7	96
TAP	40	0	0
TAP	40	48	1
TAP	40	96	2
TAP	40	144	3
TAP	40	144	7
TAP	40	240	0
TAP	40	288	0
STR	41	0	6
SCL	41	0	6	96	48	4
STR	41	0	7
SI_	41	0	7	96	48	3
STR	41	192	3
SCL	41	192	3	96	48	1
STR	41	192	4
SI_	41	192	4	96	48	0
TAP	42	0	7
TAP	42	48	0
TAP	42	96	7
TAP	42	144	0
TAP	42	192	7
TAP	42	288	3
TAP	42	288	4
STR	43	0	1
SCL	43	0	1	96	48	6
HLD	43	0	3	96
HLD	43	192	4	96
STR	43	192	5
SCR	43	192	5	96	48	0
TAP	44	0	0
STR	44	0	1
SI_	44	0	1	96	48	4
STR	44	96	5
SI_	44	96	5	96	48	0
TAP	44	192	2
TAP	44	288	0
TAP	44	288	5
TAP	45	0	6
TAP	45	48	7
TAP	45	96	0
TAP	45	96	5
TAP	45	192	1
TAP	45	240	0
TAP	45	288	2
TAP	45	288	7
HLD	46	0	6	48
HLD	46	0	7	48
HLD	46	96	4	48
HLD	46	96	5	48
HLD	46	192	2	48
HLD	46	192	3	48
HLD	46	288	0	48
HLD	46	288	1	48
STR	47	0	6
SI_	47	0	6	96	48	2
HLD	47	0	7	96
HLD	47	192	0	96
STR	47	192	1
SI_	47	192	1	96	48	5
TAP	48	0	7
TAP	48	48	6
TAP	48	96	5
TAP	48	144	0
TAP	48	144	4
TAP	48	240	7
TAP	48	288	7
STR	49	0	0
SI_	49	0	0	96	48	5
STR	49	0	1
SI_	49	0	1	96	48	5
STR	49	192	6
SI_	49	192	6	96	48	2
STR	49	192	7
SI_	49	192	7	96	48	2
TAP	50	0	0
TAP	50	48	7
TAP	50	96	0
TAP	50	144	7
BST	50	192	0
SI_	50	192	0	96	48	4
BRK	50	288	7
HLD	51	0	6	48
HLD	51	0	7	48
HLD	51	72	6	48
HLD	51	72	7	48
TAP	51	144	6
TAP	51	144	7
TAP	51	240	5
TAP	51	288	6
TAP	51	336	7
HLD	52	0	0	48
HLD	52	0	1	48
HLD	52	72	0	48
HLD	52	72	1	48
TAP	52	144	0
TAP	52	144	1
TAP	52	240	2
TAP	52	288	1
TAP	52	336	0
HLD	53	0	6	48
HLD	53	0	7	48
HLD	53	72	6	48
HLD	53	72	7	48
TAP	53	144	6
TAP	53	144	7
TAP	53	240	5
TAP	53	288	4
TAP	53	336	3
STR	54	0	2
SCR	54	0	2	96	48	5
STR	54	0	6
SCR	54	0	6	96	48	1
STR	54	192	6
SI_	54	192	6	96	48	2
HLD	55	0	0	48
HLD	55	0	1	48
HLD	55	72	0	48
HLD	55	72	1	48
TAP	55	144	0
TAP	55	144	1
TAP	55	240	2
TAP	55	288	1
TAP	55	336	0
HLD	56	0	6	48
HLD	56	0	7	48
HLD	56	72	6	48
HLD	56	72	7	48
TAP	56	144	6
TAP	56	144	7
TAP	56	240	5
TAP	56	288	6
TAP	56	336	7
HLD	57	0	0	48
HLD	57	0	1	48
HLD	57	72	0	48
HLD	57	72	1	48
TAP	57	144	0
TAP	57	144	1
TAP	57	240	2
TAP	57	288	3
TAP	57	336	4
HLD	58	0	1	96
HLD	58	0	5	96
STR	58	192	3
SCL	58	192	3	96	48	0
STR	58	192	7
SCL	58	192	7	96	48	4
TAP	59	0	0
TAP	59	0	4
TAP	59	96	1
TAP	59	192	2
TAP	59	192	6
TAP	59	288	3
TAP	60	0	0
TAP	60	0	4
TAP	60	96	5
TAP	60	192	2
TAP	60	192	6
TAP	60	288	7
TAP	61	0	0
TAP	61	0	4
TAP	61	96	1
TAP	61	192	2
TAP	61	192	6
TAP	61	288	3
TAP	62	0	0
TAP	62	0	4
TAP	62	96	1
TAP	62	96	5
TAP	62	192	2
TAP	62	192	6
TAP	62	288	3
TAP	62	288	7
HLD	63	0	5	192
TAP	63	192	4
TAP	63	288	3
TAP	63	288	4
HLD	64	0	2	192
TAP	64	192	3
TAP	64	288	3
TAP	64	288	4
TAP	65	0	5
TAP	65	96	2
TAP	65	192	3
TAP	65	192	4
TAP	65	240	3
TAP	65	240	4
TAP	65	336	4
TAP	65	336	5
TAP	66	48	2
TAP	66	48	3
TAP	66	144	4
TAP	66	144	6
TAP	66	240	1
TAP	66	240	3
TAP	67	0	5
TAP	67	96	4
TAP	67	96	6
TAP	67	192	1
TAP	67	240	2
TAP	67	288	3
TAP	67	288	4
TAP	68	0	2
TAP	68	96	1
TAP	68	96	3
TAP	68	192	6
TAP	68	240	5
TAP	68	288	3
TAP	68	288	4
HLD	69	0	2	96
HLD	69	0	5	96
HLD	69	192	1	96
HLD	69	192	6	96
TAP	69	336	1
TAP	69	336	6
TAP	70	48	0
TAP	70	48	7
TAP	70	96	1
TAP	70	96	6
TAP	70	144	2
TAP	70	144	5
BRK	70	240	0
BRK	70	240	7
STR	71	0	0
SCL	71	0	0	96	48	5
HLD	71	0	1	96
HLD	71	192	6	96
STR	71	192	7
SCR	71	192	7	96	48	2
STR	72	0	0
SI_	72	0	0	96	48	5
TAP	72	0	1
STR	72	96	2
SI_	72	96	2	96	48	7
TAP	72	192	6
TAP	72	288	0
TAP	72	288	5
TAP	73	0	1
TAP	73	48	0
TAP	73	96	2
TAP	73	96	7
TAP	73	192	6
TAP	73	240	7
TAP	73	288	0
TAP	73	288	5
HLD	74	0	0	48
HLD	74	0	1	48
HLD	74	96	2	48
HLD	74	96	3	48
HLD	74	192	4	48
HLD	74	192	5	48
HLD	74	288	6	48
HLD	74	288	7	48
HLD	75	0	0	96
STR	75	0	1
SI_	75	0	1	96	48	5
STR	75	192	6
SI_	75	192	6	96	48	2
HLD	75	192	7	96
TAP	76	0	0
TAP	76	48	7
TAP	76	96	6
TAP	76	144	1
TAP	76	144	5
TAP	76	240	7
TAP	76	288	7
STR	77	0	0
SI_	77	0	0	96	48	4
STR	77	0	1
SCR	77	0	1	96	48	3
STR	77	192	3
SI_	77	192	3	96	48	7
STR	77	192	4
SCR	77	192	4	96	48	6
TAP	78	0	0
TAP	78	48	7
TAP	78	96	0
TAP	78	144	7
TAP	78	192	0
TAP	78	288	3
TAP	78	288	4
HLD	79	0	6	96
STR	79	0	7
SCR	79	0	7	96	48	2
STR	79	192	0
SCL	79	192	0	96	48	5
HLD	79	192	1	96
TAP	80	0	6
STR	80	0	7
SI_	80	0	7	96	48	2
STR	80	96	5
SI_	80	96	5	96	48	0
TAP	80	192	1
TAP	80	288	2
TAP	80	288	7
TAP	81	0	6
TAP	81	48	7
TAP	81	96	0
TAP	81	96	5
TAP	81	192	1
TAP	81	240	0
TAP	81	288	2
TAP	81	288	7
HLD	82	0	6	48
HLD	82	0	7	48
HLD	82	96	4	48
HLD	82	96	5	48
HLD	82	192	2	48
HLD	82	192	3	48
HLD	82	288	0	48
HLD	82	288	1	48
STR	83	0	6
SI_	83	0	6	96	48	2
HLD	83	0	7	96
HLD	83	192	0	96
STR	83	192	1
SI_	83	192	1	96	48	5
TAP	84	0	7
TAP	84	48	0
TAP	84	96	1
TAP	84	144	2
TAP	84	144	6
TAP	84	240	0
TAP	84	288	0
TAP	85	0	3
TAP	85	0	7
TAP	85	48	3
TAP	85	48	7
TAP	85	96	2
TAP	85	96	6
TAP	85	144	2
TAP	85	144	6
TAP	85	192	1
TAP	85	192	5
TAP	85	240	1
TAP	85	240	5
TAP	85	288	0
TAP	85	288	4
TAP	85	336	0
TAP	85	336	4
TAP	86	48	2
TAP	86	48	6
STR	86	96	2
SI_	86	96	2	96	48	7
STR	86	96	6
SI_	86	96	6	96	48	3
BRK	86	288	1
BRK	86	288	5
HLD	87	0	6	48
HLD	87	0	7	48
HLD	87	72	6	48
HLD	87	72	7	48
TAP	87	144	6
TAP	87	144	7
TAP	87	240	4
TAP	87	240	5
TAP	87	288	3
TAP	87	288	6
TAP	87	336	2
TAP	87	336	7
HLD	88	0	0	48
HLD	88	0	1	48
HLD	88	72	0	48
HLD	88	72	1	48
TAP	88	144	0
TAP	88	144	1
TAP	88	240	2
TAP	88	240	3
TAP	88	288	1
TAP	88	288	4
TAP	88	336	0
TAP	88	336	5
HLD	89	0	6	48
HLD	89	0	7	48
HLD	89	72	6	48
HLD	89	72	7	48
TAP	89	144	6
TAP	89	144	7
TAP	89	240	4
TAP	89	240	5
TAP	89	288	3
TAP	89	288	6
TAP	89	336	2
TAP	89	336	7
STR	90	0	0
SI_	90	0	0	96	48	6
STR	90	0	1
SI_	90	0	1	96	48	5
STR	90	192	5
SI_	90	192	5	96	48	3
STR	90	192	6
SI_	90	192	6	96	48	2
HLD	91	0	0	48
HLD	91	0	1	48
HLD	91	72	0	48
HLD	91	72	1	48
TAP	91	144	0
TAP	91	144	1
TAP	91	240	2
TAP	91	240	3
TAP	91	288	1
TAP	91	288	4
TAP	91	336	0
TAP	91	336	5
HLD	92	0	6	48
HLD	92	0	7	48
HLD	92	72	6	48
HLD	92	72	7	48
TAP	92	144	6
TAP	92	144	7
TAP	92	240	4
TAP	92	240	5
TAP	92	288	3
TAP	92	288	6
TAP	92	336	2
TAP	92	336	7
HLD	93	0	0	48
HLD	93	0	1	48
HLD	93	72	0	48
HLD	93	72	1	48
TAP	93	144	0
TAP	93	144	1
TAP	93	240	3
TAP	93	240	4
TAP	93	288	2
TAP	93	288	5
TAP	93	336	1
TAP	93	336	6
TAP	94	0	0
TAP	94	0	7
STR	94	96	1
SI_	94	96	1	96	48	4
STR	94	96	5
SI_	94	96	5	96	48	0
BRK	94	288	2
BRK	94	288	6
TAP	95	0	1
TAP	95	48	0
TAP	95	48	1
TAP	95	96	6
TAP	95	144	6
TAP	95	144	7
TAP	95	192	5
TAP	95	240	4
TAP	95	288	3
TAP	95	336	2
HLD	96	0	0	96
HLD	96	0	1	96
TAP	96	192	6
TAP	96	192	7
TAP	96	240	6
TAP	96	240	7
TAP	96	288	0
TAP	96	288	5
TAP	97	0	2
TAP	97	48	2
TAP	97	48	3
TAP	97	96	5
TAP	97	144	4
TAP	97	144	5
TAP	97	192	6
TAP	97	240	7
TAP	97	288	0
TAP	97	336	1
STR	98	0	2
SCL	98	0	2	96	96	5
STR	98	192	4
SF_	98	192	4	96	48	0
TAP	99	0	2
TAP	99	48	2
TAP	99	96	3
TAP	99	144	1
TAP	99	192	7
TAP	99	240	7
TAP	99	288	0
TAP	99	288	6
TAP	100	0	5
TAP	100	48	5
TAP	100	96	4
TAP	100	144	6
TAP	100	192	0
TAP	100	240	0
TAP	100	288	1
TAP	100	288	7
TAP	101	0	2
TAP	101	48	2
TAP	101	96	0
TAP	101	144	1
TAP	101	192	5
TAP	101	240	5
TAP	101	288	7
TAP	101	336	6
STR	102	0	0
SCL	102	0	0	96	48	5
SCR	102	0	0	96	48	2
TAP	102	192	3
TAP	102	192	4
TAP	102	264	2
TAP	102	264	5
TAP	102	336	0
TAP	102	336	7
BRK	103	0	0
BRK	103	0	7

T_REC_TAP	480
T_REC_BRK	12
T_REC_XTP	0
T_REC_HLD	118
T_REC_XHO	0
T_REC_STR	80
T_REC_BST	3
T_REC_XST	0
T_REC_TTP	0
T_REC_THO	0
T_REC_SLD	84
T_REC_ALL	777
T_NUM_TAP	560
T_NUM_BRK	15
T_NUM_HLD	118
T_NUM_SLD	84
T_NUM_ALL	777
T_JUDGE_TAP	575
T_JUDGE_HLD	160
T_JUDGE_SLD	84
T_JUDGE_ALL	819
TTM_EACHPAIRS	230
TTM_SCR_TAP	280000
TTM_SCR_BRK	39000
TTM_SCR_HLD	118000
TTM_SCR_SLD	126000
TTM_SCR_ALL	563000
TTM_SCR_S	544700
TTM_SCR_SS	561500
TTM_RAT_ACV	10026

