VERSION	0.00.00	1.03.00
FES_MODE	0
BPM_DEF	174.000	174.000	174.000	174.000
MET_DEF	4	4
RESOLUTION	384
CLK_DEF	384
COMPATIBLE_CODE	MA2

BPM	0	0	174.000

TAP	1	0	2
TAP	1	0	3
TAP	1	192	4
TAP	1	192	5
STR	2	0	3
SI_	2	0	3	96	96	0
STR	2	0	4
SI_	2	0	4	96	96	7
TAP	3	0	7
TAP	3	96	6
TAP	3	192	5
TAP	3	288	4
TAP	4	0	2
TAP	4	0	3
TAP	4	96	2
TAP	4	96	3
TAP	4	192	1
TAP	4	192	4
TAP	5	0	0
TAP	5	96	1
TAP	5	192	2
TAP	5	288	3
STR	6	0	4
SI_	6	0	4	96	96	1
STR	6	0	5
SI_	6	0	5	96	96	0
TAP	7	0	7
TAP	7	96	6
TAP	7	192	5
TAP	7	288	4
STR	8	0	2
SI_	8	0	2	96	96	7
STR	8	0	3
SI_	8	0	3	96	96	6
TAP	9	0	0
TAP	9	0	7
TAP	9	96	0
TAP	9	96	7
HLD	9	192	1	192
HLD	9	192	6	192
TAP	10	192	3
TAP	10	192	4
BRK	10	288	1
BRK	10	288	6
TAP	11	0	2
TAP	11	96	3
TAP	11	192	2
TAP	11	288	1
TAP	11	288	4
TAP	12	0	5
TAP	12	96	4
TAP	12	192	5
TAP	12	288	3
TAP	12	288	6
TAP	13	0	2
TAP	13	96	3
TAP	13	192	2
TAP	13	288	1
TAP	13	288	4
TAP	14	0	0
TAP	14	96	7
TAP	14	192	1
TAP	14	192	6
TAP	15	0	5
TAP	15	96	4
TAP	15	192	5
TAP	15	288	3
TAP	15	288	6
TAP	16	0	2
TAP	16	96	3
TAP	16	192	2
TAP	16	288	1
TAP	16	288	4
TAP	17	0	5
TAP	17	96	4
TAP	17	192	5
TAP	17	288	3
TAP	17	288	6
TAP	18	0	7
TAP	18	96	0
TAP	18	192	1
TAP	18	192	6
TAP	19	0	1
TAP	19	96	1
TAP	19	192	2
TAP	19	288	2
TAP	20	0	3
TAP	20	96	3
TAP	20	192	4
TAP	20	192	5
TAP	20	288	4
TAP	20	288	5
TAP	21	0	6
TAP	21	96	6
TAP	21	192	7
TAP	21	288	7
TAP	22	0	0
TAP	22	0	1
TAP	22	96	0
TAP	22	96	1
TAP	22	192	2
TAP	22	192	7
TAP	23	0	6
TAP	23	96	6
TAP	23	192	5
TAP	23	288	5
TAP	24	0	4
TAP	24	96	4
TAP	24	192	2
TAP	24	192	3
TAP	24	288	2
TAP	24	288	3
TAP	25	0	1
TAP	25	96	1
TAP	25	192	0
TAP	25	288	0
STR	26	0	6
SCL	26	0	6	96	144	3
STR	26	0	7
SCR	26	0	7	96	144	2
HLD	27	0	5	192
TAP	27	192	4
TAP	27	288	3
TAP	27	288	6
HLD	28	0	2	192
TAP	28	192	3
TAP	28	288	1
TAP	28	288	4
TAP	29	0	5
TAP	29	96	5
TAP	29	192	4
TAP	29	192	6
TAP	30	0	7
TAP	30	96	0
TAP	30	192	7
TAP	30	288	1
TAP	30	288	6
HLD	31	0	2	192
TAP	31	192	3
TAP	31	288	1
TAP	31	288	4
HLD	32	0	5	192
TAP	32	192	4
TAP	32	288	3
TAP	32	288	6
STR	33	0	0
SCL	33	0	0	96	144	5
STR	33	0	1
SCR	33	0	1	96	144	4
TAP	34	0	3
TAP	34	0	4
TAP	34	96	3
TAP	34	96	4
BRK	34	192	1
BRK	34	192	6
TAP	35	0	2
TAP	35	96	1
TAP	35	96	3
TAP	35	192	5
TAP	35	288	4
TAP	35	288	6
TAP	36	0	2
TAP	36	96	1
TAP	36	96	3
TAP	36	192	2
TAP	36	192	5
TAP	37	0	6
TAP	37	96	6
TAP	37	96	7
TAP	37	192	1
TAP	37	288	0
TAP	37	288	1
TAP	38	0	2
TAP	38	0	7
TAP	38	96	2
TAP	38	96	7
TAP	38	192	3
TAP	38	192	6
TAP	38	288	3
TAP	38	288	6
TAP	39	0	5
TAP	39	96	4
TAP	39	96	5
TAP	39	192	2
TAP	39	288	2
TAP	39	288	3
TAP	40	0	3
TAP	40	0	4
TAP	40	96	2
TAP	40	96	5
TAP	40	192	1
TAP	40	192	6
TAP	40	288	0
TAP	40	288	7
STR	41	0	0
SCL	41	0	0	96	144	5
STR	41	0	1
SCR	41	0	1	96	144	4
HLD	42	0	2	96
HLD	42	0	5	96
TAP	42	192	3
TAP	42	192	4
TAP	42	288	3
TAP	42	288	4
TAP	43	0	5
TAP	43	96	4
TAP	43	96	6
TAP	43	192	2
TAP	43	288	1
TAP	43	288	3
TAP	44	0	5
TAP	44	96	4
TAP	44	96	6
TAP	44	192	2
TAP	44	192	5
TAP	45	0	1
TAP	45	96	0
TAP	45	96	1
TAP	45	192	6
TAP	45	288	6
TAP	45	288	7
TAP	46	0	0
TAP	46	0	5
TAP	46	96	0
TAP	46	96	5
TAP	46	192	1
TAP	46	192	4
TAP	46	288	1
TAP	46	288	4
TAP	47	0	2
TAP	47	96	2
TAP	47	96	3
TAP	47	192	5
TAP	47	288	4
TAP	47	288	5
TAP	48	0	3
TAP	48	0	4
TAP	48	96	2
TAP	48	96	5
TAP	48	192	1
TAP	48	192	6
TAP	48	288	0
TAP	48	288	7
STR	49	0	6
SCL	49	0	6	96	144	3
STR	49	0	7
SCR	49	0	7	96	144	2
HLD	50	0	3	96
HLD	50	0	4	96
BRK	50	192	3
BRK	50	192	4
BRK	50	288	1
BRK	50	288	6
TAP	51	0	2
TAP	51	0	3
TAP	51	96	2
TAP	51	96	3
TAP	51	192	1
TAP	51	192	4
TAP	52	0	4
TAP	52	0	5
TAP	52	96	4
TAP	52	96	5
TAP	52	192	3
TAP	52	192	6
TAP	53	0	2
TAP	53	0	3
TAP	53	96	2
TAP	53	96	3
TAP	53	192	1
TAP	53	192	4
HLD	54	0	6	96
HLD	54	0	7	96
TAP	54	192	0
TAP	54	192	5
TAP	54	288	0
TAP	54	288	5
TAP	55	0	4
TAP	55	0	5
TAP	55	96	4
TAP	55	96	5
TAP	55	192	3
TAP	55	192	6
TAP	56	0	2
TAP	56	0	3
TAP	56	96	2
TAP	56	96	3
TAP	56	192	1
TAP	56	192	4
TAP	57	0	4
TAP	57	0	5
TAP	57	96	4
TAP	57	96	5
TAP	57	192	3
TAP	57	192	6
HLD	58	0	0	96
HLD	58	0	1	96
TAP	58	192	2
TAP	58	192	7
TAP	58	288	2
TAP	58	288	7
TAP	59	0	5
TAP	59	96	4
TAP	59	192	5
TAP	59	288	3
TAP	59	288	6
TAP	60	0	2
TAP	60	96	3
TAP	60	192	2
TAP	60	288	1
TAP	60	288	4
TAP	61	0	0
TAP	61	96	7
TAP	61	192	1
TAP	61	192	6
TAP	61	288	1
TAP	61	288	6
TAP	62	0	0
TAP	62	0	7
TAP	62	96	1
TAP	62	96	6
TAP	62	192	2
TAP	62	192	5
TAP	62	288	3
TAP	62	288	4
HLD	63	0	5	192
HLD	63	192	4	192
HLD	64	0	3	192
TAP	64	192	2
TAP	64	288	1
TAP	64	288	4
HLD	65	0	2	192
HLD	65	192	3	192
HLD	66	0	4	192
TAP	66	192	5
TAP	66	288	3
TAP	66	288	6
TAP	67	0	5
TAP	67	96	5
TAP	67	192	4
TAP	67	288	4
TAP	68	0	3
TAP	68	96	3
TAP	68	192	2
TAP	68	288	2
HLD	69	0	0	96
HLD	69	0	1	96
HLD	69	192	6	96
HLD	69	192	7	96
STR	70	0	0
SI_	70	0	0	96	96	3
STR	70	0	7
SI_	70	0	7	96	96	4
TAP	71	0	1
TAP	71	96	0
TAP	71	96	2
TAP	71	192	6
TAP	71	288	5
TAP	71	288	7
TAP	72	0	1
TAP	72	96	0
TAP	72	96	2
TAP	72	192	1
TAP	72	192	6
TAP	73	0	5
TAP	73	96	4
TAP	73	96	5
TAP	73	192	2
TAP	73	288	2
TAP	73	288	3
TAP	74	0	1
TAP	74	0	4
TAP	74	96	1
TAP	74	96	4
TAP	74	192	0
TAP	74	192	5
TAP	74	288	0
TAP	74	288	5
TAP	75	0	6
TAP	75	96	6
TAP	75	96	7
TAP	75	192	1
TAP	75	288	0
TAP	75	288	1
TAP	76	0	0
TAP	76	0	7
TAP	76	96	1
TAP	76	96	6
TAP	76	192	2
TAP	76	192	5
TAP	76	288	3
TAP	76	288	4
STR	77	0	2
SCL	77	0	2	96	144	7
STR	77	0	3
SCR	77	0	3	96	144	6
HLD	78	0	1	96
HLD	78	0	6	96
TAP	78	192	0
TAP	78	192	7
TAP	78	288	0
TAP	78	288	7
TAP	79	0	6
TAP	79	96	5
TAP	79	96	7
TAP	79	192	1
TAP	79	288	0
TAP	79	288	2
TAP	80	0	6
TAP	80	96	5
TAP	80	96	7
TAP	80	192	1
TAP	80	192	6
TAP	81	0	2
TAP	81	96	2
TAP	81	96	3
TAP	81	192	5
TAP	81	288	4
TAP	81	288	5
TAP	82	0	3
TAP	82	0	6
TAP	82	96	3
TAP	82	96	6
TAP	82	192	2
TAP	82	192	7
TAP	82	288	2
TAP	82	288	7
TAP	83	0	1
TAP	83	96	0
TAP	83	96	1
TAP	83	192	6
TAP	83	288	6
TAP	83	288	7
TAP	84	0	0
TAP	84	0	7
TAP	84	96	1
TAP	84	96	6
TAP	84	192	2
TAP	84	192	5
TAP	84	288	3
TAP	84	288	4
STR	85	0	4
SCL	85	0	4	96	144	1
STR	85	0	5
SCR	85	0	5	96	144	0
HLD	86	0	0	96
HLD	86	0	7	96
BRK	86	192	0
BRK	86	192	7
BRK	86	288	2
BRK	86	288	5
TAP	87	0	0
TAP	87	0	1
TAP	87	96	0
TAP	87	96	1
TAP	87	192	2
TAP	87	192	7
TAP	88	0	6
TAP	88	0	7
TAP	88	96	6
TAP	88	96	7
TAP	88	192	0
TAP	88	192	5
TAP	89	0	0
TAP	89	0	1
TAP	89	96	0
TAP	89	96	1
TAP	89	192	2
TAP	89	192	7
HLD	90	0	4	96
HLD	90	0	5	96
TAP	90	192	4
TAP	90	192	5
TAP	90	288	3
TAP	90	288	6
TAP	91	0	6
TAP	91	0	7
TAP	91	96	6
TAP	91	96	7
TAP	91	192	0
TAP	91	192	5
TAP	92	0	0
TAP	92	0	1
TAP	92	96	0
TAP	92	96	1
TAP	92	192	2
TAP	92	192	7
TAP	93	0	6
TAP	93	0	7
TAP	93	96	6
TAP	93	96	7
TAP	93	192	0
TAP	93	192	5
HLD	94	0	2	96
HLD	94	0	3	96
TAP	94	192	2
TAP	94	192	3
TAP	94	288	1
TAP	94	288	4
HLD	95	0	5	96
TAP	95	96	4
HLD	95	192	2	96
TAP	95	288	3
HLD	96	0	6	96
TAP	96	96	5
HLD	96	192	1	96
TAP	96	288	2
HLD	97	0	7	96
TAP	97	96	6
HLD	97	192	0	96
TAP	97	288	1
STR	98	0	0
SI_	98	0	0	96	96	3
STR	98	0	7
SI_	98	0	7	96	96	4
HLD	99	0	6	96
TAP	99	96	7
HLD	99	192	1	96
TAP	99	288	0
HLD	100	0	5	96
TAP	100	96	6
HLD	100	192	2	96
TAP	100	288	1
HLD	101	0	4	96
TAP	101	96	5
HLD	101	192	3	96
TAP	101	288	2
STR	102	0	3
SI_	102	0	3	96	96	0
STR	102	0	4
SI_	102	0	4	96	96	7
TAP	102	288	1
TAP	102	288	6
BRK	103	0	1
BRK	103	0	6

T_REC_TAP	429
T_REC_BRK	14
T_REC_XTP	0
T_REC_HLD	44
T_REC_XHO	0
T_REC_STR	24
T_REC_BST	0
T_REC_XST	0
T_REC_TTP	0
T_REC_THO	0
T_REC_SLD	24
T_REC_ALL	535
T_NUM_TAP	453
T_NUM_BRK	14
T_NUM_HLD	44
T_NUM_SLD	24
T_NUM_ALL	535
T_JUDGE_TAP	467
T_JUDGE_HLD	112
T_JUDGE_SLD	24
T_JUDGE_ALL	603
TTM_EACHPAIRS	184
TTM_SCR_TAP	226500
TTM_SCR_BRK	36400
TTM_SCR_HLD	44000
TTM_SCR_SLD	36000
TTM_SCR_ALL	342900
TTM_SCR_S	331300
TTM_SCR_SS	341500
TTM_RAT_ACV	10040

