VERSION	0.00.00	1.03.00
FES_MODE	0
BPM_DEF	174.000	174.000	174.000	174.000
MET_DEF	4	4
RESOLUTION	384
CLK_DEF	384
COMPATIBLE_CODE	MA2

BPM	0	0	174.000

TAP	3	0	0
TAP	3	192	0
TAP	4	0	7
TAP	4	192	7
TAP	5	0	0
TAP	5	192	1
HLD	6	0	2	192
TAP	7	0	2
TAP	7	192	2
TAP	7	192	3
TAP	8	0	5
TAP	8	192	4
TAP	8	192	5
HLD	9	0	3	384
HLD	9	0	4	384
BRK	10	192	2
BRK	10	192	5
TAP	11	0	3
TAP	11	96	3
TAP	11	192	3
TAP	12	0	2
TAP	12	96	2
TAP	12	192	2
TAP	13	0	1
TAP	13	96	1
TAP	13	192	1
TAP	14	0	0
TAP	14	96	7
TAP	14	192	0
TAP	15	0	7
TAP	15	96	7
TAP	15	192	7
TAP	16	0	6
TAP	16	96	6
TAP	16	192	6
TAP	17	0	5
TAP	17	96	5
TAP	17	192	5
TAP	18	0	4
TAP	18	96	3
BRK	18	192	4
TAP	19	0	3
TAP	19	96	3
TAP	19	192	3
TAP	20	0	2
TAP	20	96	2
TAP	20	192	2
TAP	21	0	1
TAP	21	96	1
TAP	21	192	1
HLD	22	0	0	192
HLD	22	0	1	192
TAP	23	0	7
TAP	23	96	7
TAP	23	192	7
TAP	24	0	6
TAP	24	96	6
TAP	24	192	6
TAP	25	0	5
TAP	25	96	5
TAP	25	192	5
TAP	26	0	4
TAP	26	0	5
TAP	26	96	4
TAP	26	96	5
TAP	26	192	4
TAP	26	192	5
TAP	27	0	3
TAP	27	96	3
TAP	27	192	3
TAP	27	192	4
TAP	28	0	4
TAP	28	96	4
TAP	28	192	3
TAP	28	192	4
STR	29	0	3
SI_	29	0	3	96	288	0
STR	29	0	4
SI_	29	0	4	96	288	7
TAP	31	0	0
TAP	31	96	0
TAP	31	192	0
TAP	31	192	7
TAP	32	0	7
TAP	32	96	7
TAP	32	192	0
TAP	32	192	7
HLD	33	0	1	192
HLD	33	0	6	192
TAP	34	0	0
TAP	34	96	7
BRK	34	192	0
TAP	35	0	0
TAP	35	96	0
TAP	35	192	1
TAP	35	288	1
TAP	36	0	2
TAP	36	96	2
TAP	36	192	2
TAP	36	192	3
TAP	37	0	4
TAP	37	96	4
TAP	37	192	3
TAP	37	288	3
HLD	38	0	4	192
TAP	39	0	4
TAP	39	96	4
TAP	39	192	5
TAP	39	288	5
TAP	40	0	6
TAP	40	96	6
TAP	40	192	6
TAP	40	192	7
TAP	41	0	0
TAP	41	96	0
TAP	41	192	7
TAP	41	288	7
HLD	42	0	1	192
HLD	42	0	6	192
TAP	43	0	7
TAP	43	96	7
TAP	43	192	6
TAP	43	288	6
TAP	44	0	5
TAP	44	96	5
TAP	44	192	4
TAP	44	192	5
TAP	45	0	3
TAP	45	96	3
TAP	45	192	4
TAP	45	288	4
HLD	46	0	3	192
TAP	47	0	3
TAP	47	96	3
TAP	47	192	2
TAP	47	288	2
TAP	48	0	1
TAP	48	96	1
TAP	48	192	0
TAP	48	192	1
TAP	49	0	7
TAP	49	96	7
TAP	49	192	0
TAP	49	288	0
TAP	50	0	0
TAP	50	0	7
BRK	50	192	0
BRK	50	192	7
HLD	51	0	0	192
HLD	52	0	0	192
HLD	53	0	0	192
TAP	54	0	0
BRK	54	192	0
HLD	55	0	7	192
HLD	56	0	7	192
HLD	57	0	7	192
TAP	58	0	7
BRK	58	192	7
STR	59	0	0
SI_	59	0	0	96	288	4
STR	61	0	7
SI_	61	0	7	96	288	3
HLD	63	0	2	192
HLD	64	0	3	192
HLD	65	0	4	192
HLD	66	0	5	192
TAP	67	0	6
TAP	67	96	6
TAP	67	192	6
TAP	68	0	7
TAP	68	96	7
TAP	68	192	7
TAP	69	0	0
TAP	69	0	6
TAP	69	192	1
TAP	69	192	7
TAP	70	0	0
TAP	70	96	7
BRK	70	192	0
TAP	71	0	7
TAP	71	96	7
TAP	71	192	6
TAP	71	288	6
TAP	72	0	5
TAP	72	96	5
TAP	72	192	4
TAP	72	192	5
TAP	73	0	3
TAP	73	96	3
TAP	73	192	4
TAP	73	288	4
HLD	74	0	3	192
TAP	75	0	3
TAP	75	96	3
TAP	75	192	2
TAP	75	288	2
TAP	76	0	1
TAP	76	96	1
TAP	76	192	0
TAP	76	192	1
TAP	77	0	7
TAP	77	96	7
TAP	77	192	0
TAP	77	288	0
HLD	78	0	7	192
TAP	79	0	0
TAP	79	96	0
TAP	79	192	1
TAP	79	288	1
TAP	80	0	2
TAP	80	96	2
TAP	80	192	2
TAP	80	192	3
TAP	81	0	4
TAP	81	96	4
TAP	81	192	3
TAP	81	288	3
HLD	82	0	4	192
TAP	83	0	4
TAP	83	96	4
TAP	83	192	5
TAP	83	288	5
TAP	84	0	6
TAP	84	96	6
TAP	84	192	6
TAP	84	192	7
TAP	85	0	0
TAP	85	0	7
TAP	85	96	0
TAP	85	96	7
HLD	85	192	0	288
HLD	85	192	7	288
BRK	86	192	0
BRK	86	192	7
HLD	87	0	0	192
HLD	88	0	0	192
HLD	89	0	0	192
TAP	90	0	0
BRK	90	192	0
HLD	91	0	7	192
HLD	92	0	7	192
HLD	93	0	7	192
TAP	94	0	7
BRK	94	192	7
TAP	95	0	0
TAP	95	0	7
TAP	95	96	0
TAP	95	96	7
TAP	95	192	0
TAP	95	192	7
TAP	96	0	1
TAP	96	96	1
TAP	96	192	1
TAP	97	0	2
TAP	97	96	2
TAP	97	192	2
TAP	98	0	3
TAP	98	96	3
BRK	98	192	3
BRK	98	192	4
TAP	99	0	4
TAP	99	96	4
TAP	99	192	4
TAP	100	0	5
TAP	100	96	5
TAP	100	192	5
TAP	101	0	6
TAP	101	96	6
TAP	101	192	6
TAP	102	0	7
TAP	102	96	7
TAP	102	192	0
TAP	102	288	0
BRK	103	0	1
BRK	103	0	6

T_REC_TAP	218
T_REC_BRK	17
T_REC_XTP	0
T_REC_HLD	32
T_REC_XHO	0
T_REC_STR	4
T_REC_BST	0
T_REC_XST	0
T_REC_TTP	0
T_REC_THO	0
T_REC_SLD	4
T_REC_ALL	275
T_NUM_TAP	222
T_NUM_BRK	17
T_NUM_HLD	32
T_NUM_SLD	4
T_NUM_ALL	275
T_JUDGE_TAP	239
T_JUDGE_HLD	140
T_JUDGE_SLD	4
T_JUDGE_ALL	383
TTM_EACHPAIRS	36
TTM_SCR_TAP	111000
TTM_SCR_BRK	44200
TTM_SCR_HLD	32000
TTM_SCR_SLD	6000
TTM_SCR_ALL	193200
TTM_SCR_S	185800
TTM_SCR_SS	191500
TTM_RAT_ACV	10088

