VERSION	0.00.00	1.03.00
FES_MODE	0
BPM_DEF	105.000	105.000	105.000	105.000
MET_DEF	4	4
RESOLUTION	384
CLK_DEF	384
COMPATIBLE_CODE	MA2

BPM	0	0	105.000

HLD	1	0	7	768
TAP	2	24	6
TAP	2	48	6
TAP	2	72	6
TAP	2	96	6
TAP	2	120	6
TAP	2	144	6
TAP	2	168	6
TAP	2	192	5
TAP	2	216	5
TAP	2	240	4
TAP	2	264	4
TAP	2	288	3
TAP	2	312	3
TAP	2	336	4
TAP	2	348	3
TAP	2	360	2
TAP	2	372	1
STR	3	0	0
SCR	3	0	0	96	72	3
TAP	3	96	7
STR	3	192	7
SCL	3	192	7	96	72	4
TAP	3	288	0
HLD	4	0	0	384
TAP	4	24	1
TAP	4	48	1
TAP	4	72	1
TAP	4	96	1
TAP	4	120	1
TAP	4	144	1
TAP	4	168	1
TAP	4	192	2
TAP	4	216	2
TAP	4	240	3
TAP	4	264	3
TAP	4	288	4
TAP	4	312	4
TAP	4	336	3
TAP	4	348	4
TAP	4	360	5
TAP	4	372	6
STR	5	0	7
SCL	5	0	7	96	72	4
TAP	5	96	0
STR	5	192	0
SCR	5	192	0	96	72	3
TAP	5	288	7
HLD	6	0	7	384
TAP	6	24	6
TAP	6	48	6
TAP	6	72	6
TAP	6	96	6
TAP	6	120	6
TAP	6	144	6
TAP	6	168	6
TAP	6	192	5
TAP	6	216	5
TAP	6	240	4
TAP	6	264	4
TAP	6	288	3
TAP	6	312	3
TAP	6	336	4
TAP	6	348	3
TAP	6	360	2
TAP	6	372	1
TAP	7	0	0
TAP	7	24	0
TAP	7	48	7
TAP	7	72	7
STR	7	96	0
SUR	7	96	0	96	96	7
TAP	7	108	7
TAP	7	120	0
TAP	7	132	7
TAP	7	144	0
TAP	7	156	7
TAP	7	168	0
TAP	7	180	7
HLD	7	192	0	96
STR	8	0	1
SV_	8	0	1	96	48	3
TAP	8	0	5
TAP	8	24	3
TAP	8	36	3
STR	8	48	3
SUL	8	48	3	96	24	7
TAP	8	72	2
TAP	8	72	4
TAP	8	96	1
TAP	8	96	5
TAP	8	144	6
TAP	8	168	6
HLD	8	192	5	48
TAP	8	240	4
TAP	8	264	3
TAP	8	288	2
TAP	8	312	3
TAP	8	336	4
TAP	8	360	5
STR	9	0	3
SLL	9	0	3	96	48	5
STR	9	0	4
SLR	9	0	4	96	48	2
STR	9	48	2
SI_	9	48	2	96	24	0
STR	9	48	5
SI_	9	48	5	96	24	7
TAP	9	192	2
TAP	9	192	5
TAP	9	216	3
TAP	9	240	2
TAP	9	240	5
TAP	9	264	4
STR	9	288	3
SSL	9	288	3	96	120	7
STR	9	288	4
SSR	9	288	4	96	120	0
TAP	9	312	3
TAP	9	324	4
TAP	9	336	3
TAP	9	360	2
TAP	9	360	5
TAP	10	0	3
TAP	10	0	4
TAP	10	144	1
STR	10	144	6
SI_	10	144	6	96	24	4
TAP	10	192	3
TAP	10	240	3
STR	10	240	6
SI_	10	240	6	96	24	0
TAP	10	264	2
TAP	10	288	1
TAP	10	312	2
TAP	10	336	3
TAP	10	336	6
TAP	10	360	2
TAP	11	0	3
TAP	11	24	4
TAP	11	48	5
TAP	11	72	6
STR	11	96	7
SSR	11	96	7	96	96	3
TAP	11	120	0
TAP	11	144	1
TAP	11	168	2
TAP	11	192	3
TAP	11	192	7
TAP	11	336	2
TAP	11	336	3
TAP	12	0	0
TAP	12	0	5
TAP	12	12	1
TAP	12	24	2
TAP	12	36	3
TAP	12	48	4
TAP	12	72	4
STR	12	96	6
SI_	12	96	6	96	24	3
STR	12	120	3
SI_	12	120	3	96	24	7
STR	12	144	7
SI_	12	144	7	96	24	2
STR	12	168	2
SCL	12	168	2	96	48	5
TAP	12	192	6
TAP	12	336	1
TAP	12	336	6
TAP	13	0	2
TAP	13	0	7
TAP	13	12	6
TAP	13	24	5
TAP	13	36	4
TAP	13	48	3
TAP	13	72	3
STR	13	96	1
SI_	13	96	1	96	24	4
STR	13	120	4
SI_	13	120	4	96	24	0
STR	13	144	0
SI_	13	144	0	96	24	5
STR	13	168	5
SCR	13	168	5	96	48	2
TAP	13	192	1
TAP	13	336	1
TAP	13	336	6
TAP	14	0	3
TAP	14	0	4
TAP	14	24	2
TAP	14	48	3
TAP	14	48	4
TAP	14	72	5
TAP	14	96	3
TAP	14	96	4
TAP	14	120	2
TAP	14	144	3
TAP	14	144	4
TAP	14	168	5
TAP	14	192	2
TAP	14	192	4
TAP	14	216	1
TAP	14	240	3
TAP	14	240	5
TAP	14	264	6
TAP	14	288	2
TAP	14	288	4
TAP	14	312	1
TAP	14	336	3
TAP	14	336	5
TAP	14	360	6
TAP	15	0	1
TAP	15	0	4
TAP	15	24	0
TAP	15	48	3
TAP	15	48	6
TAP	15	72	7
TAP	15	96	1
TAP	15	96	4
TAP	15	120	0
TAP	15	144	3
TAP	15	144	6
TAP	15	168	7
TAP	15	192	2
TAP	15	192	4
TAP	15	216	3
TAP	15	228	3
STR	15	240	3
SI_	15	240	3	96	24	7
TAP	15	264	2
TAP	15	264	4
TAP	15	288	1
TAP	15	288	5
HLD	16	0	5	192
TAP	16	96	4
HLD	16	192	2	192
TAP	16	240	3
TAP	16	288	3
HLD	17	0	6	192
TAP	17	96	5
HLD	17	192	3	192
TAP	17	240	4
TAP	17	288	4
HLD	18	0	4	192
TAP	18	96	3
HLD	18	192	1	192
TAP	18	240	2
TAP	18	288	2
HLD	19	0	7	192
TAP	19	24	6
TAP	19	48	6
TAP	19	72	6
STR	19	96	6
SUL	19	96	6	96	96	1
TAP	19	120	6
TAP	19	144	6
TAP	19	168	6
TAP	19	192	6
TAP	19	336	0
TAP	19	360	7
HLD	20	0	6	192
TAP	20	96	7
HLD	20	192	1	192
TAP	20	288	0
STR	21	0	6
SCL	21	0	6	96	96	2
TAP	21	72	1
STR	21	96	2
SUR	21	96	2	96	96	7
TAP	21	144	0
HLD	21	192	0	96
TAP	21	336	7
TAP	21	360	0
HLD	22	0	1	192
TAP	22	48	2
TAP	22	96	3
TAP	22	144	4
HLD	22	192	6	192
TAP	22	240	5
TAP	22	288	4
TAP	22	336	3
TAP	23	0	2
TAP	23	24	2
TAP	23	48	5
TAP	23	72	5
TAP	23	96	3
TAP	23	120	3
TAP	23	144	4
TAP	23	168	4
TAP	23	216	3
TAP	23	216	4
STR	23	240	3
SI_	23	240	3	96	24	0
STR	23	240	4
SI_	23	240	4	96	24	7
TAP	23	264	2
TAP	23	264	5
TAP	23	288	3
TAP	23	288	4
TAP	23	336	3
TAP	23	336	4
TAP	24	0	2
TAP	24	12	3
TAP	24	24	2
TAP	24	48	2
TAP	24	60	1
TAP	24	72	2
TAP	24	96	2
TAP	24	108	4
TAP	24	120	2
TAP	24	144	2
TAP	24	156	0
TAP	24	168	2
TAP	24	192	2
TAP	24	204	5
TAP	24	216	2
STR	24	240	2
SI_	24	240	2	96	24	0
TAP	24	252	7
TAP	24	264	2
TAP	24	288	2
TAP	24	300	6
TAP	24	312	2
BRK	24	336	2
TAP	25	0	5
TAP	25	12	4
TAP	25	24	5
TAP	25	48	5
TAP	25	60	6
TAP	25	72	5
TAP	25	96	5
TAP	25	108	3
TAP	25	120	5
TAP	25	144	5
TAP	25	156	7
TAP	25	168	5
TAP	25	192	5
TAP	25	204	2
TAP	25	216	5
TAP	25	240	5
TAP	25	252	0
TAP	25	264	5
TAP	25	288	5
TAP	25	300	1
TAP	25	312	5
TAP	25	336	3
TAP	25	336	4
TAP	25	360	2
TAP	25	360	5
TAP	26	0	3
TAP	26	12	4
TAP	26	24	3
TAP	26	48	3
TAP	26	60	5
TAP	26	72	3
TAP	26	96	3
TAP	26	108	6
TAP	26	120	3
TAP	26	144	3
TAP	26	156	7
TAP	26	168	3
TAP	26	192	4
TAP	26	204	3
TAP	26	216	4
TAP	26	240	4
TAP	26	252	2
TAP	26	264	4
TAP	26	288	4
TAP	26	300	1
TAP	26	312	4
TAP	26	336	4
TAP	26	348	0
TAP	26	360	4
TAP	27	0	3
TAP	27	12	4
TAP	27	24	2
TAP	27	36	5
TAP	27	48	1
TAP	27	60	6
TAP	27	72	0
TAP	27	84	7
TAP	27	96	0
TAP	27	108	7
TAP	27	120	1
TAP	27	132	6
TAP	27	144	2
TAP	27	156	5
TAP	27	168	3
STR	27	192	3
SI_	27	192	3	96	24	0
STR	27	192	4
SI_	27	192	4	96	24	7
TAP	27	288	3
TAP	27	288	4
BRK	27	336	2
BRK	27	336	5
TAP	28	0	1
TAP	28	0	4
TAP	28	24	2
TAP	28	36	3
TAP	28	48	2
TAP	28	72	1
TAP	28	96	3
TAP	28	96	6
TAP	28	120	5
TAP	28	132	4
TAP	28	144	5
TAP	28	168	6
TAP	28	192	1
STR	28	192	4
SLR	28	192	4	96	48	2
TAP	28	216	2
TAP	28	228	3
STR	28	240	2
SI_	28	240	2	96	24	7
TAP	28	264	1
TAP	28	288	3
BRK	28	336	0
STR	29	0	3
SI_	29	0	3	96	24	0
TAP	29	0	4
TAP	29	48	2
TAP	29	48	4
TAP	29	72	2
TAP	29	72	4
TAP	29	96	3
STR	29	96	5
SI_	29	96	5	96	24	7
TAP	29	120	5
TAP	29	144	5
TAP	29	156	4
STR	29	168	6
SI_	29	168	6	96	24	3
TAP	29	180	4
TAP	29	192	5
STR	29	240	2
SI_	29	240	2	96	24	7
TAP	29	264	2
TAP	29	312	5
TAP	29	336	5
TAP	30	0	3
TAP	30	0	6
TAP	30	24	5
TAP	30	36	4
TAP	30	48	5
TAP	30	72	6
TAP	30	96	1
TAP	30	96	4
TAP	30	120	2
TAP	30	132	3
TAP	30	144	2
TAP	30	168	1
TAP	30	192	4
TAP	30	192	5
TAP	30	208	6
TAP	30	224	3
STR	30	240	4
SI_	30	240	4	96	24	1
STR	30	240	5
SI_	30	240	5	96	24	0
TAP	30	256	6
TAP	30	272	3
TAP	30	288	4
TAP	30	288	5
TAP	30	336	4
TAP	30	336	5
TAP	31	0	3
TAP	31	0	6
TAP	31	48	2
TAP	31	48	3
TAP	31	72	1
TAP	31	72	4
TAP	31	96	0
TAP	31	96	5
TAP	31	120	6
TAP	31	132	7
TAP	31	144	6
TAP	31	168	1
TAP	31	180	0
TAP	31	192	1
TAP	31	216	2
TAP	31	216	7
STR	31	240	3
SI_	31	240	3	96	24	7
STR	31	240	6
SI_	31	240	6	96	24	4
TAP	31	264	2
TAP	31	264	7
TAP	31	288	3
TAP	31	288	6
TAP	31	336	3
TAP	31	336	6
TAP	32	0	3
TAP	32	0	6
TAP	32	24	5
TAP	32	36	4
TAP	32	48	5
TAP	32	72	6
TAP	32	96	1
TAP	32	96	4
TAP	32	120	2
TAP	32	132	3
TAP	32	144	2
TAP	32	168	1
STR	32	192	3
SLL	32	192	3	96	48	5
TAP	32	192	6
TAP	32	216	5
TAP	32	228	4
STR	32	240	5
SI_	32	240	5	96	24	0
TAP	32	264	6
TAP	32	288	4
BRK	32	336	7
TAP	33	0	3
STR	33	0	4
SI_	33	0	4	96	24	7
TAP	33	48	3
TAP	33	48	5
TAP	33	72	3
TAP	33	72	5
STR	33	96	2
SI_	33	96	2	96	24	0
TAP	33	96	4
TAP	33	120	2
TAP	33	144	2
TAP	33	156	3
STR	33	168	1
SI_	33	168	1	96	24	4
TAP	33	180	3
TAP	33	192	2
STR	33	240	5
SI_	33	240	5	96	24	0
TAP	33	264	5
TAP	33	312	2
TAP	33	336	2
TAP	33	360	2
TAP	34	0	1
TAP	34	0	4
TAP	34	24	2
TAP	34	36	3
TAP	34	48	2
TAP	34	72	1
TAP	34	96	3
TAP	34	96	6
TAP	34	120	5
TAP	34	132	4
TAP	34	144	5
TAP	34	168	6
TAP	34	192	2
TAP	34	192	3
TAP	34	208	1
TAP	34	224	4
STR	34	240	2
SI_	34	240	2	96	24	7
STR	34	240	3
SI_	34	240	3	96	24	6
TAP	34	256	1
TAP	34	272	4
TAP	34	288	2
TAP	34	288	3
TAP	34	336	2
TAP	34	336	3
TAP	35	0	1
TAP	35	0	4
TAP	35	48	4
TAP	35	48	5
TAP	35	72	3
TAP	35	72	6
TAP	35	96	2
TAP	35	96	7
TAP	35	120	1
TAP	35	132	0
TAP	35	144	1
TAP	35	168	6
TAP	35	180	7
TAP	35	192	6
TAP	35	216	0
TAP	35	216	5
STR	35	240	1
SI_	35	240	1	96	24	3
STR	35	240	4
SI_	35	240	4	96	24	0
TAP	35	264	0
TAP	35	264	5
TAP	35	288	1
TAP	35	288	4
TAP	35	336	1
TAP	35	336	4
TAP	36	0	2
STR	36	0	6
SV_	36	0	6	96	48	4
TAP	36	24	4
TAP	36	36	4
STR	36	48	4
SUR	36	48	4	96	24	0
TAP	36	72	3
TAP	36	72	5
TAP	36	96	2
TAP	36	96	6
STR	36	144	1
SI_	36	144	1	96	24	3
TAP	36	168	1
TAP	36	192	1
TAP	36	192	4
STR	36	240	1
SI_	36	240	1	96	24	7
TAP	36	240	4
TAP	36	264	5
TAP	36	288	6
TAP	36	312	5
STR	36	336	1
SI_	36	336	1	96	24	3
TAP	36	336	4
TAP	36	360	5
HLD	37	0	6	48
STR	37	48	1
SI_	37	48	1	96	24	7
TAP	37	96	6
TAP	37	120	6
STR	37	144	1
SI_	37	144	1	96	24	3
TAP	37	144	5
TAP	37	168	6
TAP	37	192	4
STR	37	240	1
SI_	37	240	1	96	24	7
TAP	37	240	4
TAP	37	264	5
TAP	37	288	6
TAP	37	312	5
TAP	37	336	1
TAP	37	336	4
STR	38	0	1
SV_	38	0	1	96	48	3
TAP	38	0	5
TAP	38	24	3
TAP	38	36	3
STR	38	48	3
SUL	38	48	3	96	24	7
TAP	38	72	2
TAP	38	72	4
TAP	38	96	1
TAP	38	96	5
STR	38	144	6
SI_	38	144	6	96	24	4
TAP	38	168	6
TAP	38	192	3
TAP	38	192	6
TAP	38	240	3
STR	38	240	6
SI_	38	240	6	96	24	0
TAP	38	264	2
TAP	38	288	1
TAP	38	312	2
TAP	38	336	3
TAP	38	336	6
TAP	38	360	2
TAP	39	0	3
TAP	39	24	4
TAP	39	48	5
TAP	39	72	6
STR	39	96	7
SSR	39	96	7	96	96	3
TAP	39	120	0
TAP	39	144	1
TAP	39	168	2
TAP	39	192	3
TAP	39	192	7
HLD	40	0	3	192
TAP	40	96	2
HLD	40	192	4	192
TAP	40	288	5
HLD	41	0	2	96
HLD	41	96	0	96
STR	41	192	6
SV_	41	192	6	96	48	1
TAP	41	240	7
TAP	41	288	7
TAP	42	0	4
TAP	42	48	4
TAP	42	96	3
TAP	42	96	5
TAP	42	168	3
TAP	42	216	3
TAP	42	288	2
HLD	42	288	4	192
TAP	43	24	5
TAP	43	48	5
TAP	43	72	5
TAP	43	96	5
TAP	43	120	4
TAP	43	144	3
TAP	43	168	2
STR	43	192	3
SI_	43	192	3	96	24	0
STR	43	192	4
SI_	43	192	4	96	24	7
TAP	43	216	5
TAP	43	240	2
TAP	43	264	5
TAP	43	288	3
TAP	43	288	4
BRK	43	336	2
BRK	43	336	5
TAP	44	0	0
TAP	44	0	5
TAP	44	24	6
TAP	44	36	7
TAP	44	48	6
TAP	44	72	0
TAP	44	72	5
TAP	44	96	2
TAP	44	96	7
TAP	44	120	1
TAP	44	132	0
TAP	44	144	1
TAP	44	168	2
TAP	44	168	7
TAP	44	192	1
STR	44	192	4
SLR	44	192	4	96	48	2
TAP	44	216	2
TAP	44	228	3
STR	44	240	2
SI_	44	240	2	96	24	7
TAP	44	264	0
TAP	44	264	5
TAP	44	288	3
TAP	44	288	4
BRK	44	336	0
TAP	45	0	2
STR	45	0	4
SI_	45	0	4	96	24	7
TAP	45	48	4
TAP	45	48	6
TAP	45	72	3
TAP	45	72	5
STR	45	96	2
SI_	45	96	2	96	24	0
TAP	45	96	4
TAP	45	120	2
TAP	45	144	2
TAP	45	156	3
STR	45	168	1
SI_	45	168	1	96	24	4
TAP	45	180	3
TAP	45	192	2
STR	45	240	5
SI_	45	240	5	96	24	0
TAP	45	264	1
TAP	45	264	5
TAP	45	312	1
TAP	45	336	1
TAP	45	336	5
TAP	46	0	2
TAP	46	0	7
TAP	46	24	1
TAP	46	36	0
TAP	46	48	1
TAP	46	72	2
TAP	46	72	7
TAP	46	96	0
TAP	46	96	5
TAP	46	120	6
TAP	46	132	7
TAP	46	144	6
TAP	46	168	0
TAP	46	168	5
TAP	46	192	2
TAP	46	192	3
TAP	46	208	4
TAP	46	224	4
STR	46	240	2
SI_	46	240	2	96	24	7
STR	46	240	3
SI_	46	240	3	96	24	6
TAP	46	256	1
TAP	46	272	1
TAP	46	288	2
TAP	46	288	3
TAP	46	336	2
TAP	46	336	3
TAP	47	0	1
TAP	47	0	4
TAP	47	48	4
TAP	47	48	5
TAP	47	72	3
TAP	47	72	6
TAP	47	96	2
TAP	47	96	7
TAP	47	120	1
TAP	47	132	0
TAP	47	144	1
TAP	47	168	6
TAP	47	180	7
TAP	47	192	6
TAP	47	216	0
TAP	47	216	5
STR	47	240	1
SI_	47	240	1	96	24	3
STR	47	240	4
SI_	47	240	4	96	24	0
TAP	47	264	6
TAP	47	264	7
TAP	47	288	1
TAP	47	288	4
TAP	47	336	1
TAP	47	336	4
TAP	48	0	2
TAP	48	0	7
TAP	48	24	1
TAP	48	36	0
TAP	48	48	1
TAP	48	72	2
TAP	48	72	7
TAP	48	96	0
TAP	48	96	5
TAP	48	120	6
TAP	48	132	7
TAP	48	144	6
TAP	48	168	0
TAP	48	168	5
STR	48	192	3
SLL	48	192	3	96	48	5
TAP	48	192	6
TAP	48	216	5
TAP	48	228	4
STR	48	240	5
SI_	48	240	5	96	24	0
TAP	48	264	2
TAP	48	264	7
TAP	48	288	3
TAP	48	288	4
BRK	48	336	7
STR	49	0	3
SI_	49	0	3	96	24	0
TAP	49	0	5
TAP	49	48	1
TAP	49	48	3
TAP	49	72	2
TAP	49	72	4
TAP	49	96	3
STR	49	96	5
SI_	49	96	5	96	24	7
TAP	49	120	5
TAP	49	144	5
TAP	49	156	4
STR	49	168	6
SI_	49	168	6	96	24	3
TAP	49	180	4
TAP	49	192	5
STR	49	240	2
SI_	49	240	2	96	24	7
TAP	49	264	2
TAP	49	264	6
TAP	49	312	6
TAP	49	336	2
TAP	49	336	6
TAP	49	360	6
TAP	50	0	0
TAP	50	0	5
TAP	50	24	6
TAP	50	36	7
TAP	50	48	6
TAP	50	72	5
TAP	50	96	2
TAP	50	96	7
TAP	50	120	1
TAP	50	132	0
TAP	50	144	1
TAP	50	168	2
TAP	50	192	4
TAP	50	192	5
TAP	50	208	6
TAP	50	224	6
STR	50	240	4
SI_	50	240	4	96	24	1
STR	50	240	5
SI_	50	240	5	96	24	0
TAP	50	256	3
TAP	50	272	3
TAP	50	288	4
TAP	50	288	5
TAP	50	336	4
TAP	50	336	5
TAP	51	0	3
TAP	51	0	6
TAP	51	48	2
TAP	51	48	3
TAP	51	72	1
TAP	51	72	4
TAP	51	96	0
TAP	51	96	5
TAP	51	120	6
TAP	51	132	7
TAP	51	144	6
TAP	51	168	1
TAP	51	180	0
TAP	51	192	1
TAP	51	216	2
TAP	51	216	7
STR	51	240	3
SI_	51	240	3	96	24	7
STR	51	240	6
SI_	51	240	6	96	24	4
TAP	51	264	0
TAP	51	264	1
TAP	51	288	3
TAP	51	288	6
TAP	51	336	3
TAP	51	336	6
TAP	52	0	0
TAP	52	0	5
TAP	52	12	1
TAP	52	24	2
TAP	52	36	3
TAP	52	48	4
TAP	52	72	4
STR	52	96	6
SI_	52	96	6	96	24	2
STR	52	120	2
SI_	52	120	2	96	24	7
STR	52	144	7
SI_	52	144	7	96	24	3
STR	52	168	3
SCL	52	168	3	96	48	5
TAP	52	192	6
TAP	52	336	2
TAP	52	336	7
TAP	53	0	2
TAP	53	0	7
TAP	53	12	6
TAP	53	24	5
TAP	53	36	4
TAP	53	48	3
TAP	53	72	3
STR	53	96	1
SI_	53	96	1	96	24	5
STR	53	120	5
SI_	53	120	5	96	24	0
STR	53	144	0
SI_	53	144	0	96	24	4
STR	53	168	4
SCR	53	168	4	96	48	2
TAP	53	192	1
TAP	53	336	0
TAP	53	336	5
TAP	54	0	0
TAP	54	0	7
TAP	54	24	1
TAP	54	48	0
TAP	54	48	7
TAP	54	72	6
TAP	54	96	0
TAP	54	96	7
TAP	54	120	1
TAP	54	144	0
TAP	54	144	7
TAP	54	168	6
TAP	54	192	1
TAP	54	192	7
TAP	54	216	2
TAP	54	240	0
TAP	54	240	6
TAP	54	264	5
TAP	54	288	1
TAP	54	288	7
TAP	54	312	2
TAP	54	336	0
TAP	54	336	6
TAP	54	360	5
TAP	55	0	2
TAP	55	0	7
TAP	55	24	3
TAP	55	48	0
TAP	55	48	5
TAP	55	72	4
TAP	55	96	2
TAP	55	96	7
TAP	55	120	3
TAP	55	144	0
TAP	55	144	5
TAP	55	168	4
TAP	55	192	3
TAP	55	192	5
TAP	55	216	4
TAP	55	228	4
STR	55	240	4
SI_	55	240	4	96	24	0
TAP	55	264	3
TAP	55	264	5
STR	55	288	2
SSL	55	288	2	96	576	6
TAP	55	288	6
TAP	56	0	3
TAP	56	96	7
TAP	56	216	3
TAP	56	336	7

T_REC_TAP	769
T_REC_BRK	9
T_REC_XTP	0
T_REC_HLD	23
T_REC_XHO	0
T_REC_STR	99
T_REC_BST	0
T_REC_XST	0
T_REC_TTP	0
T_REC_THO	0
T_REC_SLD	99
T_REC_ALL	999
T_NUM_TAP	868
T_NUM_BRK	9
T_NUM_HLD	23
T_NUM_SLD	99
T_NUM_ALL	999
T_JUDGE_TAP	877
T_JUDGE_HLD	196
T_JUDGE_SLD	99
T_JUDGE_ALL	1172
TTM_EACHPAIRS	186
TTM_SCR_TAP	434000
TTM_SCR_BRK	23400
TTM_SCR_HLD	23000
TTM_SCR_SLD	148500
TTM_SCR_ALL	628900
TTM_SCR_S	609200
TTM_SCR_SS	628000
TTM_RAT_ACV	10014

