VERSION	0.00.00	1.03.00
FES_MODE	0
BPM_DEF	105.000	105.000	105.000	105.000
MET_DEF	4	4
RESOLUTION	384
CLK_DEF	384
COMPATIBLE_CODE	MA2

BPM	0	0	105.000

STR	1	0	1
SI_	1	0	1	96	96	5
STR	1	192	6
SI_	1	192	6	96	96	2
TAP	2	0	0
TAP	2	24	0
TAP	2	48	1
TAP	2	72	1
TAP	2	96	2
TAP	2	120	2
TAP	2	144	3
TAP	2	168	3
TAP	2	192	4
TAP	2	216	4
TAP	2	240	5
TAP	2	264	5
TAP	2	288	6
TAP	2	312	6
TAP	2	336	7
TAP	2	360	7
STR	3	0	6
SI_	3	0	6	96	96	2
STR	3	192	1
SI_	3	192	1	96	96	5
TAP	4	0	7
TAP	4	24	7
TAP	4	48	6
TAP	4	72	6
TAP	4	96	5
TAP	4	120	5
TAP	4	144	4
TAP	4	168	4
TAP	4	192	3
TAP	4	216	3
TAP	4	240	2
TAP	4	264	2
TAP	4	288	1
TAP	4	312	1
TAP	4	336	0
TAP	4	360	0
STR	5	0	0
SI_	5	0	0	96	96	5
STR	5	192	7
SI_	5	192	7	96	96	2
TAP	6	0	0
TAP	6	24	0
TAP	6	48	0
TAP	6	72	0
TAP	6	96	0
TAP	6	120	0
TAP	6	144	0
TAP	6	168	0
TAP	6	192	0
TAP	6	216	1
TAP	6	240	2
TAP	6	264	3
TAP	6	288	4
TAP	6	312	5
TAP	6	336	6
TAP	6	360	7
TAP	7	0	7
TAP	7	24	7
TAP	7	48	7
TAP	7	72	7
TAP	7	96	7
TAP	7	120	7
TAP	7	144	7
TAP	7	168	7
BRK	7	192	0
BRK	7	192	7
TAP	8	0	3
TAP	8	0	4
STR	8	48	3
SI_	8	48	3	96	72	7
TAP	8	48	4
STR	8	144	4
SI_	8	144	4	96	72	0
STR	8	240	3
SV_	8	240	3	96	72	6
STR	8	336	4
SV_	8	336	4	96	72	1
STR	9	48	3
SI_	9	48	3	96	72	7
TAP	9	144	4
TAP	9	192	4
TAP	9	216	5
TAP	9	240	6
TAP	9	264	7
TAP	9	288	0
TAP	9	312	1
TAP	9	336	2
TAP	9	360	3
STR	10	0	4
SF_	10	0	4	96	72	0
TAP	10	192	2
TAP	10	192	3
TAP	10	240	1
STR	10	240	4
SI_	10	240	4	96	72	0
STR	10	336	3
SI_	10	336	3	96	72	7
STR	11	48	2
SI_	11	48	2	96	72	6
TAP	11	144	1
TAP	11	192	1
TAP	11	216	0
TAP	11	240	7
TAP	11	264	6
TAP	11	288	5
TAP	11	312	4
TAP	11	336	3
TAP	11	360	2
HLD	12	0	0	96
HLD	12	48	1	48
TAP	12	120	2
TAP	12	120	7
TAP	12	144	2
TAP	12	144	7
STR	12	192	4
SI_	12	192	4	96	72	1
TAP	12	192	5
TAP	12	240	7
TAP	12	264	7
TAP	12	336	3
HLD	13	0	7	96
HLD	13	48	6	48
TAP	13	120	0
TAP	13	120	5
TAP	13	144	0
TAP	13	144	5
TAP	13	192	2
STR	13	192	3
SI_	13	192	3	96	72	6
TAP	13	240	0
TAP	13	264	0
TAP	13	336	4
HLD	14	0	3	24
HLD	14	0	4	24
HLD	14	48	2	24
HLD	14	48	3	24
HLD	14	96	3	24
HLD	14	96	4	24
HLD	14	144	4	24
HLD	14	144	5	24
HLD	14	192	3	24
HLD	14	192	4	24
HLD	14	240	1	24
HLD	14	240	3	24
HLD	14	288	3	24
HLD	14	288	4	24
HLD	14	336	4	24
HLD	14	336	6	24
HLD	15	0	3	24
HLD	15	0	4	24
HLD	15	48	0	24
HLD	15	48	2	24
HLD	15	96	3	24
HLD	15	96	4	24
HLD	15	144	5	24
HLD	15	144	7	24
TAP	15	192	3
TAP	15	192	4
TAP	15	240	0
TAP	15	240	2
TAP	15	288	5
TAP	15	288	7
BRK	15	336	3
HLD	16	0	0	96
HLD	16	0	1	288
HLD	16	192	2	240
HLD	17	0	5	144
HLD	17	96	4	96
STR	17	192	7
SF_	17	192	7	96	72	3
HLD	18	0	6	288
HLD	18	0	7	96
HLD	18	192	5	240
HLD	19	0	2	144
HLD	19	96	3	96
STR	19	192	0
SF_	19	192	0	96	72	4
HLD	20	0	2	96
TAP	20	96	1
TAP	20	120	2
TAP	20	144	0
TAP	20	144	3
HLD	20	192	5	96
TAP	20	288	6
TAP	20	312	5
TAP	20	336	4
TAP	20	336	7
HLD	21	0	2	72
TAP	21	72	3
TAP	21	96	1
TAP	21	96	4
TAP	21	144	0
TAP	21	144	5
TAP	21	192	6
TAP	21	192	7
TAP	21	240	0
TAP	21	240	1
TAP	21	288	2
TAP	21	288	5
HLD	22	0	7	96
TAP	22	96	6
TAP	22	120	7
TAP	22	144	0
TAP	22	144	5
HLD	22	192	0	96
TAP	22	288	1
TAP	22	312	0
TAP	22	336	2
TAP	22	336	7
TAP	23	0	5
TAP	23	48	2
TAP	23	72	3
TAP	23	120	1
TAP	23	120	4
TAP	23	168	3
TAP	23	168	6
TAP	23	216	0
TAP	23	240	7
TAP	23	264	0
TAP	23	288	7
TAP	23	336	1
TAP	23	336	6
HLD	24	0	2	24
HLD	24	0	4	24
HLD	24	48	0	24
HLD	24	48	2	24
HLD	24	96	2	24
HLD	24	96	4	24
HLD	24	144	4	24
HLD	24	144	6	24
HLD	24	192	2	24
HLD	24	192	4	24
HLD	24	240	0	24
HLD	24	240	2	24
HLD	24	288	2	24
HLD	24	288	4	24
BRK	24	336	7
HLD	25	0	3	24
HLD	25	0	5	24
HLD	25	48	5	24
HLD	25	48	7	24
HLD	25	96	3	24
HLD	25	96	5	24
HLD	25	144	1	24
HLD	25	144	3	24
HLD	25	192	3	24
HLD	25	192	5	24
HLD	25	240	5	24
HLD	25	240	7	24
HLD	25	288	3	24
HLD	25	288	5	24
TAP	25	336	0
TAP	25	360	0
HLD	26	0	2	24
HLD	26	0	4	24
HLD	26	48	0	24
HLD	26	48	2	24
HLD	26	96	3	24
HLD	26	96	5	24
HLD	26	144	5	24
HLD	26	144	7	24
HLD	26	192	1	24
HLD	26	192	4	24
HLD	26	240	0	24
HLD	26	240	2	24
HLD	26	288	3	24
HLD	26	288	6	24
HLD	26	336	5	24
HLD	26	336	7	24
HLD	27	0	2	24
HLD	27	0	3	24
HLD	27	48	2	24
HLD	27	48	7	24
HLD	27	96	4	24
HLD	27	96	5	24
HLD	27	144	0	24
HLD	27	144	5	24
BRK	27	192	0
BRK	27	192	7
TAP	27	288	2
TAP	27	288	5
HLD	28	0	2	48
TAP	28	48	3
TAP	28	72	0
HLD	28	96	5	48
TAP	28	144	4
TAP	28	168	7
HLD	28	192	2	48
TAP	28	240	3
TAP	28	264	0
TAP	28	288	1
TAP	28	288	2
TAP	28	336	4
TAP	28	336	7
HLD	29	0	5	48
TAP	29	48	4
TAP	29	72	7
HLD	29	96	2	48
TAP	29	144	3
TAP	29	168	0
HLD	29	192	5	48
TAP	29	240	4
TAP	29	264	7
TAP	29	288	5
TAP	29	288	6
TAP	29	336	0
TAP	29	336	3
HLD	30	0	2	48
TAP	30	48	0
TAP	30	72	7
TAP	30	96	1
TAP	30	96	6
TAP	30	144	2
TAP	30	144	5
TAP	30	192	4
TAP	30	208	4
TAP	30	224	4
TAP	30	240	3
TAP	30	256	3
TAP	30	272	3
TAP	30	288	5
TAP	30	336	1
TAP	30	336	6
HLD	31	0	5	48
TAP	31	48	0
TAP	31	72	7
TAP	31	96	2
TAP	31	120	2
TAP	31	120	3
TAP	31	144	3
TAP	31	144	4
TAP	31	168	4
TAP	31	168	5
TAP	31	216	1
TAP	31	216	6
TAP	31	264	0
TAP	31	264	7
TAP	31	288	0
TAP	31	288	7
TAP	31	336	1
TAP	31	336	6
HLD	32	0	5	48
TAP	32	48	4
TAP	32	72	0
HLD	32	96	2	48
TAP	32	144	3
TAP	32	168	7
HLD	32	192	5	48
TAP	32	240	4
TAP	32	264	7
TAP	32	288	5
TAP	32	288	6
TAP	32	336	0
TAP	32	336	3
HLD	33	0	2	48
TAP	33	48	3
TAP	33	72	7
HLD	33	96	5	48
TAP	33	144	4
TAP	33	168	0
HLD	33	192	2	48
TAP	33	240	3
TAP	33	264	0
TAP	33	288	1
TAP	33	288	2
TAP	33	336	4
TAP	33	336	7
HLD	34	0	5	48
TAP	34	48	7
TAP	34	72	0
TAP	34	96	1
TAP	34	96	6
TAP	34	144	2
TAP	34	144	5
TAP	34	192	3
TAP	34	208	3
TAP	34	224	3
TAP	34	240	4
TAP	34	256	4
TAP	34	272	4
TAP	34	288	2
TAP	34	336	1
TAP	34	336	6
HLD	35	0	2	48
TAP	35	48	7
TAP	35	72	0
TAP	35	96	5
TAP	35	120	4
TAP	35	120	5
TAP	35	144	3
TAP	35	144	4
TAP	35	168	2
TAP	35	168	3
TAP	35	216	1
TAP	35	216	6
TAP	35	264	0
TAP	35	264	7
TAP	35	288	0
TAP	35	288	7
TAP	35	336	1
TAP	35	336	6
TAP	36	0	3
TAP	36	0	4
TAP	36	48	3
STR	36	48	4
SI_	36	48	4	96	72	0
STR	36	144	3
SI_	36	144	3	96	72	7
STR	36	240	4
SV_	36	240	4	96	72	1
STR	36	336	3
SV_	36	336	3	96	72	6
STR	37	48	4
SI_	37	48	4	96	72	0
STR	37	144	3
SI_	37	144	3	96	72	7
TAP	37	240	4
TAP	37	336	2
TAP	37	336	3
TAP	38	0	4
TAP	38	0	5
STR	38	48	3
SI_	38	48	3	96	72	7
TAP	38	48	6
STR	38	144	4
SI_	38	144	4	96	72	0
STR	38	240	5
SI_	38	240	5	96	72	1
STR	38	336	6
SI_	38	336	6	96	72	2
STR	39	48	7
SI_	39	48	7	96	72	3
TAP	39	144	0
TAP	39	192	0
TAP	39	216	1
TAP	39	240	2
TAP	39	264	3
TAP	39	288	4
TAP	39	312	5
TAP	39	336	6
TAP	39	360	7
HLD	40	0	0	96
TAP	40	96	1
HLD	40	192	7	96
TAP	40	288	6
HLD	41	0	3	96
TAP	41	96	4
TAP	41	144	2
TAP	41	144	5
TAP	41	192	1
TAP	41	192	6
TAP	41	240	0
TAP	41	288	0
STR	42	0	1
SI_	42	0	1	96	72	3
STR	42	0	5
SI_	42	0	5	96	72	0
STR	42	192	2
SI_	42	192	2	96	72	7
STR	42	192	6
SI_	42	192	6	96	72	4
STR	43	0	0
SCR	43	0	0	96	48	3
STR	43	96	4
SCR	43	96	4	96	48	7
STR	43	192	0
SI_	43	192	0	96	24	4
TAP	43	288	7
BRK	43	336	1
BRK	43	336	6
TAP	44	0	0
TAP	44	0	1
HLD	44	48	3	48
TAP	44	48	6
TAP	44	96	5
TAP	44	120	4
TAP	44	144	5
TAP	44	168	6
TAP	44	192	5
TAP	44	192	7
TAP	44	240	1
HLD	44	240	4	48
TAP	44	288	2
TAP	44	312	3
TAP	44	336	2
TAP	44	360	1
TAP	45	0	0
TAP	45	0	2
TAP	45	48	3
TAP	45	48	6
STR	45	96	0
SLR	45	96	0	96	72	6
STR	45	96	1
SLR	45	96	1	96	72	5
TAP	45	144	6
TAP	45	144	7
TAP	45	288	0
TAP	45	288	7
TAP	45	336	1
TAP	45	336	6
TAP	46	0	2
TAP	46	0	4
TAP	46	48	3
HLD	46	48	6	48
TAP	46	96	5
TAP	46	120	6
TAP	46	144	5
TAP	46	168	4
TAP	46	192	3
TAP	46	192	5
HLD	46	240	1	48
TAP	46	240	4
TAP	46	288	2
TAP	46	312	1
TAP	46	336	2
TAP	46	360	3
TAP	47	0	2
TAP	47	0	4
TAP	47	48	3
TAP	47	48	4
TAP	47	72	3
TAP	47	72	4
TAP	47	120	0
TAP	47	120	2
TAP	47	168	5
TAP	47	168	7
TAP	47	216	3
TAP	47	240	4
TAP	47	264	3
TAP	47	288	4
TAP	47	336	1
TAP	47	336	6
TAP	48	0	6
TAP	48	0	7
HLD	48	48	1	48
TAP	48	48	4
TAP	48	96	2
TAP	48	120	1
TAP	48	144	2
TAP	48	168	3
TAP	48	192	2
TAP	48	192	4
TAP	48	240	3
HLD	48	240	6	48
TAP	48	288	5
TAP	48	312	6
TAP	48	336	5
TAP	48	360	4
TAP	49	0	3
TAP	49	0	5
TAP	49	48	1
TAP	49	48	4
STR	49	96	6
SLL	49	96	6	96	72	2
STR	49	96	7
SLL	49	96	7	96	72	1
TAP	49	144	0
TAP	49	144	1
TAP	49	288	0
TAP	49	288	7
TAP	49	336	1
TAP	49	336	6
TAP	50	0	1
TAP	50	0	3
HLD	50	48	3	48
TAP	50	48	7
TAP	50	96	2
TAP	50	120	3
TAP	50	144	2
TAP	50	168	1
TAP	50	192	0
TAP	50	192	2
TAP	50	240	0
HLD	50	240	4	48
TAP	50	288	5
TAP	50	312	4
TAP	50	336	5
TAP	50	360	6
TAP	51	0	5
TAP	51	0	7
TAP	51	48	3
TAP	51	48	4
TAP	51	72	3
TAP	51	72	4
TAP	51	120	5
TAP	51	120	7
TAP	51	168	0
TAP	51	168	2
TAP	51	216	4
TAP	51	240	3
TAP	51	264	4
TAP	51	288	3
TAP	51	336	1
TAP	51	336	6
TAP	52	0	2
HLD	52	0	7	96
HLD	52	48	6	48
TAP	52	120	0
TAP	52	120	5
TAP	52	144	0
TAP	52	144	5
TAP	52	192	2
STR	52	192	3
SI_	52	192	3	96	48	7
TAP	52	240	0
TAP	52	264	0
TAP	52	336	6
HLD	53	0	0	96
TAP	53	0	5
HLD	53	48	1	48
TAP	53	120	2
TAP	53	120	7
TAP	53	144	2
TAP	53	144	7
STR	53	192	4
SI_	53	192	4	96	48	0
TAP	53	192	5
TAP	53	240	7
TAP	53	264	7
TAP	53	336	1
HLD	54	0	0	24
HLD	54	0	7	24
HLD	54	48	6	24
HLD	54	48	7	24
HLD	54	96	0	24
HLD	54	96	7	24
HLD	54	144	0	24
HLD	54	144	1	24
HLD	54	192	0	24
HLD	54	192	7	24
HLD	54	240	5	24
HLD	54	240	7	24
HLD	54	288	0	24
HLD	54	288	7	24
HLD	54	336	0	24
HLD	54	336	2	24
HLD	55	0	0	24
HLD	55	0	7	24
HLD	55	48	4	24
HLD	55	48	6	24
HLD	55	96	0	24
HLD	55	96	7	24
HLD	55	144	1	24
HLD	55	144	3	24
TAP	55	192	0
TAP	55	192	7
TAP	55	240	4
TAP	55	240	6
TAP	55	288	1
TAP	55	288	3
BRK	55	336	7
STR	56	0	3
SCL	56	0	3	96	576	4
TAP	56	96	4
TAP	56	216	4
TAP	56	336	4

T_REC_TAP	413
T_REC_BRK	9
T_REC_XTP	0
T_REC_HLD	150
T_REC_XHO	0
T_REC_STR	44
T_REC_BST	0
T_REC_XST	0
T_REC_TTP	0
T_REC_THO	0
T_REC_SLD	44
T_REC_ALL	660
T_NUM_TAP	457
T_NUM_BRK	9
T_NUM_HLD	150
T_NUM_SLD	44
T_NUM_ALL	660
T_JUDGE_TAP	466
T_JUDGE_HLD	275
T_JUDGE_SLD	44
T_JUDGE_ALL	785
TTM_EACHPAIRS	169
TTM_SCR_TAP	228500
TTM_SCR_BRK	23400
TTM_SCR_HLD	150000
TTM_SCR_SLD	66000
TTM_SCR_ALL	467900
TTM_SCR_S	453000
TTM_SCR_SS	467000
TTM_RAT_ACV	10019

