VERSION	0.00.00	1.03.00
FES_MODE	0
BPM_DEF	105.000	105.000	105.000	105.000
MET_DEF	4	4
RESOLUTION	384
CLK_DEF	384
COMPATIBLE_CODE	MA2

BPM	0	0	105.000

HLD	1	0	0	384
TAP	2	0	7
TAP	2	48	6
TAP	2	96	5
TAP	2	144	4
TAP	2	192	3
TAP	2	240	2
TAP	2	288	1
TAP	2	336	0
HLD	3	0	7	96
TAP	3	96	5
HLD	3	192	0	96
TAP	3	288	2
HLD	4	0	6	96
TAP	4	96	4
HLD	4	192	1	96
TAP	4	288	3
HLD	5	0	5	96
TAP	5	48	4
TAP	5	96	4
HLD	5	192	2	96
TAP	5	240	3
TAP	5	288	3
HLD	6	0	4	336
TAP	6	48	3
TAP	6	96	2
TAP	6	144	1
TAP	6	192	0
TAP	6	240	7
TAP	6	288	6
TAP	6	336	5
STR	7	0	3
SXR	7	0	3	96	192	0
STR	7	0	4
SXL	7	0	4	96	192	7
TAP	8	0	2
TAP	8	24	2
TAP	8	48	3
TAP	8	96	1
TAP	8	96	4
TAP	8	144	2
TAP	8	144	3
TAP	8	192	5
TAP	8	216	5
TAP	8	240	4
TAP	8	288	3
TAP	8	288	6
TAP	8	336	4
TAP	8	336	5
TAP	9	0	2
TAP	9	24	2
TAP	9	48	3
TAP	9	96	1
TAP	9	96	4
TAP	9	144	2
TAP	9	144	3
HLD	9	192	6	48
HLD	9	192	7	48
STR	9	288	2
SCL	9	288	2	96	96	5
STR	9	288	3
SUL	9	288	3	96	96	4
TAP	10	192	6
TAP	10	216	6
TAP	10	240	7
TAP	10	288	0
TAP	10	288	5
TAP	10	336	0
TAP	10	336	5
TAP	11	0	1
TAP	11	24	1
TAP	11	48	0
TAP	11	96	2
TAP	11	96	7
TAP	11	144	2
TAP	11	144	7
BRK	11	192	1
BRK	11	192	6
STR	12	0	1
SI_	12	0	1	96	48	3
STR	12	96	4
SI_	12	96	4	96	48	6
TAP	12	192	0
TAP	12	240	0
TAP	12	288	1
TAP	12	288	7
STR	13	0	6
SI_	13	0	6	96	48	4
STR	13	96	3
SI_	13	96	3	96	48	1
TAP	13	192	7
TAP	13	240	7
TAP	13	288	0
TAP	13	288	6
TAP	14	0	3
TAP	14	0	4
TAP	14	48	2
TAP	14	96	3
TAP	14	96	4
TAP	14	144	5
TAP	14	192	3
TAP	14	192	4
TAP	14	240	1
TAP	14	288	3
TAP	14	288	4
TAP	14	336	6
TAP	15	0	3
TAP	15	0	4
TAP	15	48	0
TAP	15	96	3
TAP	15	96	4
TAP	15	144	7
TAP	15	192	3
TAP	15	216	3
TAP	15	240	4
TAP	15	264	4
TAP	15	288	3
BRK	15	336	2
STR	16	0	1
SCR	16	0	1	96	48	4
STR	16	192	5
SCR	16	192	5	96	48	0
STR	17	0	1
SI_	17	0	1	96	48	3
STR	17	96	7
SI_	17	96	7	96	48	5
STR	17	192	0
SI_	17	192	0	96	48	4
STR	18	0	6
SCL	18	0	6	96	48	3
STR	18	192	2
SCL	18	192	2	96	48	7
STR	19	0	6
SI_	19	0	6	96	48	4
STR	19	96	0
SI_	19	96	0	96	48	2
STR	19	192	7
SI_	19	192	7	96	48	3
TAP	20	0	2
TAP	20	0	4
TAP	20	48	2
TAP	20	96	2
TAP	20	144	2
TAP	20	192	2
TAP	20	192	5
TAP	20	240	2
TAP	20	288	2
TAP	20	336	2
TAP	21	0	2
TAP	21	0	6
TAP	21	48	2
TAP	21	96	2
TAP	21	96	4
TAP	21	144	2
TAP	21	192	2
TAP	21	192	5
TAP	21	240	2
TAP	21	288	2
TAP	21	288	3
TAP	22	0	3
TAP	22	0	5
TAP	22	48	5
TAP	22	96	5
TAP	22	144	5
TAP	22	192	2
TAP	22	192	5
TAP	22	240	5
TAP	22	288	5
TAP	22	336	5
TAP	23	0	1
TAP	23	0	5
TAP	23	48	5
TAP	23	96	3
TAP	23	96	5
TAP	23	144	5
TAP	23	192	2
TAP	23	192	5
TAP	23	240	5
TAP	23	288	4
TAP	23	288	5
BRK	23	336	1
BRK	23	336	7
TAP	24	0	0
TAP	24	48	1
TAP	24	48	7
TAP	24	96	0
TAP	24	144	2
TAP	24	144	6
TAP	24	192	0
TAP	24	240	3
TAP	24	240	5
TAP	24	288	0
BRK	24	336	4
TAP	25	0	7
TAP	25	48	0
TAP	25	48	6
TAP	25	96	7
TAP	25	144	1
TAP	25	144	5
TAP	25	192	7
TAP	25	240	2
TAP	25	240	4
TAP	25	288	7
TAP	25	312	7
TAP	25	336	0
TAP	25	360	0
TAP	26	0	7
TAP	26	48	1
TAP	26	48	5
TAP	26	96	4
TAP	26	144	2
TAP	26	144	6
TAP	26	192	3
TAP	26	240	1
TAP	26	240	5
TAP	26	288	0
TAP	26	336	2
TAP	26	336	6
TAP	27	0	4
TAP	27	24	4
TAP	27	48	3
TAP	27	72	3
TAP	27	96	4
TAP	27	120	4
TAP	27	144	3
BRK	27	192	1
BRK	27	192	6
TAP	27	288	3
TAP	27	288	4
BRK	27	336	0
BRK	27	336	7
TAP	28	0	1
TAP	28	48	2
TAP	28	48	7
TAP	28	96	6
TAP	28	144	0
TAP	28	144	5
TAP	28	192	1
STR	28	240	0
SI_	28	240	0	96	48	4
TAP	28	288	7
TAP	29	0	6
TAP	29	48	0
TAP	29	48	5
TAP	29	96	1
TAP	29	144	2
TAP	29	144	7
TAP	29	192	6
TAP	29	240	0
TAP	29	240	4
TAP	29	288	1
TAP	29	336	3
TAP	29	336	7
TAP	30	0	6
TAP	30	48	5
STR	30	96	4
SSL	30	96	4	96	96	0
TAP	30	144	3
TAP	31	0	6
TAP	31	48	6
TAP	31	48	7
TAP	31	96	1
TAP	31	144	0
TAP	31	144	1
TAP	31	192	6
TAP	31	192	7
TAP	31	240	4
TAP	31	240	5
TAP	31	288	2
TAP	31	288	3
TAP	31	336	0
TAP	31	336	1
TAP	32	0	6
TAP	32	48	0
TAP	32	48	5
TAP	32	96	1
TAP	32	144	2
TAP	32	144	7
TAP	32	192	6
STR	32	240	7
SI_	32	240	7	96	48	3
TAP	32	288	0
TAP	33	0	1
TAP	33	48	2
TAP	33	48	7
TAP	33	96	6
TAP	33	144	0
TAP	33	144	5
TAP	33	192	1
TAP	33	240	3
TAP	33	240	7
TAP	33	288	6
TAP	33	336	0
TAP	33	336	4
TAP	34	0	1
TAP	34	48	2
STR	34	96	3
SSR	34	96	3	96	96	7
TAP	34	144	4
TAP	35	0	6
TAP	35	48	6
TAP	35	48	7
TAP	35	96	1
TAP	35	144	0
TAP	35	144	1
TAP	35	192	2
TAP	35	192	3
TAP	35	240	4
TAP	35	240	5
TAP	35	288	6
TAP	35	288	7
BRK	35	336	0
BRK	35	336	1
HLD	36	0	2	96
TAP	36	48	3
HLD	36	96	5	96
TAP	36	144	4
HLD	36	192	1	96
TAP	36	240	3
HLD	36	288	6	96
TAP	36	336	4
HLD	37	0	0	96
TAP	37	48	2
HLD	37	96	7	96
TAP	37	144	5
HLD	37	192	1	96
TAP	37	240	2
HLD	37	288	6	96
TAP	37	336	5
HLD	38	0	1	96
TAP	38	48	0
HLD	38	96	6	96
TAP	38	144	7
HLD	38	192	2	96
TAP	38	240	0
HLD	38	288	5	96
TAP	38	336	7
HLD	39	0	3	96
TAP	39	48	0
HLD	39	96	4	96
TAP	39	144	7
BRK	39	192	3
TAP	40	0	2
TAP	40	192	4
TAP	41	0	6
TAP	41	96	5
TAP	41	192	4
TAP	42	0	5
TAP	42	192	3
TAP	43	0	1
TAP	43	96	2
TAP	43	192	3
TAP	43	288	4
BRK	43	336	0
BRK	43	336	4
TAP	44	0	1
TAP	44	48	0
TAP	44	48	2
TAP	44	96	6
TAP	44	144	5
TAP	44	144	7
TAP	44	192	1
STR	44	240	0
SI_	44	240	0	96	48	4
TAP	44	288	7
TAP	45	0	5
TAP	45	48	4
TAP	45	48	6
TAP	45	96	2
TAP	45	144	1
TAP	45	144	3
TAP	45	192	5
TAP	45	240	4
TAP	45	240	7
TAP	45	288	2
TAP	45	336	0
TAP	45	336	3
TAP	46	0	6
TAP	46	48	0
STR	46	96	2
SCL	46	96	2	96	96	5
TAP	46	144	4
BRK	46	336	0
BRK	46	336	7
TAP	47	0	2
TAP	47	48	3
TAP	47	96	4
TAP	47	144	5
TAP	47	192	6
TAP	47	192	7
TAP	47	240	0
TAP	47	240	1
TAP	47	288	2
TAP	47	288	3
TAP	47	336	4
TAP	47	336	5
TAP	48	0	6
TAP	48	48	5
TAP	48	48	7
TAP	48	96	1
TAP	48	144	0
TAP	48	144	2
TAP	48	192	6
STR	48	240	7
SI_	48	240	7	96	48	3
TAP	48	288	0
TAP	49	0	2
TAP	49	48	1
TAP	49	48	3
TAP	49	96	5
TAP	49	144	4
TAP	49	144	6
TAP	49	192	2
TAP	49	240	0
TAP	49	240	3
TAP	49	288	5
TAP	49	336	4
TAP	49	336	7
TAP	50	0	1
TAP	50	48	7
STR	50	96	5
SCR	50	96	5	96	96	2
TAP	50	144	3
BRK	50	336	0
BRK	50	336	7
TAP	51	0	5
TAP	51	48	4
TAP	51	96	3
TAP	51	144	2
TAP	51	192	0
TAP	51	192	1
TAP	51	240	2
TAP	51	240	7
TAP	51	288	0
TAP	51	288	5
TAP	51	336	6
TAP	51	336	7
TAP	52	0	0
TAP	52	0	2
TAP	52	48	0
TAP	52	48	2
STR	52	96	4
SUR	52	96	4	96	96	3
STR	52	96	5
SCR	52	96	5	96	96	2
TAP	52	144	4
TAP	52	144	5
TAP	53	0	5
TAP	53	0	7
TAP	53	48	5
TAP	53	48	7
STR	53	96	2
SCL	53	96	2	96	96	5
STR	53	96	3
SUL	53	96	3	96	96	4
TAP	53	144	2
TAP	53	144	3
TAP	54	0	3
TAP	54	0	4
TAP	54	48	1
TAP	54	48	3
TAP	54	96	3
TAP	54	96	4
TAP	54	144	4
TAP	54	144	6
TAP	54	192	3
TAP	54	192	4
TAP	54	240	0
TAP	54	240	2
TAP	54	288	3
TAP	54	288	4
TAP	54	336	5
TAP	54	336	7
TAP	55	0	3
TAP	55	0	4
TAP	55	48	0
TAP	55	48	1
TAP	55	96	3
TAP	55	96	4
TAP	55	144	6
TAP	55	144	7
TAP	55	192	0
TAP	55	216	0
TAP	55	240	0
TAP	55	264	0
STR	55	288	0
SXL	55	288	0	96	576	5
BRK	55	336	7

T_REC_TAP	382
T_REC_BRK	20
T_REC_XTP	0
T_REC_HLD	24
T_REC_XHO	0
T_REC_STR	31
T_REC_BST	0
T_REC_XST	0
T_REC_TTP	0
T_REC_THO	0
T_REC_SLD	31
T_REC_ALL	488
T_NUM_TAP	413
T_NUM_BRK	20
T_NUM_HLD	24
T_NUM_SLD	31
T_NUM_ALL	488
T_JUDGE_TAP	433
T_JUDGE_HLD	114
T_JUDGE_SLD	31
T_JUDGE_ALL	578
TTM_EACHPAIRS	115
TTM_SCR_TAP	206500
TTM_SCR_BRK	52000
TTM_SCR_HLD	24000
TTM_SCR_SLD	46500
TTM_SCR_ALL	329000
TTM_SCR_S	317200
TTM_SCR_SS	327000
TTM_RAT_ACV	10061

