VERSION	0.00.00	1.03.00
FES_MODE	0
BPM_DEF	105.000	105.000	105.000	105.000
MET_DEF	4	4
RESOLUTION	384
CLK_DEF	384
COMPATIBLE_CODE	MA2

BPM	0	0	105.000

HLD	1	0	0	672
HLD	3	0	6	672
HLD	3	0	7	672
TAP	5	0	0
TAP	5	96	0
TAP	5	192	1
TAP	5	288	1
TAP	6	0	2
TAP	6	96	2
TAP	6	192	3
STR	6	288	3
SI_	6	288	3	96	192	0
STR	6	288	4
SI_	6	288	4	96	192	7
TAP	8	0	7
TAP	8	96	7
TAP	8	192	6
TAP	8	288	6
TAP	9	0	5
TAP	9	96	5
HLD	9	192	3	96
HLD	9	192	4	96
HLD	10	0	2	96
HLD	10	0	5	96
TAP	10	192	1
TAP	10	288	1
TAP	11	0	0
TAP	11	96	0
TAP	11	192	0
TAP	11	192	7
TAP	12	0	0
TAP	12	96	0
TAP	12	192	1
TAP	12	192	7
TAP	12	288	1
TAP	12	288	7
TAP	13	0	7
TAP	13	96	7
TAP	13	192	0
TAP	13	192	6
TAP	13	288	0
TAP	13	288	6
TAP	14	0	1
TAP	14	0	7
TAP	14	96	1
TAP	14	96	7
TAP	14	192	0
TAP	14	192	6
TAP	14	288	0
TAP	14	288	6
TAP	15	0	0
TAP	15	0	7
TAP	15	96	0
TAP	15	96	7
TAP	15	192	1
TAP	15	192	6
HLD	16	0	2	96
TAP	16	192	2
TAP	16	192	3
TAP	16	288	2
TAP	16	288	3
HLD	17	0	5	96
TAP	17	192	4
TAP	17	192	5
TAP	17	288	4
TAP	17	288	5
HLD	18	0	2	96
TAP	18	192	1
TAP	18	192	3
TAP	18	288	1
TAP	18	288	3
HLD	19	0	5	96
TAP	19	192	4
TAP	19	192	6
BRK	19	288	4
BRK	19	288	6
HLD	20	0	2	96
HLD	20	0	3	96
HLD	20	192	2	96
HLD	20	192	3	96
TAP	21	0	2
TAP	21	0	3
TAP	21	96	4
TAP	21	96	5
HLD	21	192	6	96
HLD	21	192	7	96
HLD	22	0	4	96
HLD	22	0	5	96
HLD	22	192	4	96
HLD	22	192	5	96
TAP	23	0	4
TAP	23	0	5
TAP	23	96	2
TAP	23	96	3
TAP	23	192	0
TAP	23	192	1
BRK	23	288	6
BRK	23	288	7
TAP	24	0	6
TAP	24	48	6
TAP	24	96	6
TAP	24	192	7
TAP	24	240	7
TAP	24	288	7
TAP	25	0	0
TAP	25	48	0
TAP	25	96	0
TAP	25	192	1
TAP	25	240	0
TAP	25	288	1
TAP	26	0	2
TAP	26	48	2
TAP	26	96	2
TAP	26	192	3
TAP	26	240	3
TAP	26	288	3
HLD	27	0	4	192
HLD	27	0	5	192
BRK	27	288	3
BRK	27	288	6
TAP	28	0	2
TAP	28	96	2
TAP	28	192	1
TAP	28	288	1
TAP	29	0	0
TAP	29	96	0
TAP	29	192	7
TAP	29	288	0
TAP	29	288	6
TAP	30	0	5
TAP	30	96	5
TAP	30	192	6
TAP	30	288	6
TAP	31	0	7
TAP	31	96	7
TAP	31	192	0
TAP	31	288	1
TAP	31	288	7
HLD	32	0	2	96
HLD	32	192	3	96
HLD	32	192	5	96
TAP	33	0	6
TAP	33	96	6
TAP	33	192	7
TAP	33	288	0
TAP	33	288	6
HLD	34	0	5	96
HLD	34	192	2	96
HLD	34	192	4	96
TAP	35	0	1
TAP	35	96	1
TAP	35	192	0
BRK	35	288	1
BRK	35	288	7
HLD	36	0	6	96
HLD	36	0	7	96
TAP	36	192	5
TAP	36	240	4
TAP	36	288	5
HLD	37	0	4	96
HLD	37	0	5	96
TAP	37	192	3
TAP	37	240	4
TAP	37	288	3
HLD	38	0	2	96
HLD	38	0	3	96
TAP	38	192	1
TAP	38	240	0
STR	38	288	1
SI_	38	288	1	96	192	4
TAP	40	0	4
TAP	40	0	5
TAP	40	192	2
TAP	40	192	3
TAP	41	0	4
TAP	41	0	5
TAP	41	96	3
TAP	41	96	4
HLD	41	192	2	96
HLD	41	192	3	96
TAP	42	0	2
TAP	42	48	2
TAP	42	96	2
TAP	42	192	1
TAP	42	240	1
TAP	42	288	1
TAP	43	0	0
TAP	43	48	0
TAP	43	96	0
TAP	43	192	7
TAP	43	240	7
BRK	43	288	0
BRK	43	288	7
TAP	44	0	6
TAP	44	48	6
TAP	44	96	6
TAP	44	192	5
TAP	44	240	5
TAP	44	288	5
TAP	45	0	4
TAP	45	48	4
TAP	45	96	3
TAP	45	144	3
TAP	45	192	4
TAP	45	240	4
TAP	45	288	3
TAP	45	288	4
TAP	46	0	2
TAP	46	48	2
TAP	46	96	2
TAP	46	192	1
TAP	46	240	1
TAP	46	288	1
TAP	47	0	0
TAP	47	48	0
TAP	47	96	7
TAP	47	144	7
TAP	47	192	0
TAP	47	240	0
TAP	47	288	0
TAP	47	288	7
HLD	48	0	0	96
HLD	48	0	6	96
HLD	48	192	1	96
HLD	48	192	7	96
TAP	49	0	6
TAP	49	48	6
TAP	49	96	5
TAP	49	144	5
TAP	49	192	4
TAP	49	240	3
TAP	49	288	4
HLD	50	0	2	96
HLD	50	0	4	96
HLD	50	192	3	96
HLD	50	192	5	96
TAP	51	0	2
TAP	51	48	2
TAP	51	96	1
TAP	51	144	1
TAP	51	192	0
TAP	51	240	7
TAP	51	288	0
TAP	52	0	2
TAP	52	0	3
TAP	52	96	2
TAP	52	96	3
TAP	52	192	0
TAP	52	192	1
TAP	52	288	0
TAP	52	288	1
TAP	53	0	4
TAP	53	0	5
TAP	53	96	4
TAP	53	96	5
TAP	53	192	6
TAP	53	192	7
TAP	53	288	6
TAP	53	288	7
TAP	54	0	0
TAP	54	48	0
TAP	54	96	1
TAP	54	144	1
TAP	54	192	2
TAP	54	240	2
TAP	54	288	3
TAP	54	336	3
TAP	55	0	4
TAP	55	48	4
TAP	55	96	5
TAP	55	144	5
TAP	55	192	6
TAP	55	240	6
TAP	55	288	7
TAP	55	336	7
STR	56	0	0
SI_	56	0	0	96	480	4

T_REC_TAP	214
T_REC_BRK	10
T_REC_XTP	0
T_REC_HLD	45
T_REC_XHO	0
T_REC_STR	4
T_REC_BST	0
T_REC_XST	0
T_REC_TTP	0
T_REC_THO	0
T_REC_SLD	4
T_REC_ALL	277
T_NUM_TAP	218
T_NUM_BRK	10
T_NUM_HLD	45
T_NUM_SLD	4
T_NUM_ALL	277
T_JUDGE_TAP	228
T_JUDGE_HLD	260
T_JUDGE_SLD	4
T_JUDGE_ALL	492
TTM_EACHPAIRS	66
TTM_SCR_TAP	109000
TTM_SCR_BRK	26000
TTM_SCR_HLD	45000
TTM_SCR_SLD	6000
TTM_SCR_ALL	186000
TTM_SCR_S	179450
TTM_SCR_SS	185000
TTM_RAT_ACV	10054

