VERSION	0.00.00	1.03.00
FES_MODE	0
BPM_DEF	200.000	200.000	200.000	200.000
MET_DEF	4	4
RESOLUTION	384
CLK_DEF	384
COMPATIBLE_CODE	MA2

BPM	0	0	200.000
MET	0	0	4	4

TAP	1	336	4
TAP	1	360	3
BST	2	0	2
SXR	2	0	2	96	288	3
BST	2	0	6
SXR	2	0	6	96	288	7
HLD	3	192	2	144
TAP	3	336	3
TAP	3	360	4
BST	4	0	1
SXL	4	0	1	96	288	0
BST	4	0	5
SXL	4	0	5	96	288	4
HLD	5	192	6	96
HLD	5	288	1	96
HLD	6	0	7	480
TAP	6	96	0
TAP	6	192	0
TAP	6	288	0
TAP	7	0	0
TAP	7	96	0
TAP	7	192	1
TAP	7	192	7
TAP	7	240	2
HLD	7	288	3	96
TAP	7	288	5
BRK	8	0	4
TAP	8	96	1
TAP	8	120	0
TAP	8	144	2
TAP	8	144	7
TAP	8	240	6
TAP	8	264	7
TAP	8	288	0
TAP	8	288	5
TAP	9	0	1
TAP	9	24	0
TAP	9	48	3
TAP	9	48	7
TAP	9	144	6
TAP	9	168	7
HLD	9	192	0	96
HLD	9	192	4	96
BRK	10	0	1
BRK	10	0	6
TAP	10	48	7
TAP	10	96	2
TAP	10	144	5
TAP	10	192	1
TAP	10	240	4
TAP	10	288	0
TAP	10	336	6
TAP	10	360	6
TAP	11	0	7
TAP	11	48	5
TAP	11	96	4
TAP	11	144	3
STR	11	192	2
SI_	11	192	2	96	48	7
TAP	11	336	6
TAP	11	360	5
TAP	12	0	4
TAP	12	48	0
TAP	12	72	1
TAP	12	96	2
TAP	12	144	5
TAP	12	168	4
TAP	12	192	3
TAP	12	240	2
TAP	12	240	3
TAP	12	288	1
TAP	12	288	4
TAP	12	336	0
TAP	12	336	5
TAP	13	0	6
TAP	13	24	7
TAP	13	48	6
TAP	13	72	7
TAP	13	96	6
TAP	13	120	7
TAP	13	144	6
TAP	13	168	7
HLD	13	192	6	96
BRK	13	288	3
TAP	14	0	1
TAP	14	32	0
TAP	14	64	1
TAP	14	96	6
TAP	14	128	7
TAP	14	160	6
TAP	14	192	2
TAP	14	224	3
TAP	14	256	2
TAP	14	288	5
TAP	14	320	4
TAP	14	352	5
TAP	15	0	1
TAP	15	32	0
TAP	15	64	2
TAP	15	96	6
TAP	15	128	7
TAP	15	160	5
TAP	15	192	2
TAP	15	224	3
TAP	15	256	1
TAP	15	288	5
TAP	15	320	4
TAP	15	352	6
TAP	16	0	0
TAP	16	24	7
TAP	16	48	0
TAP	16	72	7
TAP	16	96	0
TAP	16	120	7
TAP	16	144	0
TAP	16	168	7
TAP	16	192	0
TAP	16	216	7
TAP	16	240	0
TAP	16	264	7
TAP	16	288	0
TAP	16	312	7
TAP	16	336	0
TAP	16	360	7
TAP	17	0	0
TAP	17	12	1
TAP	17	24	2
TAP	17	36	3
TAP	17	48	4
TAP	17	60	5
TAP	17	72	6
TAP	17	84	7
TAP	17	96	0
TAP	17	108	1
TAP	17	120	2
TAP	17	132	3
TAP	17	144	4
TAP	17	156	5
TAP	17	168	6
TAP	17	180	7
HLD	17	192	0	192
BRK	18	0	7
TAP	18	48	1
TAP	18	72	0
TAP	18	96	1
STR	18	144	6
SI_	18	144	6	96	48	4
TAP	18	168	7
TAP	18	192	6
TAP	18	216	7
TAP	18	240	6
STR	18	336	1
SI_	18	336	1	96	48	3
TAP	19	0	5
TAP	19	48	1
STR	19	144	7
SI_	19	144	7	96	48	3
TAP	19	192	2
TAP	19	240	7
STR	19	336	0
SI_	19	336	0	96	48	4
TAP	20	0	5
TAP	20	48	0
STR	20	144	6
SI_	20	144	6	96	48	0
TAP	20	192	6
STR	20	288	2
SI_	20	288	2	96	48	4
TAP	20	336	2
TAP	21	48	0
TAP	21	96	7
STR	21	144	2
SI_	21	144	2	96	48	7
STR	21	144	6
SI_	21	144	6	96	48	3
TAP	21	240	2
TAP	21	240	6
TAP	22	0	0
TAP	22	0	7
TAP	22	48	6
TAP	22	72	7
TAP	22	96	6
STR	22	144	1
SI_	22	144	1	96	48	3
TAP	22	168	0
TAP	22	192	1
TAP	22	216	0
TAP	22	240	1
STR	22	336	6
SI_	22	336	6	96	48	4
TAP	23	0	2
TAP	23	48	6
STR	23	144	0
SI_	23	144	0	96	48	4
TAP	23	192	5
TAP	23	240	0
STR	23	336	7
SI_	23	336	7	96	48	3
TAP	24	0	2
TAP	24	48	7
STR	24	144	1
SI_	24	144	1	96	48	7
TAP	24	192	1
STR	24	288	5
SI_	24	288	5	96	48	3
TAP	24	336	5
TAP	25	48	7
TAP	25	96	0
TAP	25	144	1
TAP	25	144	5
BRK	26	0	3
BRK	26	0	7
TAP	26	96	6
TAP	26	120	5
TAP	26	144	0
TAP	26	144	4
TAP	26	240	1
TAP	26	264	2
TAP	26	288	3
TAP	26	288	7
TAP	27	0	5
TAP	27	24	4
TAP	27	48	3
TAP	27	48	7
TAP	27	144	2
TAP	27	168	3
TAP	27	192	0
TAP	27	192	4
BRK	27	288	2
BRK	27	288	5
TAP	28	0	0
TAP	28	0	7
TAP	28	48	0
TAP	28	72	0
TAP	28	96	2
TAP	28	144	7
TAP	28	168	7
TAP	28	192	5
TAP	28	240	1
TAP	28	264	1
TAP	28	288	3
TAP	28	336	6
TAP	28	360	6
TAP	29	0	4
TAP	29	48	0
TAP	29	72	0
TAP	29	96	2
TAP	29	144	7
TAP	29	168	7
STR	29	192	5
SCR	29	192	5	96	96	2
BRK	30	0	3
TAP	30	48	5
TAP	30	72	4
TAP	30	96	5
STR	30	144	2
SI_	30	144	2	96	48	0
TAP	30	168	3
TAP	30	192	2
TAP	30	216	3
TAP	30	240	2
STR	30	336	5
SI_	30	336	5	96	48	7
TAP	31	0	1
TAP	31	48	2
TAP	31	48	5
STR	31	144	3
SI_	31	144	3	96	48	7
TAP	31	192	6
TAP	31	240	3
TAP	31	240	5
STR	31	336	4
SI_	31	336	4	96	48	0
TAP	32	0	1
TAP	32	48	2
TAP	32	48	4
STR	32	144	2
SI_	32	144	2	96	48	4
TAP	32	192	2
STR	32	288	6
SI_	32	288	6	96	48	0
TAP	32	336	6
TAP	33	48	1
TAP	33	96	2
STR	33	144	3
SF_	33	144	3	96	72	7
BRK	33	240	3
TAP	34	0	1
TAP	34	0	5
TAP	34	48	2
TAP	34	72	3
TAP	34	96	2
STR	34	144	5
SI_	34	144	5	96	48	7
TAP	34	168	4
TAP	34	192	5
TAP	34	216	4
TAP	34	240	5
STR	34	336	2
SI_	34	336	2	96	48	0
TAP	35	0	6
TAP	35	48	2
TAP	35	48	5
STR	35	144	4
SI_	35	144	4	96	48	0
TAP	35	192	1
TAP	35	240	2
TAP	35	240	4
STR	35	336	3
SI_	35	336	3	96	48	7
TAP	36	0	6
TAP	36	48	3
TAP	36	48	5
STR	36	144	5
SI_	36	144	5	96	48	3
TAP	36	192	5
STR	36	288	1
SI_	36	288	1	96	48	7
TAP	36	336	1
TAP	37	48	6
TAP	37	96	5
TAP	37	144	0
TAP	37	144	4
BST	38	0	0
SI_	38	0	0	96	48	4
TAP	38	48	7
STR	38	96	0
SI_	38	96	0	96	48	2
TAP	38	144	6
STR	38	192	0
SI_	38	192	0	96	48	5
TAP	38	240	7
STR	38	288	0
SI_	38	288	0	96	48	3
TAP	38	336	6
STR	39	0	0
SI_	39	0	0	96	48	4
STR	39	48	7
SCL	39	48	7	96	144	0
TAP	39	96	0
TAP	39	144	7
BST	40	0	7
SI_	40	0	7	96	48	3
TAP	40	48	0
STR	40	96	7
SI_	40	96	7	96	48	5
TAP	40	144	1
STR	40	192	7
SI_	40	192	7	96	48	2
TAP	40	240	0
STR	40	288	7
SI_	40	288	7	96	48	4
TAP	40	336	1
STR	41	0	7
SI_	41	0	7	96	48	3
STR	41	48	0
SCR	41	48	0	96	144	7
TAP	41	96	7
TAP	41	144	0
BST	42	0	1
SXL	42	0	1	96	192	4
TAP	42	0	6
TAP	42	144	5
HLD	42	192	5	96
TAP	43	0	1
BST	43	0	6
SXR	43	0	6	96	192	3
TAP	43	144	2
HLD	43	192	2	96
BST	44	0	1
SCR	44	0	1	96	96	4
STR	44	96	4
SI_	44	96	4	96	96	0
STR	44	192	0
SCL	44	192	0	96	96	5
STR	44	288	5
SI_	44	288	5	96	96	1
STR	45	0	1
SCR	45	0	1	96	96	4
STR	45	96	4
SI_	45	96	4	96	96	0
TAP	45	192	0
TAP	46	0	3
TAP	46	0	4
TAP	46	48	2
TAP	46	96	1
TAP	46	144	0
TAP	46	192	0
TAP	46	192	7
TAP	46	240	6
TAP	46	288	5
TAP	46	336	4
TAP	47	0	1
TAP	47	0	4
TAP	47	48	3
TAP	47	48	6
TAP	47	96	0
TAP	47	96	5
TAP	47	144	2
TAP	47	144	7
TAP	47	192	1
TAP	47	192	6
TAP	47	240	2
TAP	47	240	5
STR	47	288	0
SUL	47	288	0	96	48	3
STR	47	288	7
SUR	47	288	7	96	48	4
BRK	48	0	0
BRK	48	0	7
TAP	48	96	1
TAP	48	96	5
TAP	48	144	2
TAP	48	192	6
TAP	48	240	3
TAP	48	288	7
TAP	48	336	1
TAP	48	360	1
TAP	49	0	0
TAP	49	48	2
TAP	49	96	3
TAP	49	144	4
STR	49	192	5
SI_	49	192	5	96	48	0
TAP	49	336	1
TAP	49	360	2
TAP	50	0	3
TAP	50	48	7
TAP	50	72	6
TAP	50	96	5
TAP	50	144	2
TAP	50	168	3
TAP	50	192	4
TAP	50	240	4
TAP	50	240	5
TAP	50	288	3
TAP	50	288	6
TAP	50	336	2
TAP	50	336	7
TAP	51	0	1
TAP	51	24	0
TAP	51	48	2
TAP	51	72	7
TAP	51	96	3
TAP	51	120	6
TAP	51	144	4
TAP	51	168	5
HLD	51	192	4	48
TAP	51	240	5
TAP	51	264	6
TAP	51	288	7
TAP	51	312	0
TAP	51	336	1
TAP	51	360	2
BRK	52	0	3
BRK	52	0	4
TAP	52	96	1
TAP	52	96	7
HLD	52	144	0	96
TAP	52	144	6
TAP	52	240	5
TAP	52	288	6
TAP	52	336	7
TAP	53	0	1
TAP	53	24	2
TAP	53	48	3
TAP	53	72	4
TAP	53	96	7
TAP	53	120	6
TAP	53	144	5
TAP	53	168	4
STR	53	192	0
SI_	53	192	0	96	48	4
TAP	53	336	7
TAP	53	360	6
TAP	54	0	5
TAP	54	48	0
TAP	54	72	1
TAP	54	96	2
TAP	54	144	5
TAP	54	168	4
TAP	54	192	3
TAP	54	240	2
TAP	54	240	3
TAP	54	288	1
TAP	54	288	4
TAP	54	336	0
TAP	54	336	5
TAP	55	0	6
TAP	55	24	7
TAP	55	48	5
TAP	55	72	0
TAP	55	96	4
TAP	55	120	1
TAP	55	144	3
TAP	55	168	2
HLD	55	192	3	96
BRK	55	288	7
TAP	56	0	0
TAP	56	32	6
TAP	56	64	0
TAP	56	96	7
TAP	56	128	7
TAP	56	160	7
TAP	56	192	2
TAP	56	224	4
TAP	56	256	2
TAP	56	288	3
TAP	56	320	3
TAP	56	352	3
TAP	57	0	1
TAP	57	32	7
TAP	57	64	1
TAP	57	96	0
TAP	57	128	0
TAP	57	160	0
TAP	57	192	3
TAP	57	224	5
TAP	57	256	3
TAP	57	288	4
TAP	57	320	4
TAP	57	352	4
TAP	58	0	0
TAP	58	32	6
TAP	58	64	1
TAP	58	96	5
TAP	58	128	2
TAP	58	160	4
TAP	58	192	3
TAP	58	224	3
TAP	58	256	3
TAP	58	288	4
TAP	58	320	4
TAP	58	352	4
TAP	59	0	3
TAP	59	32	5
TAP	59	64	2
TAP	59	96	6
TAP	59	128	1
TAP	59	160	7
TAP	59	192	0
TAP	59	224	0
TAP	59	256	0
TAP	59	288	7
TAP	59	320	7
TAP	59	352	7
TAP	60	0	0
TAP	60	24	1
TAP	60	48	2
TAP	60	72	3
TAP	60	96	6
TAP	60	120	5
TAP	60	144	4
TAP	60	168	3
TAP	60	192	1
TAP	60	216	0
TAP	60	240	7
TAP	60	264	6
TAP	60	288	5
TAP	60	312	4
TAP	60	336	3
TAP	60	360	2
TAP	61	0	7
TAP	61	24	6
TAP	61	48	5
TAP	61	72	4
TAP	61	96	1
TAP	61	120	2
TAP	61	144	3
TAP	61	168	4
TAP	61	192	6
TAP	61	216	7
TAP	61	240	0
TAP	61	264	1
TAP	61	288	2
TAP	61	312	3
TAP	61	336	4
TAP	61	360	5
TAP	62	0	0
TAP	62	96	0
TAP	62	108	1
TAP	62	120	2
TAP	62	132	3
TAP	62	144	4
TAP	62	156	5
TAP	62	168	6
TAP	62	180	7
TAP	62	192	0
TAP	62	204	1
TAP	62	216	2
TAP	62	228	3
TAP	62	240	4
TAP	62	252	5
TAP	62	264	6
TAP	62	276	7
TAP	62	288	0
TAP	63	0	0
TAP	63	24	4
TAP	63	48	1
TAP	63	72	5
TAP	63	96	0
TAP	63	120	4
TAP	63	144	1
TAP	63	168	5
TAP	63	192	0
TAP	63	216	4
TAP	63	240	1
TAP	63	264	5
TAP	63	288	0
TAP	63	312	4
TAP	63	336	1
TAP	63	360	5
STR	64	0	0
SSL	64	0	0	96	48	4
TAP	64	192	5
TAP	64	240	6
TAP	64	288	7
BST	64	336	0
SXR	64	336	0	96	336	5
BST	64	336	4
SXR	64	336	4	96	336	1
TAP	66	192	2
TAP	66	240	1
TAP	66	288	0
BST	66	336	3
SXL	66	336	3	96	336	6
BST	66	336	7
SXL	66	336	7	96	336	2
HLD	68	192	7	192
TAP	69	0	0
TAP	69	24	0
TAP	69	48	0
TAP	69	72	0
TAP	69	96	0
TAP	69	120	0
TAP	69	144	0
TAP	69	168	0
TAP	69	192	0
TAP	69	216	0
TAP	69	240	0
TAP	69	264	0
TAP	69	288	0
TAP	69	312	0
TAP	69	336	0
TAP	69	360	0
BST	70	0	1
SI_	70	0	1	96	24	4
TAP	70	48	1
STR	70	96	7
SI_	70	96	7	96	24	3
TAP	70	144	7
STR	70	192	0
SI_	70	192	0	96	24	4
TAP	70	240	0
STR	70	288	6
SI_	70	288	6	96	24	3
TAP	70	336	6
STR	71	0	1
SI_	71	0	1	96	24	5
TAP	71	48	1
STR	71	96	0
SI_	71	96	0	96	24	4
TAP	71	144	0
STR	71	192	7
SI_	71	192	7	96	24	3
TAP	71	240	7
STR	71	288	6
SI_	71	288	6	96	24	2
TAP	71	336	6
TAP	72	0	7
TAP	72	72	0
TAP	72	72	5
TAP	72	144	2
TAP	72	144	7
TAP	72	192	3
TAP	72	240	4
TAP	72	288	5
BRK	72	336	1
BRK	72	336	6
TAP	73	48	1
TAP	73	72	0
TAP	73	96	2
TAP	73	120	7
TAP	73	144	1
TAP	73	168	0
TAP	73	192	2
TAP	73	216	7
TAP	73	240	1
TAP	73	264	0
TAP	73	288	2
TAP	73	312	7
TAP	73	336	1
TAP	73	360	0
TAP	74	0	2
TAP	74	24	7
TAP	74	48	1
TAP	74	72	0
TAP	74	96	2
TAP	74	120	7
TAP	74	144	1
TAP	74	168	0
HLD	74	192	2	96
HLD	74	192	7	96
BRK	74	336	1
BRK	74	336	6
TAP	75	48	6
TAP	75	72	7
TAP	75	96	5
TAP	75	120	0
TAP	75	144	6
TAP	75	168	7
TAP	75	192	5
TAP	75	216	0
TAP	75	240	6
TAP	75	264	7
TAP	75	288	5
TAP	75	312	0
TAP	75	336	6
TAP	75	360	7
TAP	76	0	5
TAP	76	24	0
TAP	76	48	6
TAP	76	72	7
TAP	76	96	5
TAP	76	120	0
TAP	76	144	6
TAP	76	168	7
TAP	76	192	5
TAP	76	216	0
TAP	76	240	6
TAP	76	264	7
TAP	76	288	5
TAP	77	0	2
TAP	77	0	4
TAP	77	48	4
TAP	77	96	3
TAP	77	96	5
TAP	77	144	2
TAP	77	192	1
TAP	77	192	4
TAP	77	240	5
TAP	77	288	3
TAP	77	288	6
TAP	77	336	1
TAP	78	0	0
TAP	78	0	5
TAP	78	48	6
TAP	78	96	2
TAP	78	96	7
TAP	78	144	0
TAP	78	192	0
TAP	78	192	7
STR	78	240	0
SI_	78	240	0	96	48	3
STR	78	240	7
SI_	78	240	7	96	48	4
BRK	78	336	0
BRK	78	336	7
TAP	79	48	5
TAP	79	96	0
TAP	79	96	6
TAP	79	144	1
TAP	79	192	2
TAP	79	192	7
TAP	79	240	6
TAP	79	288	0
TAP	79	288	5
TAP	79	336	2
TAP	80	0	3
TAP	80	0	7
TAP	80	48	5
TAP	80	96	0
TAP	80	96	4
TAP	80	144	3
TAP	80	192	7
TAP	80	216	7
TAP	80	240	7
TAP	80	264	7
TAP	80	288	7
TAP	80	312	7
TAP	80	336	7
TAP	80	360	7
STR	81	0	7
SCL	81	0	7	96	192	0
TAP	82	0	2
TAP	82	48	3
TAP	82	96	4
TAP	82	144	5
TAP	82	192	3
TAP	82	192	4
STR	82	240	3
SI_	82	240	3	96	48	0
STR	82	240	4
SI_	82	240	4	96	48	7
BRK	82	336	3
BRK	82	336	4
TAP	83	48	5
TAP	83	96	2
TAP	83	96	6
TAP	83	144	7
TAP	83	192	0
TAP	83	240	1
TAP	83	240	5
TAP	83	288	2
TAP	83	336	3
TAP	84	0	0
TAP	84	0	4
TAP	84	48	5
TAP	84	96	6
TAP	84	144	3
TAP	84	144	7
TAP	84	192	0
TAP	84	240	1
TAP	84	288	2
TAP	84	288	6
TAP	84	336	3
TAP	85	0	5
TAP	85	48	4
TAP	85	96	3
TAP	85	96	7
TAP	85	144	2
TAP	85	192	1
TAP	85	240	0
TAP	85	240	4
TAP	85	288	7
TAP	85	336	6
TAP	86	0	0
TAP	86	0	5
TAP	86	48	4
TAP	86	96	3
TAP	86	144	2
TAP	86	144	7
TAP	86	192	1
TAP	86	208	0
TAP	86	224	1
TAP	86	240	0
TAP	86	288	2
TAP	86	288	6
TAP	86	336	3
TAP	86	336	5
TAP	87	0	4
TAP	87	48	2
TAP	87	96	1
TAP	87	96	5
TAP	87	144	0
TAP	87	192	7
TAP	87	240	2
TAP	87	240	6
TAP	87	288	5
TAP	87	336	4
TAP	88	0	3
TAP	88	0	7
TAP	88	48	2
TAP	88	96	1
TAP	88	144	0
TAP	88	144	4
TAP	88	192	7
TAP	88	240	6
TAP	88	288	1
TAP	88	288	5
TAP	88	336	4
TAP	89	0	2
TAP	89	48	3
TAP	89	96	0
TAP	89	96	4
TAP	89	144	5
TAP	89	192	6
TAP	89	240	3
TAP	89	240	7
TAP	89	288	0
TAP	89	336	1
TAP	90	0	2
TAP	90	0	7
TAP	90	48	3
TAP	90	96	4
TAP	90	144	0
TAP	90	144	5
STR	90	192	6
SI_	90	192	6	96	48	2
TAP	90	208	7
TAP	90	224	6
TAP	90	240	7
HLD	91	0	1	144
TAP	91	48	3
TAP	91	96	3
HLD	91	144	4	144
TAP	91	192	2
TAP	91	240	2
HLD	91	288	3	144
TAP	91	336	5
TAP	92	0	5
HLD	92	48	6	144
TAP	92	96	4
TAP	92	144	4
TAP	92	192	3
TAP	92	240	2
TAP	92	288	1
TAP	92	288	4
HLD	93	0	6	144
TAP	93	48	4
TAP	93	96	4
HLD	93	144	3	144
TAP	93	192	5
TAP	93	240	5
HLD	93	288	4	144
TAP	93	336	2
TAP	94	0	2
HLD	94	48	1	144
TAP	94	96	3
TAP	94	144	3
TAP	94	192	4
TAP	94	240	5
TAP	94	288	3
TAP	94	288	6
STR	95	0	1
SCR	95	0	1	96	72	4
TAP	95	48	6
TAP	95	96	1
TAP	95	144	6
TAP	95	240	5
TAP	95	288	4
TAP	95	288	5
STR	96	0	6
SCL	96	0	6	96	72	3
TAP	96	48	1
TAP	96	96	6
TAP	96	144	1
TAP	96	240	2
TAP	96	288	2
TAP	96	288	3
STR	97	0	1
SCR	97	0	1	96	72	4
TAP	97	48	6
TAP	97	96	1
TAP	97	144	6
TAP	97	240	5
TAP	97	288	4
TAP	97	288	5
TAP	98	0	6
TAP	98	48	6
TAP	98	48	7
TAP	98	96	0
TAP	98	96	5
TAP	98	144	1
TAP	98	144	4
TAP	98	192	2
TAP	98	192	3
TAP	98	240	4
TAP	98	240	5
TAP	98	288	1
TAP	98	288	6
BRK	98	336	0
BRK	98	336	7

T_REC_TAP	744
T_REC_BRK	26
T_REC_XTP	0
T_REC_HLD	25
T_REC_XHO	0
T_REC_STR	65
T_REC_BST	14
T_REC_XST	0
T_REC_TTP	0
T_REC_THO	0
T_REC_SLD	79
T_REC_ALL	953
T_NUM_TAP	809
T_NUM_BRK	40
T_NUM_HLD	25
T_NUM_SLD	79
T_NUM_ALL	953
T_JUDGE_TAP	849
T_JUDGE_HLD	70
T_JUDGE_SLD	79
T_JUDGE_ALL	998
TTM_EACHPAIRS	109
TTM_SCR_TAP	404500
TTM_SCR_BRK	104000
TTM_SCR_HLD	25000
TTM_SCR_SLD	118500
TTM_SCR_ALL	652000
TTM_SCR_S	628600
TTM_SCR_SS	648000
TTM_RAT_ACV	10061

