VERSION	0.00.00	1.03.00
FES_MODE	0
BPM_DEF	200.000	200.000	200.000	200.000
MET_DEF	4	4
RESOLUTION	384
CLK_DEF	384
COMPATIBLE_CODE	MA2

BPM	0	0	200.000

TAP	1	0	0
TAP	1	96	1
TAP	1	192	2
STR	1	288	3
SCR	1	288	3	96	480	2
TAP	3	192	4
STR	3	288	4
SCL	3	288	4	96	480	5
TAP	5	192	2
STR	5	288	2
SXR	5	288	2	96	480	4
TAP	6	0	3
TAP	7	192	5
STR	7	288	5
SXL	7	288	5	96	480	3
TAP	8	0	4
TAP	9	192	1
TAP	9	192	6
TAP	10	0	2
TAP	10	48	3
TAP	10	96	2
TAP	10	192	1
TAP	10	192	4
TAP	10	288	0
TAP	10	288	5
TAP	11	0	6
TAP	11	48	7
TAP	11	96	6
TAP	11	192	0
TAP	11	192	5
TAP	12	0	6
TAP	12	0	7
TAP	12	96	0
TAP	12	96	5
TAP	12	192	0
TAP	12	192	1
TAP	12	288	2
TAP	12	288	7
TAP	13	0	3
TAP	13	48	4
TAP	13	96	3
TAP	13	144	4
TAP	13	192	3
STR	14	0	0
SI_	14	0	0	96	48	4
TAP	14	0	7
TAP	14	192	0
STR	14	192	7
SI_	14	192	7	96	48	3
TAP	15	0	0
STR	15	0	1
SI_	15	0	1	96	48	4
STR	15	192	6
SI_	15	192	6	96	48	3
TAP	15	192	7
STR	16	0	2
SF_	16	0	2	96	192	6
TAP	17	0	0
TAP	17	0	6
TAP	17	96	1
TAP	17	96	7
HLD	17	192	2	96
HLD	17	192	5	96
TAP	18	0	2
TAP	18	48	3
TAP	18	96	2
HLD	18	192	4	96
HLD	18	192	6	96
TAP	19	0	5
TAP	19	48	4
TAP	19	96	5
HLD	19	192	1	96
HLD	19	192	3	96
TAP	20	0	3
TAP	20	48	4
TAP	20	96	3
HLD	20	192	2	96
HLD	20	192	5	96
TAP	21	0	0
TAP	21	0	7
TAP	21	96	1
TAP	21	96	6
TAP	21	192	0
STR	21	192	7
SI_	21	192	7	96	48	4
TAP	22	0	5
TAP	22	48	4
TAP	22	96	5
HLD	22	192	1	96
HLD	22	192	3	96
TAP	23	0	2
TAP	23	48	3
TAP	23	96	2
HLD	23	192	4	96
HLD	23	192	6	96
TAP	24	0	4
TAP	24	48	3
TAP	24	96	4
HLD	24	192	2	96
HLD	24	192	5	96
TAP	25	0	1
TAP	25	0	6
STR	25	96	0
SI_	25	96	0	96	48	3
TAP	25	96	7
STR	26	0	0
SCR	26	0	0	96	576	6
STR	26	0	7
SCL	26	0	7	96	576	1
TAP	28	0	1
TAP	28	48	1
TAP	28	96	7
TAP	28	144	7
TAP	28	192	0
TAP	28	240	0
TAP	28	288	6
TAP	28	336	6
TAP	29	0	3
TAP	29	48	3
TAP	29	96	4
BRK	29	192	2
BRK	29	192	5
TAP	30	0	1
TAP	30	48	0
TAP	30	96	1
TAP	30	192	2
TAP	30	192	7
TAP	30	288	0
TAP	30	288	4
TAP	31	0	2
TAP	31	48	3
TAP	31	96	2
TAP	31	192	1
TAP	31	192	4
TAP	31	288	3
TAP	31	288	7
TAP	32	0	2
TAP	32	48	0
TAP	32	96	2
TAP	32	192	1
TAP	32	192	7
TAP	32	288	3
TAP	32	288	5
TAP	32	336	3
TAP	32	336	5
TAP	33	48	6
TAP	33	96	0
TAP	33	144	7
TAP	33	240	0
TAP	33	240	7
TAP	34	0	6
TAP	34	48	7
TAP	34	96	6
TAP	34	192	0
TAP	34	192	5
TAP	34	288	3
TAP	34	288	7
TAP	35	0	5
TAP	35	48	4
TAP	35	96	5
TAP	35	192	3
TAP	35	192	6
TAP	35	288	0
TAP	35	288	4
TAP	36	0	5
TAP	36	48	7
TAP	36	96	5
TAP	36	192	0
TAP	36	192	6
TAP	36	288	2
TAP	36	288	4
TAP	36	336	2
TAP	36	336	4
TAP	37	48	1
TAP	37	96	7
TAP	37	144	0
TAP	38	0	3
HLD	38	0	4	192
TAP	38	96	5
HLD	38	192	3	192
TAP	38	288	2
HLD	39	0	4	192
TAP	39	96	6
HLD	39	192	3	192
TAP	39	288	1
HLD	40	0	4	192
TAP	40	96	7
HLD	40	192	3	192
TAP	40	288	0
HLD	41	0	4	192
TAP	41	96	7
HLD	41	192	3	96
TAP	41	288	4
HLD	42	0	0	192
TAP	42	0	7
TAP	42	96	1
HLD	42	192	7	192
TAP	42	288	6
HLD	43	0	0	192
TAP	43	96	2
HLD	43	192	7	192
TAP	43	288	5
HLD	44	0	0	192
TAP	44	96	3
HLD	44	192	7	192
TAP	44	288	4
HLD	45	0	0	96
TAP	45	96	7
BRK	45	192	2
BRK	45	192	5
TAP	46	0	6
TAP	46	48	6
TAP	46	96	0
TAP	46	144	0
TAP	46	192	7
TAP	46	240	7
TAP	46	288	1
TAP	46	336	1
TAP	47	0	4
TAP	47	48	4
TAP	47	96	3
TAP	47	144	3
STR	47	192	7
SI_	47	192	7	96	48	3
BRK	47	288	0
HLD	48	0	2	96
HLD	48	96	1	96
HLD	48	192	0	96
HLD	48	288	7	96
HLD	49	0	6	96
HLD	49	96	5	96
TAP	49	192	3
TAP	49	240	4
TAP	49	288	3
TAP	50	0	0
TAP	50	0	2
TAP	50	96	1
TAP	50	96	7
TAP	50	192	0
TAP	50	192	6
TAP	50	288	5
TAP	50	288	7
STR	51	0	4
SCL	51	0	4	96	144	1
SCR	51	0	4	96	144	7
TAP	52	0	4
TAP	52	0	6
TAP	52	96	3
TAP	52	96	5
TAP	52	192	2
TAP	52	192	4
TAP	52	288	1
TAP	52	288	3
STR	53	0	0
SCL	53	0	0	96	144	5
SCR	53	0	0	96	144	3
TAP	54	0	4
TAP	54	48	4
TAP	54	96	2
TAP	54	144	2
TAP	54	192	6
TAP	54	240	6
TAP	54	288	0
TAP	55	0	3
TAP	55	0	7
TAP	55	96	1
TAP	55	96	5
HLD	55	192	3	96
HLD	55	192	7	96
TAP	56	0	0
STR	56	0	7
SI_	56	0	7	96	48	3
STR	56	192	0
SI_	56	192	0	96	48	4
TAP	56	192	7
STR	57	0	6
SI_	57	0	6	96	48	3
TAP	57	0	7
TAP	57	192	0
STR	57	192	1
SI_	57	192	1	96	48	4
STR	58	0	5
SF_	58	0	5	96	192	1
TAP	59	0	3
TAP	59	0	7
TAP	59	96	1
TAP	59	96	5
TAP	59	192	2
TAP	59	192	6
TAP	59	288	0
TAP	59	288	4
TAP	60	0	6
TAP	60	48	7
TAP	60	96	5
TAP	60	144	0
TAP	60	192	4
TAP	60	240	1
TAP	60	288	3
TAP	61	0	1
TAP	61	48	0
TAP	61	96	2
TAP	61	144	7
TAP	61	192	3
TAP	61	240	6
TAP	61	288	4
STR	62	0	5
SSR	62	0	5	96	192	1
TAP	63	0	0
TAP	63	48	0
TAP	63	96	4
TAP	63	144	4
TAP	63	192	2
TAP	63	240	2
TAP	63	288	6
TAP	63	336	6
TAP	64	192	0
STR	64	240	0
SF_	64	240	0	96	432	4
TAP	66	192	7
STR	66	240	7
SF_	66	240	7	96	432	3
HLD	68	192	1	96
HLD	68	192	6	96
TAP	69	0	0
TAP	69	0	7
TAP	69	48	0
TAP	69	48	7
TAP	69	96	0
TAP	69	96	7
TAP	69	144	0
TAP	69	144	7
TAP	69	192	0
TAP	69	192	7
TAP	69	240	0
TAP	69	240	7
TAP	69	288	0
TAP	69	288	7
TAP	69	336	0
TAP	69	336	7
BRK	70	0	0
BRK	70	0	7
TAP	70	96	4
TAP	70	96	6
TAP	70	192	0
TAP	70	192	7
TAP	70	288	1
TAP	70	288	3
TAP	71	0	3
TAP	71	0	4
TAP	71	96	5
TAP	71	96	7
TAP	71	192	3
TAP	71	192	4
TAP	71	288	0
TAP	71	288	2
TAP	72	0	3
TAP	72	0	7
TAP	72	96	1
TAP	72	96	5
TAP	72	192	6
TAP	72	240	1
TAP	72	288	7
TAP	72	336	0
HLD	73	0	6	96
TAP	73	96	4
TAP	73	192	0
HLD	73	192	1	96
TAP	73	288	3
HLD	74	0	6	96
TAP	74	0	7
TAP	74	96	4
TAP	74	192	1
TAP	74	240	6
TAP	74	288	0
TAP	74	336	7
HLD	75	0	1	96
TAP	75	96	3
HLD	75	192	6	96
TAP	75	192	7
TAP	75	288	4
TAP	76	0	0
HLD	76	0	1	96
TAP	76	96	3
TAP	76	192	1
TAP	76	192	5
TAP	76	288	3
TAP	76	288	7
TAP	77	0	1
TAP	77	48	3
TAP	77	96	2
TAP	77	144	4
TAP	77	192	3
TAP	77	240	5
TAP	77	288	4
TAP	78	0	6
TAP	78	48	7
TAP	78	96	6
TAP	78	192	2
TAP	78	192	3
STR	78	240	2
SCL	78	240	2	96	336	5
STR	78	240	3
SUL	78	240	3	96	336	4
TAP	80	0	2
TAP	80	0	6
TAP	80	96	0
TAP	80	96	4
TAP	80	192	2
TAP	80	192	3
TAP	80	240	2
TAP	80	240	3
TAP	80	288	2
TAP	80	288	3
TAP	80	336	2
TAP	80	336	3
TAP	81	0	2
TAP	81	0	3
TAP	81	96	6
TAP	81	144	4
TAP	81	192	5
TAP	81	240	3
TAP	81	288	4
TAP	82	0	1
TAP	82	48	0
TAP	82	96	1
TAP	82	192	4
TAP	82	192	5
STR	82	240	4
SUR	82	240	4	96	336	3
STR	82	240	5
SCR	82	240	5	96	336	2
TAP	84	0	1
TAP	84	0	4
TAP	84	96	2
TAP	84	96	7
TAP	84	192	0
TAP	84	192	5
TAP	84	288	3
TAP	84	288	6
TAP	85	0	2
TAP	85	48	3
TAP	85	96	0
TAP	85	192	5
TAP	85	240	4
TAP	85	288	7
TAP	86	0	2
TAP	86	48	6
TAP	86	96	0
STR	86	192	7
SI_	86	192	7	96	48	3
TAP	87	0	5
TAP	87	48	4
TAP	87	96	7
TAP	87	192	2
TAP	87	240	3
TAP	87	288	0
TAP	88	0	5
TAP	88	48	1
TAP	88	96	7
STR	88	192	0
SI_	88	192	0	96	48	4
TAP	89	0	3
TAP	89	48	5
TAP	89	96	1
TAP	89	192	4
TAP	89	240	2
TAP	89	288	6
TAP	90	0	7
TAP	90	48	0
TAP	90	96	7
BRK	90	192	0
BRK	90	192	1
BRK	90	288	6
BRK	90	288	7
HLD	91	0	5	96
TAP	91	96	4
HLD	91	192	2	96
TAP	91	288	3
HLD	92	0	6	96
TAP	92	96	7
HLD	92	192	1	96
TAP	92	288	0
HLD	93	0	5	96
TAP	93	96	3
HLD	93	192	2	96
TAP	93	288	4
HLD	94	0	6	96
TAP	94	96	0
HLD	94	192	1	96
TAP	94	288	7
STR	95	0	0
SCL	95	0	0	96	192	5
STR	95	0	1
SCR	95	0	1	96	192	4
STR	96	0	6
SCL	96	0	6	96	192	3
STR	96	0	7
SCR	96	0	7	96	192	2
STR	97	0	2
SUL	97	0	2	96	192	5
STR	97	0	6
SCR	97	0	6	96	192	1
TAP	98	0	2
TAP	98	0	5
TAP	98	96	1
TAP	98	96	6
TAP	98	192	0
TAP	98	192	7
STR	98	240	0
SI_	98	240	0	96	48	3
STR	98	240	7
SI_	98	240	7	96	48	4
TAP	98	288	0
TAP	98	288	7

T_REC_TAP	372
T_REC_BRK	11
T_REC_XTP	0
T_REC_HLD	53
T_REC_XHO	0
T_REC_STR	38
T_REC_BST	0
T_REC_XST	0
T_REC_TTP	0
T_REC_THO	0
T_REC_SLD	40
T_REC_ALL	514
T_NUM_TAP	410
T_NUM_BRK	11
T_NUM_HLD	53
T_NUM_SLD	40
T_NUM_ALL	514
T_JUDGE_TAP	421
T_JUDGE_HLD	132
T_JUDGE_SLD	40
T_JUDGE_ALL	593
TTM_EACHPAIRS	115
TTM_SCR_TAP	205000
TTM_SCR_BRK	28600
TTM_SCR_HLD	53000
TTM_SCR_SLD	60000
TTM_SCR_ALL	346600
TTM_SCR_S	335150
TTM_SCR_SS	345500
TTM_RAT_ACV	10031

