VERSION	0.00.00	1.03.00
FES_MODE	0
BPM_DEF	200.000	200.000	200.000	200.000
MET_DEF	4	4
RESOLUTION	384
CLK_DEF	384
COMPATIBLE_CODE	MA2

BPM	0	0	200.000

STR	2	0	1
SCL	2	0	1	96	384	4
HLD	3	192	6	192
STR	4	0	7
SCR	4	0	7	96	384	4
TAP	5	192	5
TAP	5	288	4
STR	6	0	3
SCR	6	0	3	96	384	0
TAP	7	192	4
TAP	7	288	5
STR	8	0	6
SCR	8	0	6	96	384	3
TAP	9	192	3
TAP	9	192	4
TAP	10	0	1
TAP	10	96	1
TAP	10	192	0
TAP	10	288	0
TAP	11	0	6
TAP	11	96	7
TAP	11	192	0
TAP	11	192	5
TAP	12	0	6
TAP	12	96	6
TAP	12	192	7
TAP	12	288	7
TAP	13	0	1
TAP	13	96	0
TAP	13	192	2
TAP	13	192	7
HLD	14	0	5	192
HLD	14	192	4	192
HLD	15	0	3	192
HLD	15	192	2	192
STR	16	0	1
SCR	16	0	1	96	384	6
HLD	17	192	0	192
TAP	18	0	7
TAP	18	96	7
TAP	18	192	6
TAP	18	288	6
HLD	19	0	4	96
HLD	19	0	5	96
HLD	19	192	2	96
HLD	19	192	3	96
HLD	20	0	4	96
HLD	20	0	5	96
HLD	20	192	2	96
HLD	20	192	3	96
TAP	21	0	3
TAP	21	0	4
TAP	21	96	3
TAP	21	96	4
TAP	21	192	1
TAP	21	192	6
TAP	22	0	0
TAP	22	96	0
TAP	22	192	1
TAP	22	288	1
HLD	23	0	2	96
HLD	23	0	3	96
HLD	23	192	4	96
HLD	23	192	5	96
HLD	24	0	2	96
HLD	24	0	3	96
HLD	24	192	4	96
HLD	24	192	5	96
TAP	25	0	3
TAP	25	0	4
TAP	25	96	3
TAP	25	96	4
TAP	25	192	1
TAP	25	192	6
STR	26	0	5
SCR	26	0	5	96	480	3
TAP	28	0	2
TAP	28	96	2
TAP	28	96	3
TAP	28	192	5
TAP	28	288	4
TAP	28	288	5
TAP	29	0	3
STR	29	96	3
SI_	29	96	3	96	96	0
STR	29	96	4
SI_	29	96	4	96	96	7
TAP	30	0	6
TAP	30	96	6
TAP	30	192	7
TAP	30	288	7
HLD	31	0	0	96
HLD	31	0	1	96
HLD	31	192	6	96
HLD	31	192	7	96
HLD	32	0	0	96
HLD	32	0	1	96
HLD	32	192	6	96
HLD	32	192	7	96
TAP	33	0	0
TAP	33	0	7
TAP	33	96	0
TAP	33	96	7
TAP	33	192	2
TAP	33	192	5
TAP	34	0	1
TAP	34	96	1
TAP	34	192	0
TAP	34	288	0
HLD	35	0	6	96
HLD	35	0	7	96
HLD	35	192	0	96
HLD	35	192	1	96
HLD	36	0	6	96
HLD	36	0	7	96
HLD	36	192	0	96
HLD	36	192	1	96
TAP	37	0	0
TAP	37	0	7
TAP	37	96	0
TAP	37	96	7
TAP	37	192	2
TAP	37	192	5
TAP	38	0	1
TAP	38	96	1
TAP	38	192	0
TAP	38	288	0
TAP	39	0	6
TAP	39	96	7
TAP	39	192	0
TAP	39	192	5
TAP	40	0	6
TAP	40	96	6
TAP	40	192	7
TAP	40	288	7
TAP	41	0	1
TAP	41	96	0
TAP	41	192	2
TAP	41	192	7
HLD	42	0	1	192
TAP	42	192	0
HLD	43	0	6	192
TAP	43	192	7
TAP	44	0	0
TAP	44	96	0
TAP	44	192	7
TAP	44	288	7
TAP	45	0	1
TAP	45	0	6
TAP	45	96	2
TAP	45	96	5
TAP	45	192	3
TAP	45	192	4
TAP	46	0	1
TAP	46	96	2
TAP	46	192	3
TAP	46	288	4
TAP	47	0	5
TAP	47	96	6
TAP	47	192	7
STR	47	288	0
SCR	47	288	0	96	576	7
TAP	50	0	7
TAP	50	96	7
TAP	50	192	6
TAP	50	288	6
TAP	51	0	5
TAP	51	96	4
TAP	51	192	3
TAP	51	192	6
HLD	52	0	2	96
HLD	52	0	3	96
HLD	52	192	4	96
HLD	52	192	5	96
TAP	53	0	3
TAP	53	0	4
TAP	53	96	2
TAP	53	96	5
TAP	53	192	1
TAP	53	192	6
TAP	54	0	0
TAP	54	96	0
TAP	54	192	1
TAP	54	288	1
TAP	55	0	2
TAP	55	96	3
TAP	55	192	1
TAP	55	192	4
HLD	56	0	6	192
HLD	56	192	7	192
HLD	57	0	0	192
HLD	57	192	1	192
STR	58	0	2
SCL	58	0	2	96	384	5
TAP	59	192	3
TAP	59	192	4
TAP	60	0	3
TAP	60	96	2
TAP	60	192	4
TAP	60	288	5
TAP	61	0	2
TAP	61	96	1
TAP	61	192	5
TAP	61	288	6
TAP	62	0	1
TAP	62	96	0
TAP	62	192	6
TAP	62	288	7
HLD	63	0	0	384
HLD	63	0	7	384
STR	64	192	2
SXR	64	192	2	96	480	7
STR	64	192	3
SXL	64	192	3	96	480	6
STR	66	192	4
SXR	66	192	4	96	480	1
STR	66	192	5
SXL	66	192	5	96	480	0
HLD	68	192	7	192
STR	69	0	0
SSL	69	0	0	96	192	4
TAP	70	0	7
TAP	70	96	6
TAP	70	192	0
TAP	70	288	1
TAP	71	0	6
TAP	71	96	5
TAP	71	192	1
TAP	71	288	2
TAP	72	0	3
TAP	72	0	4
TAP	72	192	0
TAP	72	192	7
TAP	72	288	0
TAP	72	288	7
TAP	73	0	1
TAP	73	96	0
TAP	73	96	1
TAP	73	192	6
TAP	73	288	6
TAP	73	288	7
TAP	74	0	1
TAP	74	96	0
TAP	74	96	1
TAP	74	192	6
TAP	74	288	6
TAP	74	288	7
TAP	75	0	1
TAP	75	96	0
TAP	75	96	1
TAP	75	192	6
TAP	75	288	6
TAP	75	288	7
TAP	76	0	1
TAP	76	96	0
TAP	76	96	1
TAP	76	192	6
TAP	76	288	6
TAP	76	288	7
TAP	77	0	3
TAP	77	0	4
TAP	77	96	3
TAP	77	96	4
TAP	77	192	2
TAP	77	192	5
TAP	77	288	2
TAP	77	288	5
TAP	78	0	1
TAP	78	0	6
TAP	78	96	1
TAP	78	96	6
STR	78	192	0
SXL	78	192	0	96	480	3
STR	78	192	7
SXR	78	192	7	96	480	4
BRK	80	192	1
BRK	80	192	6
HLD	81	0	2	192
HLD	81	192	3	192
HLD	82	0	4	192
BRK	82	192	5
TAP	83	0	2
TAP	83	96	2
TAP	83	96	3
TAP	83	192	5
TAP	83	288	4
TAP	83	288	5
TAP	84	0	2
TAP	84	96	2
TAP	84	96	3
TAP	84	192	5
TAP	84	288	4
TAP	84	288	5
TAP	85	0	2
TAP	85	96	1
TAP	85	96	3
TAP	85	192	5
TAP	85	288	4
TAP	85	288	6
TAP	86	0	2
TAP	86	96	1
TAP	86	96	3
TAP	86	192	0
TAP	86	192	4
TAP	87	0	5
TAP	87	96	4
TAP	87	96	5
TAP	87	192	2
TAP	87	288	2
TAP	87	288	3
TAP	88	0	5
TAP	88	96	4
TAP	88	96	5
TAP	88	192	2
TAP	88	288	2
TAP	88	288	3
TAP	89	0	5
TAP	89	96	4
TAP	89	96	6
TAP	89	192	2
TAP	89	288	1
TAP	89	288	3
TAP	90	0	5
TAP	90	96	4
TAP	90	96	6
TAP	90	192	3
TAP	90	192	7
STR	91	0	2
SCL	91	0	2	96	192	7
STR	92	0	6
SCL	92	0	6	96	192	3
STR	93	0	1
SCR	93	0	1	96	192	4
STR	94	0	5
SCR	94	0	5	96	192	0
HLD	95	0	2	192
TAP	95	192	3
HLD	96	0	5	192
TAP	96	192	4
HLD	97	0	3	192
TAP	97	192	4
TAP	98	0	2
TAP	98	0	5
TAP	98	96	1
TAP	98	96	6
STR	98	192	0
SI_	98	192	0	96	96	3
STR	98	192	7
SI_	98	192	7	96	96	4

T_REC_TAP	243
T_REC_BRK	3
T_REC_XTP	0
T_REC_HLD	57
T_REC_XHO	0
T_REC_STR	23
T_REC_BST	0
T_REC_XST	0
T_REC_TTP	0
T_REC_THO	0
T_REC_SLD	23
T_REC_ALL	349
T_NUM_TAP	266
T_NUM_BRK	3
T_NUM_HLD	57
T_NUM_SLD	23
T_NUM_ALL	349
T_JUDGE_TAP	269
T_JUDGE_HLD	164
T_JUDGE_SLD	23
T_JUDGE_ALL	456
TTM_EACHPAIRS	88
TTM_SCR_TAP	133000
TTM_SCR_BRK	7800
TTM_SCR_HLD	57000
TTM_SCR_SLD	34500
TTM_SCR_ALL	232300
TTM_SCR_S	225050
TTM_SCR_SS	232000
TTM_RAT_ACV	10012

