VERSION	0.00.00	1.03.00
FES_MODE	0
BPM_DEF	200.000	200.000	200.000	200.000
MET_DEF	4	4
RESOLUTION	384
CLK_DEF	384
COMPATIBLE_CODE	MA2

BPM	0	0	200.000

HLD	2	0	0	384
HLD	4	0	7	384
TAP	6	0	0
TAP	6	192	0
TAP	7	0	7
TAP	7	192	7
HLD	8	0	0	576
HLD	8	0	7	576
TAP	10	0	0
TAP	10	192	0
TAP	11	0	1
TAP	11	192	1
TAP	12	0	2
TAP	12	192	2
TAP	13	0	3
TAP	13	0	4
TAP	14	0	4
TAP	14	192	4
TAP	15	0	5
TAP	15	192	5
TAP	16	0	6
TAP	16	192	6
BRK	17	0	0
BRK	17	0	7
TAP	18	0	7
TAP	18	192	7
TAP	19	0	6
TAP	19	192	6
TAP	20	0	5
TAP	20	192	5
TAP	21	0	3
TAP	21	0	4
TAP	22	0	3
TAP	22	192	3
TAP	23	0	2
TAP	23	192	2
TAP	24	0	1
TAP	24	192	1
BRK	25	0	0
BRK	25	0	7
STR	26	0	0
SI_	26	0	0	96	288	3
STR	28	0	7
SI_	28	0	7	96	288	4
TAP	30	0	0
TAP	30	96	0
TAP	30	192	0
TAP	31	0	1
TAP	31	96	1
TAP	31	192	1
TAP	32	0	2
TAP	32	96	2
TAP	32	192	2
TAP	33	0	3
TAP	33	0	4
TAP	34	0	4
TAP	34	96	4
TAP	34	192	4
TAP	35	0	5
TAP	35	96	5
TAP	35	192	5
TAP	36	0	6
TAP	36	96	6
TAP	36	192	6
BRK	37	0	0
BRK	37	0	7
TAP	38	0	6
TAP	38	0	7
TAP	38	192	6
TAP	38	192	7
TAP	39	0	6
TAP	39	0	7
TAP	40	0	4
TAP	40	0	5
TAP	40	192	4
TAP	40	192	5
TAP	41	0	4
TAP	41	0	5
TAP	42	0	2
TAP	42	0	3
TAP	42	192	2
TAP	42	192	3
TAP	43	0	2
TAP	43	0	3
TAP	44	0	0
TAP	44	0	1
TAP	44	192	0
TAP	44	192	1
TAP	45	0	0
TAP	45	0	1
HLD	46	0	0	384
HLD	46	0	7	384
TAP	48	0	7
TAP	48	96	7
TAP	48	192	7
TAP	49	0	6
TAP	49	96	6
TAP	49	192	6
TAP	50	0	5
TAP	50	96	5
TAP	50	192	5
HLD	51	0	3	192
HLD	51	0	4	192
TAP	52	0	3
TAP	52	96	3
TAP	52	192	3
TAP	53	0	2
TAP	53	96	2
TAP	53	192	2
TAP	54	0	1
TAP	54	96	1
TAP	54	192	1
HLD	55	0	0	192
HLD	55	0	7	192
STR	56	0	7
SI_	56	0	7	96	288	3
STR	58	0	0
SI_	58	0	0	96	288	4
STR	60	0	6
SI_	60	0	6	96	288	3
STR	62	0	1
SI_	62	0	1	96	288	4
HLD	65	0	7	384
HLD	67	0	0	384
BRK	69	0	7
TAP	70	0	7
TAP	70	96	7
TAP	70	192	7
TAP	71	0	6
TAP	71	96	6
TAP	71	192	6
TAP	72	0	5
HLD	73	0	4	384
HLD	75	0	3	384
TAP	77	0	2
TAP	77	96	2
TAP	77	192	2
TAP	78	0	1
TAP	78	96	1
TAP	78	192	1
STR	79	0	0
SI_	79	0	0	96	288	4
TAP	81	0	5
TAP	81	96	5
TAP	81	192	5
TAP	82	0	6
TAP	82	96	6
TAP	82	192	6
STR	83	0	7
SI_	83	0	7	96	288	4
STR	85	0	0
SI_	85	0	0	96	288	3
TAP	87	0	4
TAP	87	192	4
TAP	88	0	5
TAP	88	192	5
TAP	89	0	6
TAP	89	192	6
TAP	90	0	7
BRK	90	192	7
TAP	91	0	0
TAP	91	192	0
TAP	92	0	1
TAP	92	192	1
TAP	93	0	2
TAP	93	192	2
TAP	94	0	3
TAP	94	192	3
TAP	95	0	4
TAP	95	192	4
TAP	96	0	5
TAP	96	192	5
TAP	97	0	6
TAP	97	192	6
TAP	98	0	7
TAP	98	192	0
TAP	98	192	7

T_REC_TAP	137
T_REC_BRK	8
T_REC_XTP	0
T_REC_HLD	14
T_REC_XHO	0
T_REC_STR	9
T_REC_BST	0
T_REC_XST	0
T_REC_TTP	0
T_REC_THO	0
T_REC_SLD	9
T_REC_ALL	177
T_NUM_TAP	146
T_NUM_BRK	8
T_NUM_HLD	14
T_NUM_SLD	9
T_NUM_ALL	177
T_JUDGE_TAP	154
T_JUDGE_HLD	104
T_JUDGE_SLD	9
T_JUDGE_ALL	267
TTM_EACHPAIRS	23
TTM_SCR_TAP	73000
TTM_SCR_BRK	20800
TTM_SCR_HLD	14000
TTM_SCR_SLD	13500
TTM_SCR_ALL	121300
TTM_SCR_S	116900
TTM_SCR_SS	120500
TTM_RAT_ACV	10066

