VERSION	0.00.00	1.03.00
FES_MODE	0
BPM_DEF	185.000	185.000	185.000	185.000
MET_DEF	4	4
RESOLUTION	384
CLK_DEF	384
COMPATIBLE_CODE	MA2

BPM	0	0	185.000
MET	0	0	4	4

TAP	1	0	4
TAP	1	192	4
TAP	1	264	0
TAP	1	288	7
TAP	1	336	1
TAP	1	336	6
TAP	2	0	2
TAP	2	48	2
TAP	2	72	3
TAP	2	96	1
TAP	2	192	1
TAP	2	240	1
TAP	2	264	3
TAP	2	288	2
TAP	2	336	1
TAP	2	336	3
TAP	3	0	5
TAP	3	48	5
TAP	3	72	4
TAP	3	96	6
TAP	3	192	6
TAP	3	240	6
TAP	3	264	4
TAP	3	288	5
TAP	3	336	4
TAP	3	336	6
TAP	4	0	2
TAP	4	48	2
TAP	4	72	3
TAP	4	96	1
TAP	4	192	1
TAP	4	240	1
TAP	4	264	3
TAP	4	288	2
TAP	4	336	1
TAP	4	336	3
TAP	5	0	5
TAP	5	72	4
TAP	5	72	6
TAP	5	96	4
TAP	5	96	6
TAP	5	168	1
TAP	5	168	3
TAP	5	192	1
TAP	5	192	3
TAP	5	240	7
TAP	5	288	0
TAP	5	336	7
TAP	6	0	2
TAP	6	48	2
TAP	6	72	3
TAP	6	96	1
TAP	6	144	1
TAP	6	168	3
TAP	6	192	2
TAP	6	240	2
TAP	6	264	3
TAP	6	288	1
TAP	6	336	1
TAP	6	336	3
TAP	7	0	5
TAP	7	48	5
TAP	7	72	4
TAP	7	96	6
TAP	7	144	6
TAP	7	168	4
TAP	7	192	5
TAP	7	240	5
TAP	7	264	4
TAP	7	288	6
TAP	7	336	4
TAP	7	336	6
HLD	8	0	0	24
HLD	8	48	7	24
TAP	8	96	1
TAP	8	144	1
TAP	8	168	3
TAP	8	192	2
TAP	8	240	2
TAP	8	264	3
TAP	8	288	1
TAP	8	336	1
TAP	8	336	3
BST	9	0	7
SI_	9	0	7	96	48	4
SI_	9	0	7	96	48	5
BST	9	96	7
SI_	9	96	7	96	48	1
SI_	9	96	7	96	48	2
BST	9	192	7
SI_	9	192	7	96	48	3
BRK	9	288	7
STR	10	0	3
SI_	10	0	3	96	48	1
STR	10	0	4
SI_	10	0	4	96	48	1
TAP	10	96	3
TAP	10	96	4
STR	10	192	3
SI_	10	192	3	96	48	6
STR	10	192	4
SI_	10	192	4	96	48	6
TAP	10	288	3
TAP	10	288	4
STR	11	0	3
SI_	11	0	3	96	48	1
STR	11	0	4
SI_	11	0	4	96	48	1
TAP	11	96	3
STR	11	96	4
SI_	11	96	4	96	48	0
STR	11	192	3
SI_	11	192	3	96	48	7
TAP	11	192	4
TAP	11	288	3
TAP	11	288	4
STR	12	0	3
SI_	12	0	3	96	48	6
STR	12	0	4
SI_	12	0	4	96	48	6
TAP	12	96	3
TAP	12	96	4
STR	12	192	3
SI_	12	192	3	96	48	1
STR	12	192	4
SI_	12	192	4	96	48	1
TAP	12	288	3
TAP	12	288	4
TAP	13	0	3
TAP	13	0	4
TAP	13	48	1
TAP	13	48	6
TAP	13	96	2
TAP	13	96	5
TAP	13	144	0
TAP	13	144	7
STR	13	192	1
SCL	13	192	1	96	48	6
TAP	13	192	6
TAP	13	240	3
TAP	13	264	4
TAP	13	288	1
STR	14	0	3
SI_	14	0	3	96	48	6
STR	14	0	4
SI_	14	0	4	96	48	6
TAP	14	96	3
TAP	14	96	4
STR	14	192	3
SI_	14	192	3	96	48	1
STR	14	192	4
SI_	14	192	4	96	48	1
TAP	14	288	3
TAP	14	288	4
STR	15	0	3
SI_	15	0	3	96	48	6
STR	15	0	4
SI_	15	0	4	96	48	6
STR	15	96	3
SI_	15	96	3	96	48	7
TAP	15	96	4
TAP	15	192	3
STR	15	192	4
SI_	15	192	4	96	48	0
TAP	15	288	3
TAP	15	288	4
STR	16	0	3
SI_	16	0	3	96	48	6
STR	16	0	4
SI_	16	0	4	96	48	6
TAP	16	96	3
TAP	16	96	4
STR	16	192	3
SI_	16	192	3	96	48	1
STR	16	192	4
SI_	16	192	4	96	48	1
TAP	16	288	3
TAP	16	288	4
STR	17	0	2
SCL	17	0	2	96	48	0
STR	17	0	7
SCL	17	0	7	96	48	5
TAP	17	96	2
TAP	17	96	7
TAP	17	192	2
TAP	17	192	6
TAP	17	240	0
TAP	17	240	1
TAP	17	288	0
TAP	17	288	7
TAP	17	336	6
TAP	17	336	7
TAP	18	0	5
HLD	18	48	5	96
TAP	18	96	6
HLD	18	144	6	96
TAP	18	192	1
HLD	18	240	1	96
TAP	18	288	2
HLD	18	336	2	48
STR	19	0	3
SV_	19	0	3	96	48	1
STR	19	48	1
SV_	19	48	1	96	48	7
STR	19	192	4
SV_	19	192	4	96	48	6
STR	19	240	6
SV_	19	240	6	96	48	0
TAP	20	0	5
HLD	20	48	5	96
TAP	20	96	6
HLD	20	144	6	96
TAP	20	192	1
HLD	20	240	1	96
TAP	20	288	2
HLD	20	336	2	48
STR	21	0	0
SV_	21	0	0	96	48	2
STR	21	48	2
SV_	21	48	2	96	48	4
STR	21	192	7
SV_	21	192	7	96	48	5
STR	21	240	5
SV_	21	240	5	96	48	3
TAP	22	0	1
HLD	22	48	1	96
TAP	22	96	2
HLD	22	144	2	96
TAP	22	192	5
HLD	22	240	5	96
TAP	22	288	6
HLD	22	336	6	48
STR	23	0	4
SV_	23	0	4	96	48	6
STR	23	48	6
SV_	23	48	6	96	48	0
STR	23	192	3
SV_	23	192	3	96	48	1
STR	23	240	1
SV_	23	240	1	96	48	7
BST	24	0	4
SI_	24	0	4	96	48	6
SI_	24	0	4	96	48	7
BST	24	96	4
SI_	24	96	4	96	48	1
SI_	24	96	4	96	48	2
BRK	24	192	4
BRK	24	288	0
BRK	24	288	7
TAP	24	320	0
TAP	24	320	7
TAP	24	352	0
TAP	24	352	7
HLD	25	0	1	64
HLD	25	0	6	64
HLD	25	96	2	64
HLD	25	96	5	64
STR	25	192	3
SI_	25	192	3	96	48	0
STR	25	192	4
SI_	25	192	4	96	48	7
BRK	25	288	3
BRK	25	288	4
STR	26	0	5
SI_	26	0	5	96	624	1
STR	28	0	6
SI_	28	0	6	96	624	2
STR	30	0	1
SI_	30	0	1	96	624	5
STR	32	0	2
SI_	32	0	2	96	624	6
STR	33	0	1
SCR	33	0	1	96	48	3
TAP	33	96	1
STR	33	192	1
SCL	33	192	1	96	48	7
BRK	33	288	1
STR	34	0	5
SI_	34	0	5	96	624	1
TAP	34	48	3
TAP	34	144	2
TAP	34	240	3
TAP	34	336	2
TAP	35	0	0
TAP	35	48	0
TAP	35	96	0
TAP	35	144	0
TAP	35	168	0
STR	36	0	6
SI_	36	0	6	96	624	2
TAP	36	48	0
TAP	36	144	7
TAP	36	240	0
TAP	36	336	7
HLD	37	0	1	96
TAP	37	144	0
TAP	37	192	0
TAP	37	240	7
TAP	37	288	7
STR	38	0	1
SI_	38	0	1	96	624	5
TAP	38	48	7
TAP	38	144	0
TAP	38	240	7
TAP	38	336	6
TAP	39	0	6
TAP	39	48	6
TAP	39	96	6
STR	39	144	6
SUR	39	144	6	96	48	3
TAP	39	168	6
STR	40	0	2
SI_	40	0	2	96	624	6
TAP	40	48	4
TAP	40	144	5
TAP	40	240	4
TAP	40	336	5
HLD	41	0	7	96
TAP	41	144	0
TAP	41	192	0
TAP	41	240	1
BRK	41	288	1
BRK	42	48	0
BRK	42	48	1
TAP	42	120	6
TAP	42	120	7
TAP	42	192	0
TAP	42	192	1
TAP	42	264	6
TAP	42	264	7
TAP	42	336	0
TAP	42	336	1
TAP	43	24	6
TAP	43	24	7
TAP	43	96	0
TAP	43	96	1
TAP	43	168	6
TAP	43	168	7
TAP	43	240	0
TAP	43	240	1
TAP	43	312	6
TAP	43	312	7
BRK	43	360	6
BRK	43	360	7
TAP	44	48	4
TAP	44	48	5
TAP	44	120	6
TAP	44	120	7
TAP	44	192	4
TAP	44	192	5
TAP	44	264	6
TAP	44	264	7
TAP	44	336	4
TAP	44	336	5
TAP	45	24	6
TAP	45	24	7
TAP	45	96	4
TAP	45	96	5
TAP	45	168	6
TAP	45	168	7
TAP	45	240	4
TAP	45	240	5
TAP	45	312	6
TAP	45	312	7
BRK	45	336	6
BRK	45	336	7
TAP	46	24	2
TAP	46	24	3
TAP	46	96	4
TAP	46	96	5
TAP	46	168	2
TAP	46	168	3
TAP	46	240	4
TAP	46	240	5
TAP	46	312	2
TAP	46	312	3
TAP	47	0	0
TAP	47	0	1
TAP	47	72	2
TAP	47	72	3
TAP	47	144	0
TAP	47	144	1
BST	47	192	0
SI_	47	192	0	96	48	5
BST	47	192	1
SI_	47	192	1	96	48	4
TAP	47	288	0
TAP	47	288	1
TAP	48	0	2
TAP	48	24	5
TAP	48	48	2
TAP	48	72	5
TAP	48	96	1
TAP	48	120	6
TAP	48	144	1
TAP	48	168	6
TAP	48	192	0
TAP	48	216	7
TAP	48	240	0
TAP	48	264	7
TAP	48	288	0
TAP	48	312	6
TAP	48	336	4
TAP	48	360	2
BRK	49	0	0
HLD	50	0	7	96
HLD	50	96	6	96
HLD	50	192	5	72
HLD	50	264	6	72
TAP	50	336	7
HLD	51	0	0	96
HLD	51	96	1	96
HLD	51	192	2	72
HLD	51	264	1	72
TAP	51	336	0
BRK	52	0	1
BRK	52	0	6
STR	52	96	7
SI_	52	96	7	96	48	4
TAP	52	120	0
TAP	52	144	7
TAP	52	168	0
BRK	52	192	7
STR	52	288	0
SI_	52	288	0	96	48	3
TAP	52	312	7
TAP	52	336	0
TAP	52	360	7
BRK	53	0	0
HLD	53	72	7	72
HLD	53	144	6	72
HLD	53	216	5	72
TAP	53	288	3
TAP	53	336	4
HLD	54	0	0	96
HLD	54	96	1	96
HLD	54	192	2	72
HLD	54	264	1	72
TAP	54	336	0
HLD	55	0	7	96
HLD	55	96	6	96
HLD	55	192	5	72
HLD	55	264	6	72
TAP	55	336	7
BRK	56	0	1
BRK	56	0	6
STR	56	96	0
SI_	56	96	0	96	48	3
TAP	56	120	0
TAP	56	144	0
TAP	56	168	0
BRK	56	192	0
STR	56	288	7
SI_	56	288	7	96	48	4
TAP	56	312	7
TAP	56	336	7
TAP	56	360	7
BRK	57	0	7
HLD	57	72	0	72
HLD	57	144	1	72
HLD	57	216	2	72
STR	57	288	4
SCR	57	288	4	96	48	6
TAP	57	336	3
TAP	58	96	0
TAP	58	120	7
TAP	58	144	0
TAP	58	168	7
TAP	58	192	0
TAP	58	216	7
TAP	58	240	1
TAP	58	264	6
TAP	58	288	2
TAP	58	312	5
TAP	58	336	3
TAP	58	360	4
TAP	59	0	2
TAP	59	24	3
TAP	59	48	2
TAP	59	72	3
TAP	59	96	2
TAP	59	144	5
TAP	59	168	4
TAP	59	192	5
TAP	59	216	4
TAP	59	240	5
TAP	59	288	0
TAP	59	312	7
TAP	59	336	0
TAP	59	360	7
TAP	60	0	1
TAP	60	0	6
TAP	60	96	7
TAP	60	120	0
TAP	60	144	7
TAP	60	168	0
TAP	60	192	7
TAP	60	216	0
TAP	60	240	6
TAP	60	264	1
TAP	60	288	5
TAP	60	312	2
TAP	60	336	4
TAP	60	360	3
TAP	61	0	6
TAP	61	24	7
TAP	61	48	6
TAP	61	72	7
TAP	61	96	6
TAP	61	144	1
TAP	61	168	0
TAP	61	192	1
TAP	61	216	0
TAP	61	240	1
TAP	61	288	4
TAP	61	312	3
TAP	61	336	4
TAP	61	360	3
TAP	62	0	2
TAP	62	0	5
TAP	62	96	6
TAP	62	120	7
TAP	62	144	6
TAP	62	168	7
TAP	62	192	6
TAP	62	216	7
TAP	62	240	5
TAP	62	264	0
TAP	62	288	4
TAP	62	312	1
TAP	62	336	3
TAP	62	360	2
TAP	63	0	5
TAP	63	24	4
TAP	63	48	5
TAP	63	72	4
TAP	63	96	5
TAP	63	144	2
TAP	63	168	3
TAP	63	192	2
TAP	63	216	3
TAP	63	240	2
TAP	63	288	7
TAP	63	312	0
TAP	63	336	7
TAP	63	360	0
TAP	64	0	1
TAP	64	0	6
TAP	64	96	1
TAP	64	120	0
TAP	64	144	1
TAP	64	168	0
TAP	64	192	1
TAP	64	216	0
TAP	64	240	2
TAP	64	264	7
TAP	64	288	3
TAP	64	312	6
TAP	64	336	4
TAP	64	360	5
TAP	65	0	3
TAP	65	24	4
TAP	65	48	3
TAP	65	72	4
TAP	65	96	2
TAP	65	120	5
TAP	65	144	2
TAP	65	168	5
TAP	65	192	1
TAP	65	216	6
TAP	65	240	1
TAP	65	264	6
TAP	65	288	0
TAP	65	312	7
TAP	65	336	0
TAP	65	360	7
BST	66	0	1
SCL	66	0	1	96	48	6
BST	66	0	6
SCL	66	0	6	96	48	3
STR	66	240	0
SI_	66	240	0	96	48	3
STR	66	240	5
SI_	66	240	5	96	48	0
TAP	66	336	0
TAP	66	336	5
TAP	67	120	6
TAP	67	120	7
TAP	67	168	4
TAP	67	168	5
TAP	67	216	2
TAP	67	216	3
TAP	67	264	0
TAP	67	264	1
TAP	67	288	0
TAP	67	288	1
BRK	68	0	1
BRK	68	0	6
TAP	68	96	0
TAP	68	120	7
TAP	68	144	0
TAP	68	168	7
TAP	68	192	0
TAP	68	216	7
TAP	68	240	1
TAP	68	264	6
TAP	68	288	2
TAP	68	312	5
TAP	68	336	3
TAP	68	360	4
TAP	69	0	1
TAP	69	24	0
TAP	69	48	1
TAP	69	72	0
TAP	69	96	1
TAP	69	144	6
TAP	69	168	7
TAP	69	192	6
TAP	69	216	7
TAP	69	240	6
TAP	69	288	3
TAP	69	312	4
TAP	69	336	3
TAP	69	360	4
BRK	70	0	2
BRK	70	0	5
TAP	70	168	1
TAP	70	168	3
TAP	70	192	1
TAP	70	192	3
TAP	70	264	4
TAP	70	264	6
TAP	70	288	4
TAP	70	288	6
TAP	70	336	0
TAP	70	336	7
TAP	71	24	2
TAP	71	24	5
TAP	71	96	7
TAP	71	120	7
TAP	71	144	7
STR	71	192	0
SCR	71	192	0	96	48	3
TAP	71	216	0
TAP	71	240	0
TAP	71	288	0
TAP	71	288	7
BRK	72	0	1
BRK	72	0	6
TAP	72	96	1
TAP	72	120	0
TAP	72	144	1
TAP	72	168	0
TAP	72	192	1
TAP	72	216	0
TAP	72	240	2
TAP	72	264	7
TAP	72	288	3
TAP	72	312	6
TAP	72	336	4
TAP	72	360	5
TAP	73	0	3
TAP	73	24	5
TAP	73	48	3
TAP	73	72	5
TAP	73	96	2
TAP	73	120	6
TAP	73	144	2
TAP	73	168	6
TAP	73	192	1
TAP	73	216	7
TAP	73	240	1
TAP	73	264	7
BRK	73	288	0
TAP	73	312	0
TAP	73	336	0
TAP	73	360	0
TAP	74	0	0
TAP	74	24	0
TAP	74	48	0
TAP	74	72	0
TAP	74	96	0
TAP	74	120	0
TAP	74	144	0
TAP	74	168	0
TAP	74	192	0
TAP	74	216	0
TAP	74	240	0
TAP	74	264	0
TAP	74	288	0
TAP	74	312	0
TAP	74	336	0
TAP	74	360	0
TAP	75	0	0
TAP	75	24	0
TAP	75	48	0
TAP	75	72	0
TAP	75	96	0
TAP	75	120	0
TAP	75	144	0
TAP	75	168	0
TAP	75	192	0
TAP	75	216	0
TAP	75	240	0
TAP	75	264	0
TAP	75	288	0
TAP	75	312	0
TAP	75	336	0
TAP	75	360	0
TAP	76	0	0
TAP	76	24	0
TAP	76	48	0
TAP	76	72	0
TAP	76	96	0
TAP	76	120	0
TAP	76	144	0
TAP	76	168	0
TAP	76	192	0
TAP	76	216	0
TAP	76	240	0
TAP	76	264	0
TAP	76	288	0
TAP	76	312	0
TAP	76	336	0
TAP	76	360	0
TAP	77	0	0
TAP	77	24	0
TAP	77	48	0
TAP	77	72	0
STR	77	96	0
SUL	77	96	0	96	48	4
SUR	77	96	0	96	48	4
TAP	77	120	0
TAP	77	144	0
TAP	77	168	0
TAP	77	192	0
TAP	77	288	1
TAP	77	288	6
BRK	78	0	0
TAP	78	24	0
TAP	78	48	0
TAP	78	72	0
TAP	78	96	0
TAP	78	120	0
TAP	78	144	0
TAP	78	168	0
TAP	78	192	0
TAP	78	216	0
TAP	78	240	0
TAP	78	264	0
TAP	78	288	0
TAP	78	312	0
TAP	78	336	0
TAP	78	360	0
BRK	79	0	0
TAP	79	24	0
TAP	79	48	0
TAP	79	72	0
TAP	79	96	0
TAP	79	120	0
TAP	79	144	0
TAP	79	168	0
BRK	79	192	0
TAP	79	216	0
TAP	79	240	0
TAP	79	264	0
TAP	79	288	0
TAP	79	312	0
TAP	79	336	0
TAP	79	360	0
BRK	80	0	0
TAP	80	24	0
TAP	80	48	0
TAP	80	72	0
BRK	80	96	0
TAP	80	120	0
TAP	80	144	0
TAP	80	168	0
BRK	80	192	0
TAP	80	216	0
TAP	80	240	0
TAP	80	264	0
BRK	80	288	0
TAP	80	312	0
TAP	80	336	0
TAP	80	360	0
BRK	81	0	0
TAP	81	24	0
TAP	81	48	0
TAP	81	72	0
TAP	81	96	0
TAP	81	120	0
TAP	81	144	0
TAP	81	168	0
TAP	81	192	0
TAP	81	216	0
TAP	81	240	0
TAP	81	264	0
TAP	81	288	0
TAP	81	312	0
TAP	81	336	0
TAP	81	360	0
TAP	82	0	0
TAP	82	32	7
TAP	82	64	0
TAP	82	96	6
TAP	82	128	4
TAP	82	160	5
TAP	82	192	1
TAP	82	224	3
TAP	82	256	2
TAP	82	288	4
TAP	82	320	3
TAP	82	352	4
BRK	83	0	0
TAP	83	0	7
BRK	83	48	1
TAP	83	48	6
BRK	83	96	2
TAP	83	96	5
BRK	83	144	3
TAP	83	144	4
STR	83	192	3
SI_	83	192	3	96	48	0
BST	83	192	4
SI_	83	192	4	96	48	7
HLD	84	0	1	96
HLD	84	0	6	96
HLD	84	192	3	72
HLD	84	192	4	72
TAP	85	0	2
TAP	85	0	5
TAP	85	96	7
TAP	85	120	6
TAP	85	144	5
STR	85	168	4
SUL	85	168	4	96	120	5
SUR	85	168	4	96	120	3
TAP	85	192	1
TAP	85	216	2
TAP	85	240	3
TAP	85	264	4
TAP	86	96	2
TAP	86	96	7
HLD	86	192	4	72
HLD	86	192	5	72
TAP	87	0	3
TAP	87	0	6
TAP	87	96	0
TAP	87	120	1
TAP	87	144	2
STR	87	168	3
SUL	87	168	3	96	120	4
SUR	87	168	3	96	120	2
TAP	87	192	6
TAP	87	216	5
TAP	87	240	4
TAP	87	264	3
TAP	88	96	0
TAP	88	96	5
HLD	88	192	2	72
HLD	88	192	3	72
TAP	89	0	1
TAP	89	0	4
TAP	89	96	4
TAP	89	120	5
TAP	89	144	6
STR	89	168	7
SUL	89	168	7	96	120	0
SUR	89	168	7	96	120	6
TAP	89	192	2
TAP	89	216	1
TAP	89	240	0
TAP	89	264	7
TAP	90	96	1
TAP	90	96	4
HLD	90	192	6	72
HLD	90	192	7	72
TAP	91	0	0
TAP	91	0	5
TAP	91	96	3
TAP	91	120	2
TAP	91	144	1
STR	91	168	0
SUL	91	168	0	96	120	1
SUR	91	168	0	96	120	7
TAP	91	192	5
TAP	91	216	6
TAP	91	240	7
TAP	91	264	0
HLD	92	96	6	96
HLD	92	192	5	72
HLD	92	264	6	72
TAP	92	336	7
HLD	93	0	0	72
HLD	93	72	7	72
HLD	93	144	6	72
HLD	93	216	5	72
TAP	93	288	3
TAP	93	336	4
TAP	94	0	0
TAP	94	0	1
TAP	94	48	2
TAP	94	96	3
TAP	94	144	4
TAP	94	144	5
TAP	94	192	6
TAP	94	192	7
TAP	94	240	5
TAP	94	288	4
TAP	94	336	2
TAP	94	336	3
HLD	95	0	0	72
HLD	95	0	1	72
HLD	95	96	3	72
HLD	95	96	4	72
HLD	95	192	6	72
HLD	95	192	7	72
BRK	95	288	2
BRK	95	288	5
HLD	96	0	0	96
HLD	96	96	1	96
HLD	96	192	2	72
HLD	96	264	1	72
TAP	96	336	0
HLD	97	0	7	72
HLD	97	72	0	72
HLD	97	144	1	72
HLD	97	216	2	72
TAP	97	288	4
TAP	97	336	3
HLD	98	0	6	48
HLD	98	0	7	48
HLD	98	72	3	48
HLD	98	72	4	48
TAP	98	144	0
TAP	98	144	1
TAP	98	240	2
TAP	98	240	5
TAP	98	288	1
TAP	98	288	3
TAP	98	312	1
TAP	98	312	3
HLD	99	0	0	48
HLD	99	0	1	48
HLD	99	72	3	48
HLD	99	72	4	48
TAP	99	144	6
TAP	99	144	7
TAP	99	240	2
TAP	99	240	5
TAP	99	288	4
TAP	99	288	6
TAP	99	312	4
TAP	99	312	6
TAP	100	0	3
TAP	100	96	3
TAP	100	168	7
TAP	100	192	0
TAP	100	240	2
TAP	100	240	5
BRK	100	288	0
BRK	100	288	7
STR	101	0	3
SI_	101	0	3	96	48	1
STR	101	0	4
SI_	101	0	4	96	48	1
STR	101	96	3
SI_	101	96	3	96	48	7
TAP	101	96	4
STR	101	192	3
SI_	101	192	3	96	48	6
STR	101	192	4
SI_	101	192	4	96	48	6
TAP	101	288	3
STR	101	288	4
SI_	101	288	4	96	48	0
STR	102	0	3
SI_	102	0	3	96	48	1
STR	102	0	4
SI_	102	0	4	96	48	1
STR	102	96	3
SI_	102	96	3	96	48	7
TAP	102	96	4
STR	102	192	3
SI_	102	192	3	96	48	6
STR	102	192	4
SI_	102	192	4	96	48	6
TAP	102	288	3
TAP	102	288	4
BST	103	0	0
SI_	103	0	0	96	48	2
SI_	103	0	0	96	48	3
BST	103	96	0
SI_	103	96	0	96	48	5
SI_	103	96	0	96	48	6
BRK	103	192	0
TAP	103	288	3
TAP	103	312	2
TAP	103	336	1
TAP	103	360	0
BRK	104	0	6
BRK	104	0	7
BRK	104	48	4
BRK	104	48	5
BRK	104	96	2
BRK	104	96	3
BRK	104	144	0
BRK	104	144	1
BST	104	192	2
SCL	104	192	2	96	48	0
BST	104	192	7
SCL	104	192	7	96	48	5
BRK	105	0	1
BRK	105	0	5
BRK	105	32	1
BRK	105	32	5
BRK	105	64	1
BRK	105	64	5
BST	105	96	2
SCL	105	96	2	96	96	6
BST	105	96	6
SCL	105	96	6	96	96	2
BRK	105	128	2
BRK	105	128	6
BRK	105	160	2
BRK	105	160	6
BST	105	192	2
SI_	105	192	2	96	64	6
BST	105	192	6
SI_	105	192	6	96	64	2

T_REC_TAP	684
T_REC_BRK	65
T_REC_XTP	0
T_REC_HLD	81
T_REC_XHO	0
T_REC_STR	77
T_REC_BST	18
T_REC_XST	0
T_REC_TTP	0
T_REC_THO	0
T_REC_SLD	106
T_REC_ALL	1031
T_NUM_TAP	761
T_NUM_BRK	83
T_NUM_HLD	81
T_NUM_SLD	106
T_NUM_ALL	1031
T_JUDGE_TAP	844
T_JUDGE_HLD	149
T_JUDGE_SLD	106
T_JUDGE_ALL	1099
TTM_EACHPAIRS	168
TTM_SCR_TAP	380500
TTM_SCR_BRK	215800
TTM_SCR_HLD	81000
TTM_SCR_SLD	159000
TTM_SCR_ALL	836300
TTM_SCR_S	803200
TTM_SCR_SS	828000
TTM_RAT_ACV	10100

