VERSION	0.00.00	1.03.00
FES_MODE	0
BPM_DEF	185.000	185.000	185.000	185.000
MET_DEF	4	4
RESOLUTION	384
CLK_DEF	384
COMPATIBLE_CODE	MA2

BPM	0	0	185.000
MET	0	0	4	4

TAP	1	0	3
TAP	1	0	4
TAP	1	192	2
TAP	1	192	5
TAP	1	288	2
TAP	1	288	5
TAP	2	0	1
TAP	2	48	3
TAP	2	96	2
TAP	2	144	2
TAP	2	192	4
TAP	2	240	3
TAP	2	288	4
TAP	3	0	5
TAP	3	48	5
TAP	3	96	4
TAP	3	96	6
TAP	3	192	2
TAP	3	240	2
TAP	3	288	1
TAP	3	288	3
TAP	4	0	5
TAP	4	48	5
TAP	4	96	4
TAP	4	144	6
TAP	4	192	3
TAP	4	240	4
TAP	4	288	3
TAP	5	0	2
TAP	5	0	3
TAP	5	96	3
TAP	5	96	4
TAP	5	192	4
TAP	5	192	5
TAP	5	288	1
TAP	5	288	6
TAP	6	0	6
TAP	6	48	4
TAP	6	96	5
TAP	6	144	5
TAP	6	192	3
TAP	6	240	4
TAP	6	288	3
TAP	7	0	2
TAP	7	48	2
TAP	7	96	1
TAP	7	96	3
TAP	7	192	5
TAP	7	240	5
TAP	7	288	4
TAP	7	288	6
HLD	8	0	2	72
TAP	8	96	1
TAP	8	96	3
TAP	8	192	0
TAP	8	240	0
TAP	8	288	7
TAP	8	336	7
STR	9	0	2
SI_	9	0	2	96	48	7
STR	9	96	5
SI_	9	96	5	96	48	0
STR	9	192	3
SI_	9	192	3	96	48	7
TAP	9	288	4
HLD	10	0	5	96
BRK	10	96	0
STR	10	192	2
SI_	10	192	2	96	48	0
STR	10	192	3
SI_	10	192	3	96	48	7
STR	11	0	2
SI_	11	0	2	96	48	7
STR	11	0	3
SI_	11	0	3	96	48	6
STR	11	192	2
SI_	11	192	2	96	48	6
STR	11	192	3
SI_	11	192	3	96	48	5
TAP	12	0	0
TAP	12	0	7
TAP	12	96	4
TAP	12	96	5
STR	12	144	4
SLL	12	144	4	96	96	0
TAP	12	144	5
TAP	12	336	7
TAP	13	48	0
TAP	13	48	7
TAP	13	144	1
TAP	13	144	7
STR	13	192	1
SI_	13	192	1	96	48	4
STR	13	192	7
SI_	13	192	7	96	48	4
TAP	14	0	2
TAP	14	48	3
TAP	14	96	4
TAP	14	144	5
STR	14	192	4
SI_	14	192	4	96	48	0
STR	14	192	5
SI_	14	192	5	96	48	7
STR	15	0	4
SI_	15	0	4	96	48	1
STR	15	0	5
SI_	15	0	5	96	48	0
STR	15	192	4
SI_	15	192	4	96	48	2
STR	15	192	5
SI_	15	192	5	96	48	1
TAP	16	0	0
TAP	16	0	7
TAP	16	96	2
TAP	16	96	3
TAP	16	144	2
STR	16	144	3
SLR	16	144	3	96	96	7
TAP	16	336	0
STR	17	0	0
SI_	17	0	0	96	48	4
STR	17	96	7
SI_	17	96	7	96	48	5
STR	17	192	1
SI_	17	192	1	96	48	3
TAP	17	288	0
TAP	18	0	1
TAP	18	48	4
HLD	18	96	2	96
TAP	18	192	7
TAP	18	240	0
STR	18	288	7
SCL	18	288	7	96	96	3
STR	19	96	0
SCR	19	96	0	96	96	4
TAP	19	288	7
TAP	20	0	2
TAP	20	0	4
TAP	20	96	0
TAP	20	96	1
TAP	20	144	0
TAP	20	144	1
TAP	20	240	6
TAP	20	240	7
STR	20	288	6
SI_	20	288	6	96	48	3
STR	20	288	7
SI_	20	288	7	96	48	2
TAP	21	96	0
STR	21	96	1
SSR	21	96	1	96	96	5
TAP	22	0	6
TAP	22	48	3
HLD	22	96	5	96
TAP	22	192	0
TAP	22	240	7
STR	22	288	0
SCR	22	288	0	96	96	4
STR	23	96	7
SCL	23	96	7	96	96	3
TAP	23	288	0
TAP	24	0	3
TAP	24	0	5
TAP	24	96	1
TAP	24	96	7
STR	24	192	0
SI_	24	192	0	96	48	2
STR	24	192	4
SI_	24	192	4	96	48	6
STR	25	0	3
SXR	25	0	3	96	192	0
STR	25	0	7
SXR	25	0	7	96	192	4
STR	26	0	1
SXR	26	0	1	96	480	6
HLD	26	0	5	576
HLD	28	0	2	576
STR	28	0	6
SXL	28	0	6	96	480	1
STR	30	0	0
SXL	30	0	0	96	480	5
HLD	30	0	4	576
HLD	32	0	3	576
STR	32	0	7
SXR	32	0	7	96	480	2
TAP	34	0	4
TAP	34	96	4
TAP	34	192	4
TAP	34	288	4
STR	35	0	4
SXR	35	0	4	96	192	1
STR	35	0	5
SXL	35	0	5	96	192	0
TAP	36	0	3
TAP	36	96	3
TAP	36	192	3
TAP	36	288	3
STR	37	0	2
SXR	37	0	2	96	192	7
STR	37	0	3
SXL	37	0	3	96	192	6
TAP	38	0	1
TAP	38	96	1
TAP	38	192	6
TAP	38	288	6
STR	39	0	0
SXL	39	0	0	96	192	3
STR	39	0	7
SXR	39	0	7	96	192	4
TAP	40	0	5
TAP	40	96	5
TAP	40	192	2
TAP	40	288	2
STR	41	0	3
SXR	41	0	3	96	192	0
STR	41	0	4
SXL	41	0	4	96	192	7
TAP	42	0	5
TAP	42	48	4
TAP	42	48	6
TAP	42	120	4
TAP	42	120	6
TAP	42	192	4
TAP	42	192	6
TAP	42	264	4
TAP	42	264	6
TAP	42	336	4
TAP	42	336	6
TAP	43	24	1
TAP	43	24	3
TAP	43	96	1
TAP	43	96	3
TAP	43	168	1
TAP	43	168	3
TAP	43	240	1
TAP	43	240	3
TAP	43	312	3
TAP	43	312	4
TAP	43	360	3
TAP	43	360	4
TAP	44	48	0
TAP	44	48	2
TAP	44	120	0
TAP	44	120	2
TAP	44	192	0
TAP	44	192	2
TAP	44	264	0
TAP	44	264	2
TAP	44	336	0
TAP	44	336	2
TAP	45	24	5
TAP	45	24	7
TAP	45	96	5
TAP	45	96	7
TAP	45	168	5
TAP	45	168	7
TAP	45	240	5
TAP	45	240	7
TAP	45	312	2
TAP	45	312	5
TAP	46	24	1
TAP	46	24	4
TAP	46	96	1
TAP	46	96	4
TAP	46	168	1
TAP	46	168	4
TAP	46	240	1
TAP	46	240	4
STR	46	312	1
SXL	46	312	1	96	264	5
SXR	46	312	1	96	264	5
TAP	46	312	4
TAP	48	0	4
TAP	48	0	5
TAP	48	48	4
TAP	48	48	5
TAP	48	96	3
TAP	48	96	6
TAP	48	144	3
TAP	48	144	6
TAP	48	192	2
TAP	48	192	7
TAP	48	240	2
TAP	48	240	7
TAP	48	288	0
TAP	48	288	1
TAP	48	336	0
TAP	48	336	1
BRK	49	0	0
BRK	49	0	7
HLD	50	0	2	96
HLD	50	96	1	96
TAP	50	192	0
TAP	50	264	1
TAP	50	264	7
TAP	50	336	2
TAP	50	336	6
HLD	51	0	5	96
HLD	51	96	6	96
TAP	51	192	7
TAP	51	264	0
TAP	51	264	6
TAP	51	336	1
TAP	51	336	5
HLD	52	0	2	96
HLD	52	96	1	96
TAP	52	192	0
TAP	52	264	1
TAP	52	264	7
TAP	52	336	2
TAP	52	336	6
HLD	53	0	3	72
TAP	53	72	2
HLD	53	144	4	72
TAP	53	216	5
TAP	53	288	3
TAP	53	288	4
TAP	53	336	3
TAP	53	336	4
HLD	54	0	7	96
HLD	54	96	6	96
TAP	54	192	5
TAP	54	264	4
TAP	54	264	6
TAP	54	336	3
TAP	54	336	7
HLD	55	0	0	96
HLD	55	96	1	96
TAP	55	192	2
TAP	55	264	1
TAP	55	264	3
TAP	55	336	0
TAP	55	336	4
HLD	56	0	7	96
HLD	56	96	6	96
TAP	56	192	5
TAP	56	264	4
TAP	56	264	6
TAP	56	336	3
TAP	56	336	7
TAP	57	0	0
TAP	57	0	2
TAP	57	72	1
TAP	57	72	7
TAP	57	144	0
TAP	57	144	6
TAP	57	216	5
TAP	57	216	7
TAP	57	288	0
TAP	57	288	7
TAP	57	336	0
TAP	57	336	7
TAP	58	0	2
TAP	58	0	5
BRK	58	96	0
BRK	58	96	7
TAP	58	192	3
TAP	58	240	3
TAP	58	288	4
TAP	58	336	4
TAP	59	0	1
TAP	59	48	3
TAP	59	96	2
TAP	59	144	6
TAP	59	192	4
TAP	59	240	5
TAP	59	288	3
TAP	59	288	4
TAP	60	0	5
TAP	60	48	5
TAP	60	96	2
TAP	60	144	2
TAP	60	192	4
TAP	60	240	4
TAP	60	288	3
TAP	60	336	3
TAP	61	0	6
TAP	61	48	4
TAP	61	96	5
TAP	61	144	1
STR	61	192	0
SI_	61	192	0	96	48	3
STR	61	192	7
SI_	61	192	7	96	48	4
TAP	62	0	5
TAP	62	48	5
TAP	62	96	2
TAP	62	144	2
TAP	62	192	6
TAP	62	240	6
TAP	62	288	1
TAP	62	336	1
TAP	63	0	5
TAP	63	48	4
TAP	63	96	6
TAP	63	144	2
TAP	63	192	3
TAP	63	240	1
TAP	63	288	0
TAP	63	288	7
TAP	64	0	2
TAP	64	48	3
TAP	64	96	5
TAP	64	144	4
TAP	64	192	1
TAP	64	240	2
TAP	64	288	6
TAP	64	336	5
TAP	65	0	3
TAP	65	0	4
TAP	65	48	3
TAP	65	48	4
TAP	65	96	2
TAP	65	96	5
TAP	65	144	2
TAP	65	144	5
TAP	65	192	1
TAP	65	192	6
TAP	65	240	1
TAP	65	240	6
TAP	65	288	0
TAP	65	288	7
TAP	65	336	0
TAP	65	336	7
BRK	66	0	1
BRK	66	0	6
TAP	66	192	5
TAP	66	240	4
TAP	66	336	3
TAP	66	336	6
TAP	67	96	1
TAP	67	96	4
TAP	67	192	2
TAP	67	192	7
TAP	67	288	0
TAP	67	288	5
TAP	68	0	3
TAP	68	48	5
TAP	68	96	2
TAP	68	144	5
TAP	68	192	3
TAP	68	240	5
TAP	68	288	1
TAP	68	336	5
TAP	69	0	3
TAP	69	48	5
TAP	69	96	0
TAP	69	144	5
STR	69	192	0
SI_	69	192	0	96	48	3
STR	69	192	7
SI_	69	192	7	96	48	4
BRK	70	0	1
BRK	70	0	6
TAP	70	192	2
TAP	70	240	3
TAP	70	336	1
TAP	70	336	4
TAP	71	96	6
TAP	71	96	7
TAP	71	192	0
TAP	71	192	5
TAP	71	288	2
TAP	71	288	7
TAP	72	0	1
TAP	72	48	1
TAP	72	96	0
TAP	72	144	0
TAP	72	192	7
TAP	72	240	7
TAP	72	288	6
TAP	72	336	6
TAP	73	0	4
TAP	73	0	5
TAP	73	96	3
TAP	73	96	6
TAP	73	192	2
TAP	73	192	7
BRK	73	288	0
BRK	73	288	1
TAP	74	0	0
TAP	74	0	7
TAP	74	48	0
TAP	74	96	0
TAP	74	96	7
TAP	74	144	0
TAP	74	192	0
TAP	74	192	6
TAP	74	240	0
TAP	74	288	0
TAP	74	288	6
TAP	74	336	0
TAP	75	0	0
TAP	75	0	5
TAP	75	48	0
TAP	75	96	0
TAP	75	96	5
TAP	75	144	0
TAP	75	192	0
TAP	75	192	4
TAP	75	240	0
TAP	75	288	0
TAP	75	288	4
TAP	75	336	0
TAP	76	0	0
TAP	76	0	3
TAP	76	48	0
TAP	76	96	0
TAP	76	96	6
TAP	76	144	0
TAP	76	192	0
TAP	76	192	3
TAP	76	240	0
TAP	76	288	0
TAP	76	288	6
TAP	76	336	0
STR	77	0	0
SXL	77	0	0	96	192	5
HLD	77	0	4	288
TAP	78	0	0
TAP	78	0	7
TAP	78	48	7
TAP	78	96	0
TAP	78	96	7
TAP	78	144	7
TAP	78	192	1
TAP	78	192	7
TAP	78	240	7
TAP	78	288	1
TAP	78	288	7
TAP	78	336	7
TAP	79	0	2
TAP	79	0	7
TAP	79	48	7
TAP	79	96	2
TAP	79	96	7
TAP	79	144	7
TAP	79	192	3
TAP	79	192	7
TAP	79	240	7
TAP	79	288	3
TAP	79	288	7
TAP	79	336	7
TAP	80	0	4
TAP	80	0	7
TAP	80	48	7
TAP	80	96	2
TAP	80	96	7
TAP	80	144	7
TAP	80	192	5
TAP	80	192	7
TAP	80	240	7
TAP	80	288	1
TAP	80	288	7
TAP	80	336	7
HLD	81	0	3	288
BST	81	0	7
SCL	81	0	7	96	192	0
STR	82	0	0
SF_	82	0	0	96	144	4
TAP	83	0	0
TAP	83	48	1
TAP	83	96	2
TAP	83	144	3
TAP	83	192	4
BRK	83	288	0
BRK	83	288	7
HLD	84	0	2	96
HLD	84	96	1	96
TAP	84	192	0
TAP	84	264	1
TAP	84	264	7
TAP	84	336	2
TAP	84	336	6
STR	85	0	3
SXL	85	0	3	96	192	7
HLD	85	0	5	288
HLD	86	0	5	96
HLD	86	96	6	96
TAP	86	192	7
TAP	86	264	0
TAP	86	264	6
TAP	86	336	1
TAP	86	336	5
HLD	87	0	2	288
STR	87	0	4
SXR	87	0	4	96	192	0
HLD	88	0	7	96
HLD	88	96	6	96
TAP	88	192	5
TAP	88	264	4
TAP	88	264	6
TAP	88	336	3
TAP	88	336	7
STR	89	0	0
SXL	89	0	0	96	192	4
HLD	89	0	2	288
HLD	90	0	0	96
HLD	90	96	1	96
TAP	90	192	2
TAP	90	264	1
TAP	90	264	3
TAP	90	336	0
TAP	90	336	4
STR	91	0	5
SV_	91	0	5	96	96	3
STR	91	0	7
SV_	91	0	7	96	96	1
BRK	91	288	0
BRK	91	288	7
TAP	92	0	1
HLD	92	0	6	96
HLD	92	96	5	96
HLD	92	192	4	144
TAP	92	264	0
TAP	92	336	0
TAP	93	0	1
TAP	93	0	3
TAP	93	72	1
TAP	93	72	3
TAP	93	144	4
TAP	93	144	6
TAP	93	216	4
TAP	93	216	6
TAP	93	288	3
TAP	93	288	4
TAP	93	336	3
TAP	93	336	4
BRK	94	0	0
BRK	94	0	7
TAP	94	96	2
TAP	94	96	4
BRK	94	192	0
BRK	94	192	7
TAP	94	288	3
TAP	94	288	5
HLD	95	0	0	72
HLD	95	0	7	72
HLD	95	96	1	72
HLD	95	96	6	72
STR	95	192	0
SI_	95	192	0	96	48	3
STR	95	192	7
SI_	95	192	7	96	48	4
HLD	96	0	1	96
TAP	96	0	6
HLD	96	96	2	96
HLD	96	192	3	144
TAP	96	264	7
TAP	96	336	7
TAP	97	0	4
TAP	97	0	6
TAP	97	72	4
TAP	97	72	6
TAP	97	144	1
TAP	97	144	3
TAP	97	216	1
TAP	97	216	3
TAP	97	288	3
TAP	97	288	4
TAP	97	336	3
TAP	97	336	4
TAP	98	0	0
TAP	98	0	2
TAP	98	72	0
TAP	98	72	2
STR	98	144	0
SUR	98	144	0	96	96	6
TAP	98	144	2
TAP	99	0	5
TAP	99	0	7
TAP	99	72	5
TAP	99	72	7
TAP	99	144	5
STR	99	144	7
SUR	99	144	7	96	144	0
TAP	100	96	3
TAP	100	96	4
TAP	100	192	3
TAP	100	192	4
TAP	100	288	2
TAP	100	288	5
STR	101	0	1
SI_	101	0	1	96	48	5
TAP	101	0	6
STR	101	96	7
SI_	101	96	7	96	48	3
STR	101	192	0
SI_	101	192	0	96	48	4
TAP	101	288	6
TAP	102	0	2
TAP	102	48	2
TAP	102	144	1
TAP	102	144	7
TAP	102	240	2
TAP	102	240	5
TAP	102	288	3
TAP	102	288	4
STR	103	0	6
SCL	103	0	6	96	48	3
STR	103	0	7
SUL	103	0	7	96	48	2
STR	103	192	0
SUR	103	192	0	96	48	5
STR	103	192	1
SCR	103	192	1	96	48	4
TAP	104	0	0
TAP	104	48	1
TAP	104	96	2
TAP	104	144	3
STR	104	192	4
SI_	104	192	4	96	48	1
STR	104	192	5
SI_	104	192	5	96	48	0
BRK	105	0	1
BRK	105	0	3
BRK	105	96	4
BRK	105	96	6
BST	105	192	0
SLL	105	192	0	96	96	3
BST	105	192	7
SLR	105	192	7	96	96	4

T_REC_TAP	507
T_REC_BRK	23
T_REC_XTP	0
T_REC_HLD	45
T_REC_XHO	0
T_REC_STR	70
T_REC_BST	3
T_REC_XST	0
T_REC_TTP	0
T_REC_THO	0
T_REC_SLD	74
T_REC_ALL	722
T_NUM_TAP	577
T_NUM_BRK	26
T_NUM_HLD	45
T_NUM_SLD	74
T_NUM_ALL	722
T_JUDGE_TAP	603
T_JUDGE_HLD	152
T_JUDGE_SLD	74
T_JUDGE_ALL	829
TTM_EACHPAIRS	208
TTM_SCR_TAP	288500
TTM_SCR_BRK	67600
TTM_SCR_HLD	45000
TTM_SCR_SLD	111000
TTM_SCR_ALL	512100
TTM_SCR_S	494250
TTM_SCR_SS	509500
TTM_RAT_ACV	10051

