VERSION	0.00.00	1.03.00
FES_MODE	0
BPM_DEF	185.000	185.000	185.000	185.000
MET_DEF	4	4
RESOLUTION	384
CLK_DEF	384
COMPATIBLE_CODE	MA2

BPM	0	0	185.000

TAP	1	0	4
TAP	1	192	5
TAP	1	288	5
TAP	2	0	6
TAP	2	96	7
TAP	2	192	0
TAP	2	288	1
TAP	3	0	2
TAP	3	0	3
TAP	3	96	1
TAP	3	96	4
TAP	3	192	0
TAP	3	192	5
TAP	4	0	1
TAP	4	96	0
TAP	4	192	7
TAP	4	288	6
TAP	5	0	5
TAP	5	96	4
TAP	5	192	3
TAP	5	288	2
TAP	6	0	1
TAP	6	96	0
TAP	6	192	7
TAP	6	288	6
TAP	7	0	4
TAP	7	0	5
TAP	7	96	3
TAP	7	96	6
TAP	7	192	2
TAP	7	192	7
TAP	8	0	6
TAP	8	96	7
TAP	8	192	0
TAP	8	288	1
BRK	9	0	2
BRK	9	96	3
BRK	9	192	4
BRK	9	288	5
TAP	10	0	6
TAP	10	96	6
TAP	10	96	7
TAP	10	192	1
TAP	10	288	0
TAP	10	288	1
STR	11	0	0
SI_	11	0	0	96	192	5
TAP	12	0	5
TAP	12	96	4
TAP	12	96	5
TAP	12	192	2
TAP	12	288	2
TAP	12	288	3
STR	13	0	3
SI_	13	0	3	96	192	6
TAP	14	0	6
TAP	14	96	6
TAP	14	96	7
TAP	14	192	5
TAP	14	288	4
TAP	14	288	5
STR	15	0	4
SI_	15	0	4	96	192	1
TAP	16	0	1
TAP	16	96	0
TAP	16	96	1
TAP	16	192	2
TAP	16	288	2
TAP	16	288	3
TAP	17	0	1
TAP	17	0	4
TAP	17	96	0
TAP	17	96	5
TAP	17	192	6
TAP	17	192	7
TAP	17	288	6
TAP	17	288	7
TAP	18	0	0
TAP	18	0	1
TAP	18	96	1
TAP	18	192	6
TAP	18	192	7
TAP	18	288	6
STR	19	0	6
SI_	19	0	6	96	192	3
STR	19	0	7
SI_	19	0	7	96	192	2
TAP	20	0	2
TAP	20	0	3
TAP	20	96	2
TAP	20	192	4
TAP	20	192	5
TAP	20	288	5
STR	21	0	4
SI_	21	0	4	96	192	1
STR	21	0	5
SI_	21	0	5	96	192	0
TAP	22	0	0
TAP	22	0	1
TAP	22	96	1
TAP	22	192	2
TAP	22	192	3
TAP	22	288	2
STR	23	0	2
SI_	23	0	2	96	192	7
STR	23	0	3
SI_	23	0	3	96	192	6
TAP	24	0	6
TAP	24	0	7
TAP	24	96	6
TAP	24	192	4
TAP	24	192	5
TAP	24	288	5
TAP	25	0	4
TAP	25	0	5
TAP	25	96	3
TAP	25	96	6
TAP	25	192	2
TAP	25	192	7
TAP	25	288	0
TAP	25	288	1
HLD	26	0	1	384
HLD	27	0	0	384
HLD	28	0	7	384
TAP	29	0	6
HLD	30	0	5	384
HLD	31	0	4	384
HLD	32	0	3	384
TAP	33	0	2
TAP	33	96	2
TAP	33	192	1
TAP	33	192	4
TAP	33	288	0
TAP	33	288	5
HLD	34	0	7	192
TAP	34	192	6
HLD	35	0	6	192
TAP	35	192	5
HLD	36	0	5	192
TAP	36	192	4
TAP	37	0	3
TAP	37	0	6
TAP	37	192	2
TAP	37	192	7
HLD	38	0	0	192
TAP	38	192	1
HLD	39	0	1	192
TAP	39	192	2
HLD	40	0	2	192
TAP	40	192	3
TAP	41	0	1
TAP	41	0	4
TAP	41	192	0
TAP	41	192	5
STR	42	0	0
SXL	42	0	0	96	576	4
STR	44	0	5
SXL	44	0	5	96	576	1
STR	46	0	0
SXR	46	0	0	96	576	4
STR	48	0	3
SXR	48	0	3	96	288	1
STR	48	0	4
SXL	48	0	4	96	288	6
TAP	50	0	7
TAP	50	96	0
TAP	50	96	6
TAP	50	192	2
TAP	50	192	4
TAP	50	288	1
TAP	50	288	5
TAP	51	0	0
TAP	51	96	1
TAP	51	96	7
TAP	51	192	3
TAP	51	192	5
TAP	51	288	2
TAP	51	288	6
TAP	52	0	6
TAP	52	0	7
TAP	52	96	0
TAP	52	96	5
TAP	52	192	0
TAP	52	192	1
TAP	52	288	2
TAP	52	288	7
TAP	53	0	0
TAP	53	0	7
TAP	53	96	1
TAP	53	96	6
TAP	53	192	2
TAP	53	192	5
TAP	54	0	4
TAP	54	96	3
TAP	54	96	5
TAP	54	192	1
TAP	54	192	7
TAP	54	288	2
TAP	54	288	6
TAP	55	0	3
TAP	55	96	2
TAP	55	96	4
TAP	55	192	0
TAP	55	192	6
TAP	55	288	1
TAP	55	288	5
TAP	56	0	4
TAP	56	0	5
TAP	56	96	3
TAP	56	96	6
TAP	56	192	2
TAP	56	192	3
TAP	56	288	1
TAP	56	288	4
TAP	57	0	3
TAP	57	0	4
TAP	57	96	2
TAP	57	96	5
TAP	57	192	1
TAP	57	192	6
HLD	58	0	0	96
BRK	58	96	7
TAP	58	192	0
TAP	58	192	6
TAP	58	288	1
TAP	58	288	7
HLD	59	0	5	192
TAP	59	96	3
TAP	59	192	4
TAP	60	0	1
TAP	60	0	7
TAP	60	96	0
TAP	60	96	6
TAP	60	192	1
TAP	60	192	7
TAP	60	288	0
TAP	60	288	6
HLD	61	0	2	192
TAP	61	96	4
TAP	61	192	3
TAP	62	0	2
TAP	62	0	7
TAP	62	96	0
TAP	62	96	5
TAP	62	192	2
TAP	62	192	7
TAP	62	288	0
TAP	62	288	5
HLD	63	0	5	192
TAP	63	96	2
TAP	63	192	4
TAP	64	0	0
TAP	64	0	5
TAP	64	96	2
TAP	64	96	7
TAP	64	192	0
TAP	64	192	5
TAP	64	288	2
TAP	64	288	7
HLD	65	0	2	192
TAP	65	96	5
TAP	65	192	3
TAP	66	0	0
TAP	66	0	6
TAP	66	96	2
TAP	66	96	4
TAP	66	192	0
TAP	66	192	6
TAP	66	288	2
TAP	66	288	4
TAP	67	0	0
TAP	67	0	7
TAP	67	96	1
TAP	67	96	6
TAP	67	192	2
TAP	67	192	5
TAP	68	0	1
TAP	68	0	4
TAP	68	96	3
TAP	68	96	6
TAP	68	192	1
TAP	68	192	4
TAP	68	288	3
TAP	68	288	6
HLD	69	0	6	192
TAP	69	96	3
TAP	69	192	5
TAP	70	0	1
TAP	70	0	7
TAP	70	96	3
TAP	70	96	5
TAP	70	192	1
TAP	70	192	7
TAP	70	288	3
TAP	70	288	5
TAP	71	0	0
TAP	71	0	7
TAP	71	96	1
TAP	71	96	6
TAP	71	192	2
TAP	71	192	5
TAP	72	0	3
TAP	72	0	6
TAP	72	96	1
TAP	72	96	4
TAP	72	192	3
TAP	72	192	6
TAP	72	288	1
TAP	72	288	4
HLD	73	0	1	192
TAP	73	96	4
TAP	73	192	2
TAP	74	0	0
TAP	74	0	6
TAP	74	96	0
TAP	74	96	6
TAP	74	192	2
TAP	74	192	4
TAP	74	288	2
TAP	74	288	4
TAP	75	0	1
TAP	75	0	7
TAP	75	96	1
TAP	75	96	7
TAP	75	192	3
TAP	75	192	5
TAP	75	288	3
TAP	75	288	5
TAP	76	0	0
TAP	76	0	6
TAP	76	96	2
TAP	76	96	4
TAP	76	192	1
TAP	76	192	7
TAP	76	288	3
TAP	76	288	5
TAP	77	0	0
TAP	77	0	6
TAP	77	96	2
TAP	77	96	4
TAP	77	192	1
TAP	77	192	6
TAP	78	0	1
TAP	78	0	4
TAP	78	96	1
TAP	78	96	4
TAP	78	192	3
TAP	78	192	6
TAP	78	288	3
TAP	78	288	6
TAP	79	0	0
TAP	79	0	5
TAP	79	96	0
TAP	79	96	5
TAP	79	192	2
TAP	79	192	7
TAP	79	288	2
TAP	79	288	7
TAP	80	0	1
TAP	80	0	4
TAP	80	96	3
TAP	80	96	6
TAP	80	192	1
TAP	80	192	4
TAP	80	288	3
TAP	80	288	6
TAP	81	0	0
TAP	81	0	5
TAP	81	96	2
TAP	81	96	7
TAP	81	192	0
TAP	81	192	5
TAP	81	288	2
TAP	81	288	7
TAP	82	0	0
TAP	82	0	7
TAP	82	96	1
TAP	82	96	6
TAP	82	192	2
TAP	82	192	5
TAP	82	288	3
TAP	82	288	4
TAP	83	0	2
TAP	83	0	5
TAP	83	96	2
TAP	83	96	5
TAP	83	192	1
TAP	83	192	6
BRK	83	288	0
BRK	83	288	7
TAP	84	0	7
TAP	84	96	0
TAP	84	96	6
TAP	84	192	2
TAP	84	192	4
TAP	84	288	1
TAP	84	288	5
STR	85	0	0
SXL	85	0	0	96	192	1
TAP	86	0	0
TAP	86	96	1
TAP	86	96	7
TAP	86	192	3
TAP	86	192	5
TAP	86	288	2
TAP	86	288	6
STR	87	0	7
SXR	87	0	7	96	192	6
TAP	88	0	6
TAP	88	0	7
TAP	88	96	0
TAP	88	96	5
TAP	88	192	0
TAP	88	192	1
TAP	88	288	2
TAP	88	288	7
STR	89	0	0
SXL	89	0	0	96	192	1
STR	89	0	7
SXR	89	0	7	96	192	6
TAP	90	0	0
TAP	90	0	7
TAP	90	96	1
TAP	90	96	6
TAP	90	192	2
TAP	90	192	5
TAP	90	288	3
TAP	90	288	4
STR	91	0	3
SXR	91	0	3	96	192	2
STR	91	0	4
SXL	91	0	4	96	192	5
TAP	92	0	3
TAP	92	96	2
TAP	92	96	4
TAP	92	192	0
TAP	92	192	6
TAP	92	288	1
TAP	92	288	5
TAP	93	0	4
TAP	93	96	3
TAP	93	96	5
TAP	93	192	1
TAP	93	192	7
TAP	93	288	2
TAP	93	288	6
TAP	94	0	2
TAP	94	0	3
TAP	94	96	0
TAP	94	96	1
TAP	94	192	6
TAP	94	192	7
TAP	94	288	4
TAP	94	288	5
TAP	95	0	3
TAP	95	0	4
TAP	95	96	2
TAP	95	96	5
TAP	95	192	1
TAP	95	192	6
BRK	95	288	0
TAP	96	0	7
TAP	96	96	0
TAP	96	96	6
TAP	96	192	2
TAP	96	192	4
TAP	96	288	1
TAP	96	288	5
TAP	97	0	0
TAP	97	96	1
TAP	97	96	7
TAP	97	192	3
TAP	97	192	5
TAP	97	288	2
TAP	97	288	6
TAP	98	0	4
TAP	98	0	5
TAP	98	96	6
TAP	98	96	7
TAP	98	192	0
TAP	98	192	1
TAP	98	288	2
TAP	98	288	3
TAP	99	0	4
TAP	99	48	3
TAP	99	96	4
TAP	99	144	3
TAP	99	192	5
TAP	99	240	2
TAP	99	288	5
TAP	99	336	2
TAP	100	96	5
TAP	100	192	5
BRK	100	288	2
BRK	100	288	5
TAP	101	0	6
TAP	101	96	7
TAP	101	192	0
TAP	101	288	1
TAP	102	0	0
TAP	102	0	1
TAP	102	96	0
TAP	102	96	1
TAP	102	192	6
TAP	102	192	7
TAP	102	288	6
TAP	102	288	7
TAP	103	0	5
TAP	103	96	4
TAP	103	96	5
TAP	103	192	2
TAP	103	288	2
TAP	103	288	3
TAP	104	0	4
TAP	104	48	3
TAP	104	96	4
TAP	104	144	3
TAP	104	192	4
TAP	104	288	2
TAP	104	288	5
TAP	105	0	3
TAP	105	48	4
TAP	105	96	3
TAP	105	144	4
TAP	105	192	3
BRK	105	288	1
BRK	105	288	6

T_REC_TAP	456
T_REC_BRK	12
T_REC_XTP	0
T_REC_HLD	19
T_REC_XHO	0
T_REC_STR	20
T_REC_BST	0
T_REC_XST	0
T_REC_TTP	0
T_REC_THO	0
T_REC_SLD	20
T_REC_ALL	527
T_NUM_TAP	476
T_NUM_BRK	12
T_NUM_HLD	19
T_NUM_SLD	20
T_NUM_ALL	527
T_JUDGE_TAP	488
T_JUDGE_HLD	98
T_JUDGE_SLD	20
T_JUDGE_ALL	606
TTM_EACHPAIRS	189
TTM_SCR_TAP	238000
TTM_SCR_BRK	31200
TTM_SCR_HLD	19000
TTM_SCR_SLD	30000
TTM_SCR_ALL	318200
TTM_SCR_S	307500
TTM_SCR_SS	317000
TTM_RAT_ACV	10037

