VERSION	0.00.00	1.03.00
FES_MODE	0
BPM_DEF	185.000	185.000	185.000	185.000
MET_DEF	4	4
RESOLUTION	384
CLK_DEF	384
COMPATIBLE_CODE	MA2

BPM	0	0	185.000

TAP	2	0	0
TAP	2	96	0
TAP	2	192	0
TAP	3	0	1
TAP	3	96	1
TAP	3	192	1
TAP	4	0	2
TAP	4	96	2
TAP	4	192	2
TAP	5	0	3
TAP	5	96	3
TAP	5	192	4
TAP	5	288	4
TAP	6	0	3
TAP	6	96	3
TAP	6	192	3
TAP	7	0	4
TAP	7	96	4
TAP	7	192	4
TAP	8	0	5
TAP	8	96	5
TAP	8	192	5
TAP	9	0	6
TAP	9	96	6
TAP	9	192	7
TAP	9	288	7
STR	10	0	0
SI_	10	0	0	96	288	4
STR	12	0	7
SI_	12	0	7	96	288	3
STR	14	0	1
SI_	14	0	1	96	288	4
STR	16	0	6
SI_	16	0	6	96	288	3
STR	18	0	1
SI_	18	0	1	96	288	6
STR	20	0	2
SI_	20	0	2	96	288	5
STR	22	0	6
SI_	22	0	6	96	288	1
STR	24	0	5
SI_	24	0	5	96	288	2
HLD	26	0	0	384
HLD	26	0	1	384
HLD	28	0	2	384
HLD	28	0	3	384
HLD	30	0	4	384
HLD	30	0	5	384
HLD	32	0	6	384
HLD	32	0	7	384
TAP	34	0	7
TAP	34	96	7
TAP	34	192	7
TAP	35	0	6
TAP	35	96	6
TAP	35	192	6
TAP	36	0	5
TAP	36	96	5
TAP	36	192	5
TAP	37	0	4
TAP	37	96	4
TAP	37	192	4
TAP	38	0	3
TAP	38	96	3
TAP	38	192	3
TAP	39	0	2
TAP	39	96	2
TAP	39	192	2
TAP	40	0	1
TAP	40	96	1
TAP	40	192	1
TAP	41	0	0
TAP	41	96	0
BRK	41	192	0
STR	42	0	0
SI_	42	0	0	96	288	3
STR	44	0	7
SI_	44	0	7	96	288	4
STR	46	0	3
SI_	46	0	3	96	288	0
STR	48	0	4
SI_	48	0	4	96	288	7
TAP	50	0	0
TAP	50	0	1
TAP	50	96	1
TAP	50	192	1
TAP	51	0	2
TAP	51	0	3
TAP	51	96	2
TAP	51	192	2
TAP	52	0	4
TAP	52	0	5
TAP	52	96	5
TAP	52	192	5
TAP	53	0	6
TAP	53	0	7
TAP	53	96	6
TAP	53	192	6
TAP	54	0	6
TAP	54	0	7
TAP	54	96	7
TAP	54	192	7
TAP	55	0	4
TAP	55	0	5
TAP	55	96	4
TAP	55	192	4
TAP	56	0	2
TAP	56	0	3
TAP	56	96	3
TAP	56	192	3
TAP	57	0	0
TAP	57	0	1
TAP	57	96	0
TAP	57	192	0
TAP	58	0	0
TAP	58	96	0
TAP	58	192	1
TAP	58	288	1
TAP	59	0	2
TAP	59	96	2
TAP	59	192	3
TAP	60	0	4
TAP	60	96	4
TAP	60	192	5
TAP	60	288	5
TAP	61	0	6
TAP	61	96	6
TAP	61	192	7
TAP	62	0	7
TAP	62	96	7
TAP	62	192	6
TAP	62	288	6
TAP	63	0	5
TAP	63	96	5
TAP	63	192	4
TAP	64	0	3
TAP	64	96	3
TAP	64	192	2
TAP	64	288	2
TAP	65	0	1
TAP	65	96	1
TAP	65	192	0
STR	66	0	0
SI_	66	0	0	96	288	3
STR	66	0	7
SI_	66	0	7	96	288	4
TAP	68	0	0
TAP	68	96	0
TAP	68	192	1
TAP	68	288	1
TAP	69	0	2
TAP	69	96	2
TAP	69	192	3
TAP	69	288	3
TAP	70	0	4
TAP	70	96	4
TAP	70	192	5
TAP	70	288	5
TAP	71	0	6
TAP	71	96	6
TAP	71	192	0
TAP	71	192	7
TAP	72	0	7
TAP	72	96	7
TAP	72	192	6
TAP	72	288	6
TAP	73	0	5
TAP	73	96	5
TAP	73	192	4
TAP	73	288	4
TAP	74	0	3
TAP	74	48	3
TAP	74	96	3
TAP	74	192	2
TAP	74	240	2
TAP	74	288	2
TAP	75	0	1
TAP	75	48	1
TAP	75	96	1
TAP	75	192	0
TAP	75	240	0
TAP	75	288	0
TAP	76	0	7
TAP	76	48	7
TAP	76	96	7
TAP	76	192	6
TAP	76	240	6
TAP	76	288	6
TAP	77	0	5
TAP	77	48	5
TAP	77	96	5
BRK	77	192	4
TAP	78	0	4
TAP	78	48	4
TAP	78	96	4
TAP	78	192	5
TAP	78	240	5
TAP	78	288	5
TAP	79	0	6
TAP	79	48	6
TAP	79	96	6
TAP	79	192	7
TAP	79	240	7
TAP	79	288	7
TAP	80	0	0
TAP	80	48	0
TAP	80	96	0
TAP	80	192	1
TAP	80	240	1
TAP	80	288	1
TAP	81	0	2
TAP	81	48	2
TAP	81	96	2
BRK	81	192	3
HLD	82	0	3	288
HLD	82	0	4	288
TAP	83	0	4
TAP	83	96	4
TAP	83	192	3
BRK	83	288	3
TAP	84	0	2
TAP	84	96	2
TAP	84	192	2
TAP	85	0	5
TAP	85	96	5
TAP	85	192	5
TAP	86	0	3
TAP	86	96	3
TAP	86	192	3
TAP	87	0	4
TAP	87	96	4
TAP	87	192	4
TAP	88	0	2
TAP	88	0	3
TAP	88	96	2
TAP	88	96	3
TAP	88	192	2
TAP	88	192	3
TAP	89	0	4
TAP	89	0	5
TAP	89	96	4
TAP	89	96	5
TAP	89	192	4
TAP	89	192	5
TAP	90	0	2
TAP	90	0	4
TAP	90	96	2
TAP	90	96	4
TAP	90	192	2
TAP	90	192	4
TAP	91	0	3
TAP	91	0	5
TAP	91	96	3
TAP	91	96	5
TAP	91	192	3
TAP	91	192	5
TAP	92	0	2
TAP	92	96	2
TAP	92	192	2
TAP	92	288	2
TAP	93	0	1
TAP	93	96	1
TAP	93	192	1
TAP	93	288	1
TAP	94	0	0
TAP	94	96	0
TAP	94	192	0
TAP	94	288	0
TAP	95	0	7
TAP	95	96	0
TAP	95	192	7
TAP	96	0	6
TAP	96	96	6
TAP	96	192	6
TAP	96	288	6
TAP	97	0	5
TAP	97	96	5
TAP	97	192	5
TAP	97	288	5
TAP	98	0	4
TAP	98	96	4
TAP	98	192	4
TAP	98	288	4
TAP	99	0	3
TAP	99	96	3
TAP	99	192	3
TAP	99	288	3
TAP	100	0	2
TAP	100	0	4
TAP	101	0	1
TAP	101	96	1
TAP	101	192	1
TAP	102	0	0
TAP	102	0	7
TAP	102	96	0
TAP	102	96	7
TAP	102	192	0
TAP	102	192	7
TAP	103	0	6
TAP	103	96	6
TAP	103	192	6
TAP	104	0	0
TAP	104	0	7
TAP	104	96	0
TAP	104	96	7
TAP	104	192	0
TAP	104	192	7
TAP	105	0	0
TAP	105	96	7
TAP	105	192	0
BRK	105	288	1
BRK	105	288	6

T_REC_TAP	268
T_REC_BRK	6
T_REC_XTP	0
T_REC_HLD	10
T_REC_XHO	0
T_REC_STR	14
T_REC_BST	0
T_REC_XST	0
T_REC_TTP	0
T_REC_THO	0
T_REC_SLD	14
T_REC_ALL	312
T_NUM_TAP	282
T_NUM_BRK	6
T_NUM_HLD	10
T_NUM_SLD	14
T_NUM_ALL	312
T_JUDGE_TAP	288
T_JUDGE_HLD	76
T_JUDGE_SLD	14
T_JUDGE_ALL	378
TTM_EACHPAIRS	35
TTM_SCR_TAP	141000
TTM_SCR_BRK	15600
TTM_SCR_HLD	10000
TTM_SCR_SLD	21000
TTM_SCR_ALL	187600
TTM_SCR_S	181400
TTM_SCR_SS	187000
TTM_RAT_ACV	10032

