VERSION	0.00.00	1.03.00
FES_MODE	0
BPM_DEF	155.000	155.000	155.000	155.000
MET_DEF	4	4
RESOLUTION	384
CLK_DEF	384
COMPATIBLE_CODE	MA2

BPM	0	0	155.000
MET	0	0	4	4
MET	11	0	4	2
MET	11	192	4	4

TAP	1	0	3
TAP	1	0	4
TAP	1	96	1
TAP	1	96	2
TAP	1	168	0
TAP	1	168	7
TAP	1	240	4
TAP	1	240	6
TAP	1	288	3
TAP	1	288	5
TAP	1	336	2
TAP	1	336	4
TAP	2	0	1
TAP	2	0	3
TAP	2	32	0
TAP	2	64	7
TAP	2	96	6
TAP	2	128	5
TAP	2	160	4
TAP	2	192	3
TAP	2	240	2
TAP	2	240	5
BST	2	288	0
SCL	2	288	0	96	576	0
BST	2	288	7
SCR	2	288	7	96	576	7
HLD	5	0	2	192
HLD	5	192	3	192
HLD	6	0	4	192
STR	6	192	5
SCR	6	192	5	96	96	2
TAP	7	0	3
TAP	7	96	4
TAP	7	192	5
TAP	7	288	6
TAP	8	0	0
TAP	8	0	7
TAP	8	96	1
TAP	8	96	2
TAP	8	192	3
TAP	8	192	4
TAP	8	288	5
TAP	8	288	6
TAP	8	336	7
TAP	9	0	0
TAP	9	48	1
TAP	9	96	2
TAP	9	144	3
TAP	9	192	4
TAP	9	240	5
TAP	9	288	6
TAP	9	336	7
TAP	10	0	0
TAP	10	0	1
TAP	10	48	2
TAP	10	48	3
TAP	10	96	4
TAP	10	96	5
TAP	10	144	6
TAP	10	144	7
TAP	10	192	0
TAP	10	216	7
TAP	10	240	0
TAP	10	264	7
TAP	10	288	0
TAP	10	304	1
TAP	10	320	2
TAP	10	336	7
TAP	10	352	6
TAP	10	368	5
BST	11	0	0
SI_	11	0	0	96	48	3
BST	11	0	4
SI_	11	0	4	96	48	7
TAP	11	192	3
TAP	11	192	7
TAP	11	240	2
TAP	11	288	1
TAP	11	288	7
TAP	11	336	0
TAP	12	0	1
TAP	12	0	6
TAP	12	48	2
TAP	12	96	3
TAP	12	96	6
TAP	12	144	2
TAP	12	192	1
TAP	12	192	5
STR	12	240	0
SI_	12	240	0	96	24	2
TAP	12	288	4
TAP	12	336	0
STR	12	336	3
SI_	12	336	3	96	48	7
TAP	13	48	3
STR	13	48	6
SI_	13	48	6	96	24	4
TAP	13	144	6
TAP	13	192	0
TAP	13	240	5
TAP	13	288	0
TAP	13	288	6
TAP	13	336	7
TAP	14	0	1
TAP	14	0	6
TAP	14	48	5
TAP	14	96	1
TAP	14	96	4
TAP	14	144	5
TAP	14	192	2
TAP	14	192	6
STR	14	240	7
SI_	14	240	7	96	24	5
TAP	14	288	3
STR	14	336	4
SI_	14	336	4	96	48	0
TAP	14	336	7
STR	15	48	1
SI_	15	48	1	96	24	3
TAP	15	48	4
TAP	15	144	1
TAP	15	192	4
TAP	15	240	2
TAP	15	264	3
TAP	15	288	2
TAP	15	336	5
TAP	15	360	4
TAP	16	0	5
TAP	16	48	1
TAP	16	72	3
TAP	16	96	2
TAP	16	144	6
TAP	16	168	4
TAP	16	192	5
TAP	16	240	0
TAP	16	264	3
TAP	16	288	2
TAP	16	336	7
TAP	16	360	4
TAP	17	0	5
TAP	17	48	0
TAP	17	72	3
TAP	17	96	1
TAP	17	144	7
TAP	17	168	4
TAP	17	192	6
TAP	17	240	0
TAP	17	264	2
TAP	17	288	1
TAP	17	336	7
TAP	17	360	5
TAP	18	0	6
TAP	18	48	0
TAP	18	72	7
TAP	18	96	1
TAP	18	120	6
TAP	18	144	2
TAP	18	168	5
STR	18	192	3
SV_	18	192	3	96	48	1
STR	18	192	4
SV_	18	192	4	96	48	6
STR	18	240	1
SLR	18	240	1	96	96	7
STR	18	240	6
SLL	18	240	6	96	96	0
BRK	19	96	1
BRK	19	96	6
TAP	19	192	2
TAP	19	216	3
TAP	19	240	1
TAP	19	264	4
TAP	19	288	2
TAP	19	312	3
TAP	19	336	1
TAP	19	360	4
TAP	20	0	2
TAP	20	24	2
TAP	20	72	0
TAP	20	72	7
TAP	20	192	5
TAP	20	216	4
TAP	20	240	6
TAP	20	264	3
TAP	20	288	5
TAP	20	312	4
TAP	20	336	6
TAP	20	360	3
TAP	21	0	5
TAP	21	24	5
TAP	21	72	0
TAP	21	72	7
TAP	21	120	6
TAP	21	144	7
TAP	21	168	5
TAP	21	192	2
TAP	21	216	3
TAP	21	240	1
TAP	21	264	4
TAP	21	288	2
TAP	21	312	3
TAP	21	336	1
TAP	21	360	4
TAP	22	0	2
TAP	22	24	2
TAP	22	72	0
TAP	22	72	7
TAP	22	120	1
TAP	22	144	0
TAP	22	168	2
TAP	22	192	7
TAP	22	216	6
TAP	22	240	5
TAP	22	264	4
TAP	22	288	0
TAP	22	312	7
TAP	22	336	6
TAP	22	360	5
TAP	23	0	1
TAP	23	24	0
TAP	23	48	7
TAP	23	72	6
TAP	23	96	2
TAP	23	120	1
TAP	23	144	0
TAP	23	168	7
TAP	23	192	5
TAP	23	216	4
TAP	23	240	6
TAP	23	264	3
TAP	23	288	5
TAP	23	312	4
TAP	23	336	6
TAP	23	360	3
TAP	24	0	5
TAP	24	24	5
TAP	24	72	0
TAP	24	72	7
TAP	24	192	2
TAP	24	216	3
TAP	24	240	1
TAP	24	264	4
TAP	24	288	2
TAP	24	312	3
TAP	24	336	1
TAP	24	360	4
TAP	25	0	2
TAP	25	24	2
TAP	25	72	0
TAP	25	72	7
TAP	25	120	1
TAP	25	144	0
TAP	25	168	2
TAP	25	192	5
TAP	25	216	4
TAP	25	240	6
TAP	25	264	3
TAP	25	288	5
TAP	25	312	4
TAP	25	336	6
TAP	25	360	3
TAP	26	0	5
TAP	26	24	5
TAP	26	72	0
TAP	26	72	7
TAP	26	120	6
TAP	26	144	7
TAP	26	168	5
TAP	26	192	0
TAP	26	240	1
TAP	26	240	7
STR	26	288	2
SUL	26	288	2	96	48	5
STR	26	288	6
SUL	26	288	6	96	48	1
BRK	27	96	0
BRK	27	96	4
TAP	27	192	7
TAP	27	240	6
HLD	27	288	5	48
TAP	27	336	4
TAP	27	360	5
TAP	28	48	3
TAP	28	96	2
TAP	28	144	1
TAP	28	192	0
TAP	28	208	4
TAP	28	224	0
TAP	28	240	4
TAP	28	256	0
TAP	28	272	4
TAP	28	288	0
TAP	28	336	1
TAP	28	360	3
TAP	29	0	2
TAP	29	48	3
TAP	29	48	4
TAP	29	96	6
TAP	29	120	4
TAP	29	144	5
TAP	29	192	0
TAP	29	240	1
HLD	29	288	2	48
TAP	29	336	3
TAP	29	360	2
TAP	30	48	0
TAP	30	48	7
TAP	30	96	5
TAP	30	112	4
TAP	30	128	3
TAP	30	144	2
TAP	30	192	0
TAP	30	192	1
TAP	30	240	2
TAP	30	264	3
TAP	30	288	2
TAP	30	336	4
TAP	30	336	5
TAP	31	0	6
TAP	31	24	7
TAP	31	72	1
TAP	31	96	0
TAP	31	144	3
TAP	31	144	7
TAP	31	192	0
TAP	31	192	4
TAP	31	240	1
HLD	31	288	2	48
TAP	31	336	3
TAP	31	360	2
TAP	32	48	4
TAP	32	96	5
TAP	32	144	6
TAP	32	192	7
TAP	32	208	3
TAP	32	224	7
TAP	32	240	3
TAP	32	256	7
TAP	32	272	3
TAP	32	288	7
TAP	32	336	6
TAP	32	360	4
TAP	33	0	5
TAP	33	48	3
TAP	33	48	4
TAP	33	96	1
TAP	33	120	3
TAP	33	144	2
TAP	33	192	3
TAP	33	192	4
TAP	33	240	1
TAP	33	288	7
TAP	33	304	6
TAP	33	320	5
TAP	33	336	3
TAP	33	336	4
TAP	34	0	3
TAP	34	0	4
TAP	34	48	6
TAP	34	96	0
TAP	34	112	1
TAP	34	128	2
TAP	34	144	3
TAP	34	144	4
TAP	34	192	3
STR	34	192	4
SXL	34	192	4	96	96	4
STR	35	0	3
SXR	35	0	3	96	96	3
HLD	35	192	4	192
TAP	36	0	3
TAP	36	24	5
TAP	36	48	1
TAP	36	72	7
STR	36	96	3
SCL	36	96	3	96	144	4
TAP	36	120	5
TAP	36	144	1
TAP	36	168	7
BRK	37	0	1
BRK	37	0	5
TAP	37	192	6
STR	37	192	7
SCR	37	192	7	96	48	2
HLD	37	288	5	72
TAP	37	360	4
TAP	38	0	5
STR	38	48	0
SI_	38	48	0	96	48	4
STR	38	48	1
SI_	38	48	1	96	48	5
TAP	38	144	0
TAP	38	144	1
TAP	38	240	3
TAP	38	240	6
TAP	38	288	1
STR	38	288	4
SI_	38	288	4	96	48	1
TAP	38	336	3
TAP	39	0	4
TAP	39	0	5
TAP	39	48	7
STR	39	96	3
SI_	39	96	3	96	48	6
TAP	39	96	6
TAP	39	144	0
HLD	39	192	2	72
TAP	39	192	3
TAP	39	264	3
STR	39	288	2
SCL	39	288	2	96	48	7
STR	39	336	7
SCL	39	336	7	96	48	4
STR	40	0	4
SCL	40	0	4	96	48	1
TAP	40	144	6
TAP	40	168	7
TAP	40	192	4
TAP	40	216	1
TAP	40	240	5
TAP	40	264	0
TAP	40	288	3
TAP	40	312	2
TAP	40	336	5
TAP	40	360	0
TAP	41	0	4
TAP	41	24	1
TAP	41	48	6
TAP	41	72	7
TAP	41	96	0
TAP	41	96	5
TAP	41	144	1
TAP	41	144	4
TAP	41	192	2
STR	41	192	3
SI_	41	192	3	96	48	0
HLD	41	288	6	72
TAP	41	360	7
TAP	42	0	6
TAP	42	48	2
STR	42	48	3
SI_	42	48	3	96	48	6
TAP	42	144	3
STR	42	144	4
SI_	42	144	4	96	48	1
TAP	42	240	4
TAP	42	240	5
TAP	42	288	6
TAP	42	336	7
TAP	43	0	0
TAP	43	0	1
STR	43	96	4
SI_	43	96	4	96	48	7
TAP	43	96	5
TAP	43	144	3
TAP	43	192	2
TAP	43	288	4
TAP	43	336	5
TAP	44	0	3
TAP	44	0	6
TAP	44	48	2
STR	44	96	1
SI_	44	96	1	96	48	7
TAP	44	96	4
TAP	44	144	5
BRK	44	192	1
STR	44	192	6
SI_	44	192	6	96	48	2
STR	44	288	0
SV_	44	288	0	96	48	3
SV_	44	288	0	96	48	5
BRK	44	288	6
BRK	45	0	0
TAP	45	96	0
TAP	45	96	4
TAP	45	120	1
TAP	45	120	5
TAP	45	144	2
TAP	45	144	6
TAP	45	168	3
TAP	45	168	7
STR	45	192	0
SCL	45	192	0	96	48	5
TAP	45	192	4
HLD	45	288	2	72
TAP	45	360	3
TAP	46	0	2
STR	46	48	6
SI_	46	48	6	96	48	2
STR	46	48	7
SI_	46	48	7	96	48	3
TAP	46	144	6
TAP	46	144	7
TAP	46	240	1
TAP	46	240	4
STR	46	288	3
SI_	46	288	3	96	48	6
TAP	46	288	6
TAP	46	336	4
TAP	47	0	2
TAP	47	0	3
TAP	47	48	0
TAP	47	96	1
STR	47	96	4
SI_	47	96	4	96	48	1
TAP	47	144	7
TAP	47	192	4
HLD	47	192	5	72
TAP	47	264	4
STR	47	288	5
SCR	47	288	5	96	48	0
STR	47	336	0
SCR	47	336	0	96	48	3
STR	48	0	3
SCR	48	0	3	96	48	6
TAP	48	144	1
TAP	48	168	0
TAP	48	192	3
TAP	48	216	6
TAP	48	240	2
TAP	48	264	7
TAP	48	288	4
TAP	48	312	5
TAP	48	336	2
TAP	48	360	7
TAP	49	0	3
TAP	49	24	6
TAP	49	48	1
TAP	49	72	0
TAP	49	96	2
TAP	49	96	7
TAP	49	144	3
TAP	49	144	6
STR	49	192	4
SI_	49	192	4	96	48	7
TAP	49	192	5
HLD	49	288	1	72
TAP	49	360	0
TAP	50	0	1
STR	50	48	4
SI_	50	48	4	96	48	1
TAP	50	48	5
STR	50	144	3
SI_	50	144	3	96	48	6
TAP	50	144	4
TAP	50	240	2
TAP	50	240	3
TAP	50	288	1
TAP	50	336	0
TAP	51	0	6
TAP	51	0	7
TAP	51	48	4
TAP	51	48	5
TAP	51	96	2
TAP	51	96	3
TAP	51	144	0
TAP	51	144	1
STR	51	192	7
SI_	51	192	7	96	48	2
TAP	51	240	7
STR	51	288	3
SI_	51	288	3	96	48	6
TAP	51	336	3
STR	52	0	0
SI_	52	0	0	96	48	5
TAP	52	48	0
STR	52	96	4
SI_	52	96	4	96	48	1
TAP	52	144	4
HLD	52	192	6	72
TAP	52	264	7
TAP	52	288	6
STR	52	336	0
SCR	52	336	0	96	48	4
STR	52	336	4
SCR	52	336	4	96	48	0
TAP	53	0	0
TAP	53	0	4
HLD	53	192	2	96
TAP	53	192	3
TAP	53	216	4
TAP	53	240	5
TAP	53	264	6
TAP	53	288	7
TAP	53	336	0
HLD	53	336	7	96
TAP	53	360	1
TAP	54	0	2
TAP	54	24	3
TAP	54	48	4
TAP	54	96	4
HLD	54	96	5	96
TAP	54	120	3
TAP	54	144	2
TAP	54	168	1
TAP	54	192	0
HLD	54	240	0	96
TAP	54	240	7
TAP	54	264	6
TAP	54	288	5
TAP	54	312	4
TAP	54	336	3
STR	55	0	2
SI_	55	0	2	96	48	7
HLD	55	0	3	96
TAP	55	192	4
HLD	55	192	5	96
TAP	55	216	3
TAP	55	240	2
TAP	55	264	1
TAP	55	288	0
HLD	55	336	0	96
TAP	55	336	7
TAP	55	360	6
TAP	56	0	5
TAP	56	24	4
TAP	56	48	3
HLD	56	96	2	96
TAP	56	96	3
TAP	56	120	4
TAP	56	144	5
TAP	56	168	6
TAP	56	192	7
TAP	56	240	0
HLD	56	240	7	96
TAP	56	264	1
TAP	56	288	2
TAP	56	312	3
TAP	56	336	4
HLD	57	0	4	96
STR	57	0	5
SI_	57	0	5	96	48	0
HLD	57	192	1	96
HLD	57	288	3	96
HLD	58	0	4	96
HLD	58	96	6	240
TAP	58	192	7
TAP	58	240	0
TAP	58	288	1
TAP	58	336	2
TAP	59	0	2
TAP	59	0	6
TAP	59	24	1
TAP	59	24	5
TAP	59	48	0
TAP	59	48	4
TAP	59	72	3
TAP	59	72	7
STR	59	96	2
SCR	59	96	2	96	48	5
STR	59	96	6
SCR	59	96	6	96	48	1
STR	59	192	6
SI_	59	192	6	96	48	2
STR	60	0	3
SV_	60	0	3	96	48	0
STR	60	0	7
SI_	60	0	7	96	48	4
STR	60	192	3
SLR	60	192	3	96	48	1
STR	60	192	7
SLR	60	192	7	96	48	5
TAP	60	288	3
TAP	60	288	7
TAP	61	0	2
TAP	61	0	6
BST	61	96	4
SI_	61	96	4	96	144	0
HLD	61	192	4	192
TAP	62	0	0
TAP	62	48	7
TAP	62	72	7
TAP	62	96	7
HLD	62	192	1	192
TAP	62	336	2
HLD	63	0	2	192
TAP	63	144	3
HLD	63	192	3	96
HLD	63	288	4	96
STR	64	0	5
SCR	64	0	5	96	96	2
HLD	64	192	5	192
TAP	64	336	4
HLD	65	0	4	96
STR	65	96	3
SCL	65	96	3	96	192	4
TAP	66	48	3
TAP	66	96	2
TAP	66	144	1
TAP	66	192	0
TAP	66	192	4
TAP	66	240	0
HLD	66	288	0	96
TAP	66	288	4
TAP	67	0	5
TAP	67	48	0
TAP	67	96	1
TAP	67	96	5
TAP	67	144	2
TAP	67	192	3
TAP	67	192	6
STR	67	240	3
SCL	67	240	3	96	48	0
TAP	67	288	6
TAP	67	336	3
TAP	68	0	7
TAP	68	48	0
TAP	68	96	1
TAP	68	96	7
TAP	68	144	2
TAP	68	144	6
TAP	68	192	3
HLD	68	192	5	96
TAP	68	288	3
TAP	68	336	6
TAP	69	0	2
HLD	69	0	7	96
TAP	69	96	2
TAP	69	144	6
TAP	69	192	1
TAP	69	192	5
TAP	69	240	1
TAP	69	240	5
TAP	69	288	0
TAP	69	288	4
TAP	69	336	0
TAP	69	336	4
TAP	70	0	3
TAP	70	0	7
BRK	70	48	0
BRK	70	72	0
BRK	70	96	0
HLD	70	192	2	72
TAP	70	264	3
STR	70	288	2
SI_	70	288	2	96	48	7
TAP	70	336	6
TAP	71	0	2
HLD	71	0	5	72
TAP	71	72	4
STR	71	96	5
SI_	71	96	5	96	48	0
TAP	71	144	1
HLD	71	192	3	72
TAP	71	192	5
TAP	71	264	4
STR	71	288	3
SI_	71	288	3	96	48	7
TAP	71	336	1
TAP	71	336	5
TAP	72	0	3
TAP	72	0	7
TAP	72	96	1
STR	72	96	5
SCR	72	96	5	96	96	2
TAP	72	120	2
TAP	72	144	3
TAP	72	168	4
TAP	72	192	5
TAP	72	336	3
TAP	72	336	4
TAP	73	0	3
TAP	73	0	4
STR	73	48	0
SV_	73	48	0	96	48	2
STR	73	48	7
SV_	73	48	7	96	48	5
TAP	73	72	1
TAP	73	72	6
STR	73	96	2
SLL	73	96	2	96	96	4
STR	73	96	5
SLR	73	96	5	96	96	3
TAP	74	0	0
TAP	74	0	7
STR	74	48	1
SI_	74	48	1	96	48	4
TAP	74	96	0
TAP	74	144	1
STR	74	192	6
SI_	74	192	6	96	48	3
TAP	74	240	7
TAP	74	288	6
TAP	75	0	1
TAP	75	0	6
TAP	75	48	3
TAP	75	72	7
TAP	75	96	2
TAP	75	120	6
TAP	75	144	1
TAP	75	168	5
BST	75	192	0
SI_	75	192	0	96	48	2
BST	75	192	4
SI_	75	192	4	96	48	6
BST	75	288	0
SI_	75	288	0	96	48	4
BST	75	288	4
SI_	75	288	4	96	48	0
BST	76	0	0
SCR	76	0	0	96	48	3
BST	76	0	4
SCR	76	0	4	96	48	7
BRK	76	96	0
BRK	76	96	4
TAP	76	192	2
STR	76	192	7
SI_	76	192	7	96	48	2
TAP	76	240	0
TAP	76	288	6
TAP	76	288	7
TAP	76	336	3
STR	77	0	0
SI_	77	0	0	96	48	5
TAP	77	0	5
TAP	77	48	7
TAP	77	96	0
TAP	77	96	1
TAP	77	144	4
TAP	77	192	3
STR	77	192	6
SLL	77	192	6	96	48	0
TAP	77	240	2
STR	77	288	1
SLR	77	288	1	96	48	7
BST	78	0	0
SF_	78	0	0	96	48	4
TAP	78	192	4
HLD	78	192	6	72
TAP	78	216	3
TAP	78	240	2
TAP	78	264	1
TAP	78	288	0
TAP	78	288	6
HLD	78	336	0	72
TAP	78	336	6
TAP	78	360	5
TAP	79	0	4
TAP	79	24	3
TAP	79	48	0
TAP	79	48	2
HLD	79	96	0	72
TAP	79	96	2
TAP	79	120	3
TAP	79	144	4
TAP	79	168	5
TAP	79	192	0
TAP	79	192	6
TAP	79	240	0
HLD	79	240	6	72
TAP	79	264	1
TAP	79	288	2
TAP	79	312	3
TAP	79	336	4
TAP	79	336	6
STR	80	0	4
SI_	80	0	4	96	48	0
STR	80	0	6
SI_	80	0	6	96	48	2
TAP	80	96	4
TAP	80	96	6
HLD	80	192	1	72
TAP	80	192	3
TAP	80	216	4
TAP	80	240	5
TAP	80	264	6
TAP	80	288	1
TAP	80	288	7
TAP	80	336	1
HLD	80	336	7	72
TAP	80	360	2
TAP	81	0	3
TAP	81	24	4
TAP	81	48	5
TAP	81	48	7
TAP	81	96	5
HLD	81	96	7	72
TAP	81	120	4
TAP	81	144	3
TAP	81	168	2
TAP	81	192	1
TAP	81	192	7
HLD	81	240	1	72
TAP	81	240	7
TAP	81	264	6
TAP	81	288	5
TAP	81	312	4
TAP	81	336	1
TAP	81	336	3
STR	82	0	1
SI_	82	0	1	96	48	5
STR	82	0	3
SI_	82	0	3	96	48	7
BRK	82	96	1
BRK	82	96	3
STR	82	192	4
SI_	82	192	4	96	48	0
STR	82	192	6
SCL	82	192	6	96	48	3
TAP	82	288	4
TAP	82	288	6
STR	83	0	1
SCR	83	0	1	96	48	4
STR	83	0	3
SI_	83	0	3	96	48	7
TAP	83	96	1
TAP	83	96	3
STR	83	192	0
SCL	83	192	0	96	48	6
STR	83	240	6
SCL	83	240	6	96	48	4
STR	83	288	4
SCL	83	288	4	96	48	2
STR	83	336	2
SCL	83	336	2	96	48	0
TAP	84	0	7
TAP	84	24	6
TAP	84	48	5
TAP	84	72	4
TAP	84	96	3
TAP	84	144	2
TAP	84	144	5
TAP	84	192	0
TAP	84	192	7
TAP	84	240	6
TAP	84	264	5
TAP	84	288	3
TAP	84	288	4
TAP	84	336	1
TAP	84	336	2
TAP	85	0	0
TAP	85	0	7
TAP	85	48	1
TAP	85	72	2
STR	85	96	3
SCL	85	96	3	96	48	0
STR	85	96	4
SI_	85	96	4	96	48	1
TAP	85	144	5
TAP	85	144	6
STR	85	192	3
SI_	85	192	3	96	48	6
STR	85	192	4
SCR	85	192	4	96	48	7
STR	85	288	3
SCL	85	288	3	96	144	4
STR	85	288	4
SUL	85	288	4	96	144	3
BRK	86	192	1
BRK	86	192	6
TAP	86	288	2
TAP	86	312	2
TAP	86	336	3
TAP	86	360	3
TAP	87	0	4
TAP	87	24	4
TAP	87	48	5
TAP	87	72	5
TAP	87	96	6
TAP	87	120	6
STR	87	144	7
SSR	87	144	7	96	48	3
TAP	87	192	0

T_REC_TAP	685
T_REC_BRK	18
T_REC_XTP	0
T_REC_HLD	49
T_REC_XHO	0
T_REC_STR	93
T_REC_BST	12
T_REC_XST	0
T_REC_TTP	0
T_REC_THO	0
T_REC_SLD	106
T_REC_ALL	963
T_NUM_TAP	778
T_NUM_BRK	30
T_NUM_HLD	49
T_NUM_SLD	106
T_NUM_ALL	963
T_JUDGE_TAP	808
T_JUDGE_HLD	114
T_JUDGE_SLD	106
T_JUDGE_ALL	1028
TTM_EACHPAIRS	187
TTM_SCR_TAP	389000
TTM_SCR_BRK	78000
TTM_SCR_HLD	49000
TTM_SCR_SLD	159000
TTM_SCR_ALL	675000
TTM_SCR_S	651850
TTM_SCR_SS	672000
TTM_RAT_ACV	10044

