VERSION	0.00.00	1.03.00
FES_MODE	0
BPM_DEF	155.000	155.000	155.000	155.000
MET_DEF	4	4
RESOLUTION	384
CLK_DEF	384
COMPATIBLE_CODE	MA2

BPM	0	0	155.000
MET	0	0	4	4
MET	11	0	4	2
MET	11	192	4	4

BRK	2	288	1
BRK	2	288	6
STR	3	0	0
SCR	3	0	0	96	48	3
STR	3	0	4
SCR	3	0	4	96	48	7
STR	3	192	0
SCL	3	192	0	96	48	5
STR	3	192	4
SCL	3	192	4	96	48	1
STR	4	0	0
SCR	4	0	0	96	48	3
STR	4	96	4
SCR	4	96	4	96	48	7
STR	4	192	1
SUR	4	192	1	96	48	2
STR	5	0	3
SCL	5	0	3	96	48	0
STR	5	0	7
SCL	5	0	7	96	48	4
STR	5	192	3
SCR	5	192	3	96	48	6
STR	5	192	7
SCR	5	192	7	96	48	2
STR	6	0	3
SCL	6	0	3	96	192	4
TAP	7	0	5
TAP	7	48	4
TAP	7	48	6
TAP	7	96	4
TAP	7	96	6
TAP	7	192	0
TAP	7	288	7
TAP	8	0	2
TAP	8	48	1
TAP	8	48	3
TAP	8	96	1
TAP	8	96	3
TAP	8	192	7
TAP	8	288	0
STR	9	0	4
SI_	9	0	4	96	48	0
STR	9	0	5
SI_	9	0	5	96	48	7
STR	9	192	2
SI_	9	192	2	96	48	0
STR	9	192	3
SI_	9	192	3	96	48	7
STR	10	0	4
SI_	10	0	4	96	48	0
STR	10	0	5
SI_	10	0	5	96	48	1
STR	10	192	2
SI_	10	192	2	96	48	6
STR	10	192	3
SI_	10	192	3	96	48	7
TAP	11	0	3
TAP	11	0	4
BRK	11	96	1
BRK	11	96	6
TAP	11	192	2
TAP	11	240	3
TAP	11	288	2
TAP	11	336	2
TAP	12	0	5
TAP	12	48	4
TAP	12	96	6
TAP	12	144	6
TAP	12	192	0
TAP	12	240	7
TAP	12	288	1
TAP	12	336	1
HLD	13	0	0	96
TAP	13	96	7
TAP	13	192	5
TAP	13	240	4
TAP	13	288	5
TAP	13	336	5
TAP	14	0	2
TAP	14	48	3
TAP	14	96	1
TAP	14	144	1
TAP	14	192	7
TAP	14	240	0
TAP	14	288	6
TAP	14	336	6
HLD	15	0	7	96
TAP	15	96	0
TAP	15	192	1
TAP	15	240	0
TAP	15	288	2
TAP	15	336	2
TAP	16	0	5
TAP	16	48	4
TAP	16	96	7
TAP	16	144	7
TAP	16	192	1
TAP	16	240	3
TAP	16	288	2
TAP	16	336	2
HLD	17	0	0	96
TAP	17	96	7
TAP	17	192	6
TAP	17	240	7
TAP	17	288	5
TAP	17	336	5
TAP	18	0	2
TAP	18	48	3
TAP	18	96	0
TAP	18	144	0
TAP	18	192	6
TAP	18	240	4
TAP	18	288	5
TAP	18	336	5
HLD	19	0	7	96
TAP	19	96	0
TAP	19	192	1
TAP	19	192	3
TAP	19	240	2
TAP	19	288	4
TAP	19	288	6
TAP	19	336	5
TAP	20	0	2
TAP	20	0	3
TAP	20	48	1
TAP	20	48	4
TAP	20	96	0
TAP	20	96	5
TAP	20	192	4
TAP	20	192	6
TAP	20	240	5
TAP	20	288	1
TAP	20	288	3
TAP	20	336	2
TAP	21	0	4
TAP	21	0	5
TAP	21	48	3
TAP	21	48	6
TAP	21	96	2
TAP	21	96	7
TAP	21	192	1
TAP	21	192	3
TAP	21	240	2
TAP	21	288	4
TAP	21	288	6
TAP	21	336	5
TAP	22	0	2
TAP	22	0	3
TAP	22	48	1
TAP	22	48	4
TAP	22	96	0
TAP	22	96	5
TAP	22	144	6
TAP	22	144	7
STR	22	192	6
SI_	22	192	6	96	48	3
STR	22	192	7
SI_	22	192	7	96	48	2
STR	23	0	4
SI_	23	0	4	96	48	1
STR	23	0	5
SI_	23	0	5	96	48	0
TAP	23	192	4
TAP	23	192	6
TAP	23	240	5
TAP	23	288	1
TAP	23	288	3
TAP	23	336	2
TAP	24	0	4
TAP	24	0	5
TAP	24	48	3
TAP	24	48	6
TAP	24	96	2
TAP	24	96	7
TAP	24	192	1
TAP	24	192	3
TAP	24	240	2
TAP	24	288	4
TAP	24	288	6
TAP	24	336	5
TAP	25	0	2
TAP	25	0	3
TAP	25	48	1
TAP	25	48	4
TAP	25	96	0
TAP	25	96	5
TAP	25	192	4
TAP	25	192	6
TAP	25	240	5
TAP	25	288	1
TAP	25	288	3
TAP	25	336	2
TAP	26	0	4
TAP	26	0	5
TAP	26	48	3
TAP	26	48	6
TAP	26	96	2
TAP	26	96	7
TAP	26	144	0
TAP	26	144	1
STR	26	192	0
SI_	26	192	0	96	48	5
STR	26	192	1
SI_	26	192	1	96	48	4
STR	27	0	2
SI_	27	0	2	96	48	7
STR	27	0	3
SI_	27	0	3	96	48	6
STR	27	192	4
SUR	27	192	4	96	192	3
STR	27	192	5
SCR	27	192	5	96	192	2
TAP	28	192	4
HLD	28	192	5	144
HLD	28	336	7	96
TAP	29	48	0
TAP	29	96	0
TAP	29	96	1
STR	29	192	2
SCL	29	192	2	96	192	5
STR	29	192	3
SUL	29	192	3	96	192	4
HLD	30	192	2	144
TAP	30	192	3
HLD	30	336	0	96
TAP	31	48	7
TAP	31	96	6
TAP	31	96	7
STR	31	192	4
SCL	31	192	4	96	192	7
STR	31	192	6
SUR	31	192	6	96	192	5
STR	32	192	1
SUL	32	192	1	96	192	2
STR	32	192	3
SCR	32	192	3	96	192	0
STR	33	192	6
SCL	33	192	6	96	48	3
STR	33	192	7
SUL	33	192	7	96	48	2
STR	34	0	0
SUR	34	0	0	96	48	5
STR	34	0	1
SCR	34	0	1	96	48	4
STR	34	192	7
SCL	34	192	7	96	96	4
STR	34	288	4
SCL	34	288	4	96	96	1
STR	35	0	1
SCL	35	0	1	96	96	6
STR	35	96	6
SCL	35	96	6	96	96	3
STR	35	192	3
SCL	35	192	3	96	192	4
BRK	36	192	1
BRK	36	192	6
TAP	37	0	3
TAP	37	0	4
STR	37	192	4
SI_	37	192	4	96	48	0
STR	37	192	5
SI_	37	192	5	96	48	1
TAP	38	0	2
TAP	38	0	7
TAP	38	48	2
TAP	38	48	7
HLD	38	144	2	96
TAP	38	144	3
TAP	38	240	6
TAP	38	288	4
TAP	38	288	5
TAP	38	336	1
TAP	39	0	2
TAP	39	0	3
TAP	39	48	7
TAP	39	96	4
TAP	39	96	5
TAP	39	144	0
STR	39	192	2
SI_	39	192	2	96	48	6
STR	39	192	3
SI_	39	192	3	96	48	7
TAP	40	0	0
TAP	40	0	5
TAP	40	96	2
TAP	40	96	3
TAP	40	144	1
TAP	40	144	4
TAP	40	192	1
TAP	40	240	0
TAP	40	240	1
TAP	40	288	1
TAP	40	336	1
TAP	40	336	2
TAP	41	0	1
TAP	41	48	1
TAP	41	48	7
TAP	41	96	1
TAP	41	144	1
TAP	41	144	3
STR	41	192	6
SI_	41	192	6	96	48	2
STR	41	192	7
SI_	41	192	7	96	48	3
TAP	42	0	1
TAP	42	0	4
TAP	42	48	1
TAP	42	48	4
TAP	42	144	0
HLD	42	144	1	96
TAP	42	240	4
TAP	42	288	5
TAP	42	288	7
TAP	42	336	3
TAP	43	0	0
TAP	43	0	2
TAP	43	96	1
TAP	43	96	4
TAP	43	144	6
TAP	43	144	7
BRK	43	192	1
BRK	43	192	4
TAP	43	288	3
TAP	43	288	6
TAP	43	336	0
TAP	43	336	1
BRK	44	0	3
BRK	44	0	6
TAP	44	96	2
TAP	44	96	5
TAP	44	144	2
TAP	44	144	5
TAP	44	192	0
TAP	44	192	7
TAP	44	240	2
TAP	44	240	3
TAP	44	288	0
TAP	44	288	7
TAP	44	336	4
TAP	44	336	5
BRK	45	0	1
BRK	45	0	6
STR	45	192	2
SI_	45	192	2	96	48	6
STR	45	192	3
SI_	45	192	3	96	48	7
TAP	46	0	0
TAP	46	0	5
TAP	46	48	0
TAP	46	48	5
TAP	46	144	4
HLD	46	144	5	96
TAP	46	240	1
TAP	46	288	2
TAP	46	288	3
TAP	46	336	6
TAP	47	0	4
TAP	47	0	5
TAP	47	48	0
TAP	47	96	2
TAP	47	96	3
TAP	47	144	7
STR	47	192	4
SI_	47	192	4	96	48	0
STR	47	192	5
SI_	47	192	5	96	48	1
TAP	48	0	2
TAP	48	0	7
TAP	48	96	4
TAP	48	96	5
TAP	48	144	3
TAP	48	144	6
TAP	48	192	6
TAP	48	240	6
TAP	48	240	7
TAP	48	288	6
TAP	48	336	5
TAP	48	336	6
TAP	49	0	6
TAP	49	48	0
TAP	49	48	6
TAP	49	96	6
TAP	49	144	4
TAP	49	144	6
STR	49	192	0
SI_	49	192	0	96	48	4
STR	49	192	1
SI_	49	192	1	96	48	5
TAP	50	0	3
TAP	50	0	6
TAP	50	48	3
TAP	50	48	6
HLD	50	144	6	96
TAP	50	144	7
TAP	50	240	3
TAP	50	288	0
TAP	50	288	2
TAP	50	336	4
TAP	51	0	5
TAP	51	0	7
TAP	51	96	3
TAP	51	96	6
TAP	51	144	0
TAP	51	144	1
BRK	51	192	3
BRK	51	192	6
TAP	51	288	1
TAP	51	288	4
TAP	51	336	6
TAP	51	336	7
BRK	52	0	1
BRK	52	0	4
TAP	52	96	2
TAP	52	96	5
TAP	52	144	2
TAP	52	144	5
STR	52	192	0
SI_	52	192	0	96	48	3
STR	52	192	7
SI_	52	192	7	96	48	4
TAP	52	288	0
TAP	52	288	7
BRK	53	0	1
BRK	53	0	6
TAP	53	192	2
TAP	53	216	3
TAP	53	240	2
TAP	53	264	3
HLD	53	288	2	48
TAP	53	336	7
TAP	53	360	0
TAP	54	0	7
TAP	54	24	0
HLD	54	48	7	48
TAP	54	96	4
TAP	54	120	5
TAP	54	144	4
TAP	54	168	5
HLD	54	192	4	48
TAP	54	240	7
TAP	54	264	0
TAP	54	288	7
TAP	54	312	0
HLD	54	336	7	48
STR	55	0	1
SI_	55	0	1	96	48	4
SI_	55	0	1	96	48	6
TAP	55	192	5
TAP	55	216	4
TAP	55	240	5
TAP	55	264	4
HLD	55	288	5	48
TAP	55	336	0
TAP	55	360	7
TAP	56	0	0
TAP	56	24	7
HLD	56	48	0	48
TAP	56	96	3
TAP	56	120	2
TAP	56	144	3
TAP	56	168	2
HLD	56	192	3	48
TAP	56	240	0
TAP	56	264	7
TAP	56	288	0
TAP	56	312	7
HLD	56	336	0	48
STR	57	0	6
SI_	57	0	6	96	48	1
SI_	57	0	6	96	48	3
HLD	57	192	1	96
HLD	57	288	2	96
HLD	58	0	3	96
HLD	58	96	4	96
TAP	58	192	5
TAP	58	240	6
TAP	58	288	7
TAP	58	336	0
TAP	59	0	1
TAP	59	24	2
TAP	59	48	3
TAP	59	72	4
TAP	59	96	5
TAP	59	144	6
TAP	59	144	7
STR	59	192	4
SUR	59	192	4	96	48	1
STR	59	192	5
SCR	59	192	5	96	48	0
STR	60	0	0
SUR	60	0	0	96	48	5
STR	60	0	1
SCR	60	0	1	96	48	4
STR	60	192	2
SI_	60	192	2	96	48	7
STR	60	192	6
SI_	60	192	6	96	48	3
TAP	60	288	2
TAP	60	288	6
TAP	61	0	1
TAP	61	0	5
BRK	61	96	3
BRK	61	96	4
STR	61	192	0
SLR	61	192	0	96	96	4
STR	61	192	4
SLR	61	192	4	96	96	0
STR	62	192	3
SCL	62	192	3	96	48	0
STR	62	192	7
SCL	62	192	7	96	48	4
STR	63	0	3
SCR	63	0	3	96	48	6
STR	63	0	7
SCR	63	0	7	96	48	2
STR	63	192	7
SCL	63	192	7	96	48	4
STR	63	288	3
SCL	63	288	3	96	48	0
STR	64	0	6
SUL	64	0	6	96	48	5
STR	64	192	0
SCR	64	192	0	96	48	3
STR	64	192	4
SCR	64	192	4	96	48	7
STR	65	0	0
SCL	65	0	0	96	48	5
STR	65	0	4
SCL	65	0	4	96	48	1
STR	65	192	4
SCR	65	192	4	96	192	3
TAP	66	192	2
TAP	66	240	1
TAP	66	240	3
TAP	66	288	1
STR	66	288	3
SI_	66	288	3	96	48	7
TAP	67	0	0
TAP	67	96	1
TAP	67	96	6
TAP	67	192	5
TAP	67	240	4
TAP	67	240	6
STR	67	288	4
SI_	67	288	4	96	48	0
TAP	67	288	6
TAP	68	0	7
TAP	68	96	1
TAP	68	96	6
TAP	68	192	2
STR	68	192	3
SI_	68	192	3	96	48	7
TAP	68	288	0
STR	69	0	4
SI_	69	0	4	96	48	0
TAP	69	0	5
TAP	69	96	7
TAP	69	192	2
TAP	69	192	5
TAP	69	288	2
TAP	69	288	5
TAP	69	336	1
TAP	69	336	6
BST	70	0	0
SI_	70	0	0	96	48	4
BST	70	0	7
SI_	70	0	7	96	48	3
BRK	70	96	0
BRK	70	96	7
STR	70	192	1
SF_	70	192	1	96	48	5
STR	71	0	6
SF_	71	0	6	96	48	2
HLD	71	192	0	96
TAP	71	288	1
TAP	71	336	1
TAP	71	336	4
STR	72	0	2
SUR	72	0	2	96	48	7
STR	72	0	3
SCR	72	0	3	96	48	6
STR	72	192	6
SF_	72	192	6	96	48	2
STR	73	0	1
SF_	73	0	1	96	48	5
HLD	73	192	7	96
TAP	73	288	6
TAP	73	336	3
TAP	73	336	6
STR	74	0	4
SCL	74	0	4	96	48	1
STR	74	0	5
SUL	74	0	5	96	48	0
TAP	74	192	6
TAP	74	192	7
TAP	74	240	0
TAP	74	240	5
TAP	74	288	1
TAP	74	288	4
TAP	75	0	0
TAP	75	0	1
TAP	75	48	2
TAP	75	48	7
TAP	75	96	3
TAP	75	96	6
BRK	75	192	4
BRK	75	192	5
BRK	75	288	2
BRK	75	288	3
BRK	76	0	5
BRK	76	0	7
BRK	76	96	0
BRK	76	96	2
TAP	76	192	4
STR	76	192	5
SF_	76	192	5	96	48	1
STR	77	0	2
SF_	77	0	2	96	48	6
TAP	77	0	3
STR	77	192	4
SF_	77	192	4	96	48	0
TAP	77	192	6
TAP	78	0	1
STR	78	0	3
SF_	78	0	3	96	48	7
TAP	78	192	5
TAP	78	216	4
TAP	78	240	5
TAP	78	264	4
HLD	78	288	5	48
TAP	78	336	1
TAP	78	360	2
TAP	79	0	1
TAP	79	24	2
HLD	79	48	1	48
TAP	79	96	7
TAP	79	120	0
TAP	79	144	7
TAP	79	168	0
HLD	79	192	7	48
TAP	79	240	5
TAP	79	264	6
TAP	79	288	5
TAP	79	312	6
TAP	79	336	5
TAP	80	0	4
TAP	80	0	7
TAP	80	48	2
TAP	80	48	5
TAP	80	96	0
TAP	80	96	3
TAP	80	192	2
TAP	80	216	3
TAP	80	240	2
TAP	80	264	3
HLD	80	288	2	48
TAP	80	336	6
TAP	80	360	5
TAP	81	0	6
TAP	81	24	5
HLD	81	48	6	48
TAP	81	96	0
TAP	81	120	7
TAP	81	144	0
TAP	81	168	7
HLD	81	192	0	48
TAP	81	240	2
TAP	81	264	1
TAP	81	288	2
TAP	81	312	1
TAP	81	336	2
TAP	82	0	0
TAP	82	0	3
TAP	82	48	2
TAP	82	48	5
TAP	82	96	4
TAP	82	96	7
HLD	82	192	6	96
HLD	82	288	5	96
HLD	83	0	4	96
HLD	83	96	3	96
TAP	83	192	2
TAP	83	240	1
TAP	83	288	0
TAP	83	336	7
TAP	84	0	6
TAP	84	24	5
TAP	84	48	4
TAP	84	72	3
TAP	84	96	2
TAP	84	144	0
TAP	84	144	1
STR	84	192	2
SCL	84	192	2	96	48	7
STR	84	192	3
SUL	84	192	3	96	48	6
STR	85	0	6
SCL	85	0	6	96	48	3
STR	85	0	7
SUL	85	0	7	96	48	2
STR	85	192	1
SI_	85	192	1	96	48	4
STR	85	192	5
SI_	85	192	5	96	48	0
TAP	85	288	1
TAP	85	288	5
TAP	86	0	2
TAP	86	0	6
BRK	86	96	3
BRK	86	96	4
STR	86	192	0
SXL	86	192	0	96	288	3
STR	86	192	7
SXR	86	192	7	96	288	4

T_REC_TAP	430
T_REC_BRK	32
T_REC_XTP	0
T_REC_HLD	36
T_REC_XHO	0
T_REC_STR	105
T_REC_BST	2
T_REC_XST	0
T_REC_TTP	0
T_REC_THO	0
T_REC_SLD	109
T_REC_ALL	714
T_NUM_TAP	535
T_NUM_BRK	34
T_NUM_HLD	36
T_NUM_SLD	109
T_NUM_ALL	714
T_JUDGE_TAP	569
T_JUDGE_HLD	60
T_JUDGE_SLD	109
T_JUDGE_ALL	738
TTM_EACHPAIRS	186
TTM_SCR_TAP	267500
TTM_SCR_BRK	88400
TTM_SCR_HLD	36000
TTM_SCR_SLD	163500
TTM_SCR_ALL	555400
TTM_SCR_S	535450
TTM_SCR_SS	552000
TTM_RAT_ACV	10061

