VERSION	0.00.00	1.03.00
FES_MODE	0
BPM_DEF	155.000	155.000	155.000	155.000
MET_DEF	4	4
RESOLUTION	384
CLK_DEF	384
COMPATIBLE_CODE	MA2

BPM	0	0	155.000
MET	0	0	4	4
MET	11	0	4	2
MET	11	192	4	4

TAP	2	288	3
TAP	2	288	4
HLD	3	0	1	96
TAP	3	96	0
HLD	3	192	6	96
TAP	3	288	7
HLD	4	0	1	96
TAP	4	96	0
TAP	4	192	2
TAP	4	192	7
HLD	5	0	6	96
TAP	5	96	7
TAP	5	192	0
TAP	5	192	1
STR	5	288	0
SCR	5	288	0	96	96	3
STR	5	288	7
SCL	5	288	7	96	96	4
TAP	6	192	3
TAP	6	192	4
TAP	6	288	1
TAP	6	288	6
TAP	7	0	2
TAP	7	96	2
TAP	7	96	3
TAP	7	192	5
TAP	7	288	4
TAP	7	288	5
TAP	8	0	2
TAP	8	96	1
TAP	8	96	3
TAP	8	192	5
TAP	8	288	4
TAP	8	288	6
STR	9	0	2
SI_	9	0	2	96	48	6
STR	9	192	5
SI_	9	192	5	96	48	1
TAP	10	0	0
TAP	10	0	7
TAP	10	96	1
TAP	10	96	6
TAP	10	192	2
TAP	10	192	5
STR	10	288	3
SCL	10	288	3	96	96	0
STR	10	288	4
SCR	10	288	4	96	96	7
TAP	11	192	2
HLD	11	288	2	96
TAP	12	0	3
HLD	12	96	3	96
TAP	12	192	4
HLD	12	288	4	96
TAP	13	0	5
TAP	13	96	2
TAP	13	96	7
TAP	13	192	5
HLD	13	288	5	96
TAP	14	0	4
HLD	14	96	4	96
TAP	14	192	3
HLD	14	288	3	96
TAP	15	0	2
TAP	15	96	0
TAP	15	96	5
TAP	15	192	2
TAP	15	240	2
TAP	15	288	3
TAP	16	0	5
TAP	16	48	5
TAP	16	96	4
TAP	16	192	1
TAP	16	240	1
TAP	16	288	3
TAP	17	0	6
TAP	17	48	6
TAP	17	96	4
TAP	17	192	1
TAP	17	240	1
TAP	17	288	0
TAP	18	0	6
TAP	18	48	6
TAP	18	96	7
STR	18	192	0
SI_	18	192	0	96	48	5
STR	18	192	7
SI_	18	192	7	96	48	2
STR	19	0	3
SI_	19	0	3	96	48	0
STR	19	0	4
SI_	19	0	4	96	48	7
HLD	19	192	1	96
STR	19	288	0
SCL	19	288	0	96	96	5
HLD	20	192	6	96
STR	20	288	7
SCR	20	288	7	96	96	2
HLD	21	192	2	96
STR	21	288	0
SCL	21	288	0	96	96	5
HLD	22	192	5	96
HLD	22	288	6	96
HLD	23	0	7	96
TAP	23	96	0
HLD	23	192	6	96
STR	23	288	7
SCR	23	288	7	96	96	2
HLD	24	192	1	96
STR	24	288	0
SCL	24	288	0	96	96	5
HLD	25	192	5	96
STR	25	288	7
SCR	25	288	7	96	96	2
HLD	26	192	2	96
HLD	26	288	1	96
HLD	27	0	0	96
TAP	27	96	7
STR	27	192	1
SUR	27	192	1	96	192	4
STR	28	192	3
SUR	28	192	3	96	192	6
STR	29	192	5
SUR	29	192	5	96	192	0
STR	30	192	7
SUR	30	192	7	96	192	2
STR	31	192	1
SI_	31	192	1	96	48	5
STR	32	0	6
SI_	32	0	6	96	48	2
STR	32	192	1
SCL	32	192	1	96	48	6
STR	33	0	5
SCL	33	0	5	96	48	2
STR	33	192	1
SXR	33	192	1	96	192	6
STR	34	192	5
SXR	34	192	5	96	192	2
STR	35	192	0
SXL	35	192	0	96	192	3
STR	35	192	7
SXR	35	192	7	96	192	4
HLD	36	192	3	96
HLD	36	192	4	96
BRK	37	0	1
BRK	37	0	6
TAP	37	192	2
TAP	37	192	3
TAP	37	288	1
TAP	37	288	4
TAP	38	0	0
TAP	38	48	0
TAP	38	96	1
TAP	38	96	7
TAP	38	192	4
TAP	38	192	5
TAP	38	288	3
TAP	38	288	6
TAP	39	0	7
TAP	39	48	7
TAP	39	96	0
TAP	39	96	6
STR	39	192	2
SI_	39	192	2	96	48	7
STR	40	0	6
SI_	40	0	6	96	48	3
TAP	40	192	2
TAP	40	192	3
TAP	40	288	0
TAP	40	288	1
TAP	41	0	6
TAP	41	0	7
TAP	41	96	4
TAP	41	96	5
TAP	41	192	2
TAP	41	240	2
TAP	41	288	0
TAP	42	0	5
TAP	42	48	5
TAP	42	96	7
TAP	42	192	1
TAP	42	240	1
TAP	42	288	0
TAP	42	288	2
TAP	43	0	6
TAP	43	48	6
TAP	43	96	5
TAP	43	96	7
STR	43	192	2
SCL	43	192	2	96	48	7
STR	44	0	6
SCL	44	0	6	96	48	3
TAP	44	192	1
TAP	44	192	3
TAP	44	288	4
TAP	44	288	6
BRK	45	0	0
BRK	45	0	7
TAP	45	192	4
TAP	45	192	5
TAP	45	288	3
TAP	45	288	6
TAP	46	0	7
TAP	46	48	7
TAP	46	96	0
TAP	46	96	6
TAP	46	192	2
TAP	46	192	3
TAP	46	288	1
TAP	46	288	4
TAP	47	0	0
TAP	47	48	0
TAP	47	96	1
TAP	47	96	7
STR	47	192	5
SI_	47	192	5	96	48	0
STR	48	0	1
SI_	48	0	1	96	48	4
TAP	48	192	4
TAP	48	192	5
TAP	48	288	6
TAP	48	288	7
TAP	49	0	0
TAP	49	0	1
TAP	49	96	2
TAP	49	96	3
TAP	49	192	5
TAP	49	240	5
TAP	49	288	7
TAP	50	0	2
TAP	50	48	2
TAP	50	96	0
TAP	50	192	6
TAP	50	240	6
TAP	50	288	5
TAP	50	288	7
TAP	51	0	1
TAP	51	48	1
TAP	51	96	0
TAP	51	96	2
STR	51	192	5
SCR	51	192	5	96	48	0
STR	52	0	1
SCR	52	0	1	96	48	4
TAP	52	192	4
TAP	52	192	6
TAP	52	288	1
TAP	52	288	3
BRK	53	0	0
BRK	53	0	7
HLD	53	192	1	144
HLD	53	336	2	144
HLD	54	96	3	144
HLD	54	240	4	144
TAP	55	0	5
TAP	55	96	2
TAP	55	96	7
HLD	55	192	6	144
HLD	55	336	5	144
HLD	56	96	4	144
HLD	56	240	3	144
TAP	57	0	2
TAP	57	96	0
TAP	57	96	5
HLD	57	192	2	96
HLD	57	288	3	96
HLD	58	0	4	96
HLD	58	96	5	96
TAP	58	192	6
TAP	58	240	5
TAP	58	288	4
TAP	58	336	3
STR	59	0	2
SCR	59	0	2	96	48	5
STR	59	192	7
SI_	59	192	7	96	48	2
SI_	59	192	7	96	48	4
STR	60	0	3
SI_	60	0	3	96	48	0
SI_	60	0	3	96	48	6
STR	60	192	7
SI_	60	192	7	96	48	3
STR	60	288	1
SI_	60	288	1	96	48	5
BRK	61	192	0
BRK	61	192	7
HLD	62	192	6	192
HLD	63	0	5	192
HLD	63	192	4	192
HLD	64	0	3	192
HLD	64	192	2	192
TAP	65	0	1
STR	65	96	0
SXL	65	96	0	96	288	3
STR	65	96	4
SXL	65	96	4	96	288	7
TAP	66	192	5
TAP	66	288	4
TAP	66	288	5
TAP	67	0	2
TAP	67	96	2
TAP	67	96	3
TAP	67	192	5
TAP	67	288	4
TAP	67	288	6
TAP	68	0	2
TAP	68	96	1
TAP	68	96	3
STR	68	192	5
SI_	68	192	5	96	48	1
STR	69	0	2
SI_	69	0	2	96	48	6
TAP	69	192	5
TAP	69	192	7
TAP	69	288	0
TAP	69	288	2
STR	70	0	1
SI_	70	0	1	96	48	5
STR	70	0	6
SI_	70	0	6	96	48	2
TAP	70	192	3
TAP	70	192	4
TAP	70	288	5
TAP	70	288	7
TAP	71	0	0
TAP	71	48	0
TAP	71	96	1
TAP	71	96	7
TAP	71	192	3
TAP	71	192	4
TAP	71	288	0
TAP	71	288	2
TAP	72	0	7
TAP	72	48	7
TAP	72	96	0
TAP	72	96	6
STR	72	192	2
SI_	72	192	2	96	48	7
STR	73	0	6
SI_	73	0	6	96	48	3
TAP	73	192	2
TAP	73	192	3
TAP	73	288	0
TAP	73	288	1
TAP	74	0	6
TAP	74	0	7
TAP	74	96	4
TAP	74	96	5
TAP	74	192	2
TAP	74	240	2
TAP	74	288	1
TAP	74	288	3
TAP	75	0	5
TAP	75	48	5
TAP	75	96	4
TAP	75	96	6
TAP	75	192	0
TAP	75	192	7
TAP	75	240	0
TAP	75	240	7
TAP	75	288	1
TAP	75	288	6
TAP	75	336	1
TAP	75	336	6
TAP	76	0	2
TAP	76	0	5
TAP	76	48	2
TAP	76	48	5
TAP	76	96	3
TAP	76	96	4
STR	76	192	2
SCL	76	192	2	96	48	7
STR	77	0	6
SCL	77	0	6	96	48	3
TAP	77	192	1
TAP	77	192	3
TAP	77	288	4
TAP	77	288	6
BRK	78	0	0
BRK	78	0	7
HLD	78	192	5	96
TAP	78	288	4
HLD	78	336	4	96
TAP	79	48	3
HLD	79	96	3	96
TAP	79	192	2
HLD	79	240	2	96
TAP	79	336	1
HLD	80	0	1	96
TAP	80	96	0
HLD	80	192	2	96
TAP	80	288	3
HLD	80	336	3	96
TAP	81	48	4
HLD	81	96	4	96
TAP	81	192	5
HLD	81	240	5	96
TAP	81	336	6
HLD	82	0	6	96
TAP	82	96	7
HLD	82	192	5	96
HLD	82	288	4	96
HLD	83	0	3	96
HLD	83	96	2	96
TAP	83	192	1
TAP	83	240	2
TAP	83	288	3
TAP	83	336	4
STR	84	0	5
SCL	84	0	5	96	48	2
STR	84	192	0
SI_	84	192	0	96	48	4
STR	84	192	1
SI_	84	192	1	96	48	5
STR	85	0	6
SI_	85	0	6	96	48	2
STR	85	0	7
SI_	85	0	7	96	48	3
TAP	85	192	0
TAP	85	192	1
TAP	85	288	6
TAP	85	288	7
STR	86	0	0
SI_	86	0	0	96	48	4
STR	86	0	7
SI_	86	0	7	96	48	3
HLD	86	192	1	288
HLD	86	192	6	288
BRK	87	192	1
BRK	87	192	6

T_REC_TAP	243
T_REC_BRK	12
T_REC_XTP	0
T_REC_HLD	57
T_REC_XHO	0
T_REC_STR	58
T_REC_BST	0
T_REC_XST	0
T_REC_TTP	0
T_REC_THO	0
T_REC_SLD	60
T_REC_ALL	430
T_NUM_TAP	301
T_NUM_BRK	12
T_NUM_HLD	57
T_NUM_SLD	60
T_NUM_ALL	430
T_JUDGE_TAP	313
T_JUDGE_HLD	140
T_JUDGE_SLD	60
T_JUDGE_ALL	513
TTM_EACHPAIRS	91
TTM_SCR_TAP	150500
TTM_SCR_BRK	31200
TTM_SCR_HLD	57000
TTM_SCR_SLD	90000
TTM_SCR_ALL	328700
TTM_SCR_S	317700
TTM_SCR_SS	327500
TTM_RAT_ACV	10036

