VERSION	0.00.00	1.03.00
FES_MODE	0
BPM_DEF	155.000	155.000	155.000	155.000
MET_DEF	4	4
RESOLUTION	384
CLK_DEF	384
COMPATIBLE_CODE	MA2

BPM	0	0	155.000
MET	0	0	4	4
MET	11	0	4	2
MET	11	192	4	4

TAP	3	0	0
TAP	3	192	0
TAP	4	0	1
TAP	4	192	1
TAP	5	0	2
TAP	5	192	2
HLD	6	0	3	192
TAP	7	0	4
TAP	7	192	4
TAP	8	0	5
TAP	8	192	5
TAP	9	0	6
TAP	9	192	6
TAP	10	0	7
TAP	10	192	7
HLD	11	0	0	96
TAP	11	192	0
TAP	12	0	0
TAP	12	192	7
TAP	12	288	7
TAP	13	0	7
TAP	13	192	6
TAP	14	0	6
TAP	14	192	5
TAP	14	288	5
TAP	15	0	5
TAP	15	192	4
TAP	16	0	4
TAP	16	192	3
TAP	16	288	3
TAP	17	0	3
TAP	17	192	2
TAP	18	0	2
TAP	18	192	1
TAP	18	288	1
TAP	19	0	1
TAP	19	192	0
TAP	19	288	0
TAP	20	0	0
TAP	20	192	1
TAP	20	288	1
TAP	21	0	1
TAP	21	192	2
TAP	21	288	2
TAP	22	0	2
TAP	22	192	3
TAP	22	288	3
TAP	23	0	4
TAP	23	96	4
TAP	23	192	3
TAP	23	288	3
TAP	24	0	3
TAP	24	192	4
TAP	24	288	4
TAP	25	0	4
TAP	25	192	5
TAP	25	288	5
TAP	26	0	5
TAP	26	192	6
TAP	26	288	6
TAP	27	0	7
TAP	27	96	7
STR	27	192	0
SI_	27	192	0	96	288	3
STR	29	192	7
SI_	29	192	7	96	288	4
STR	31	192	1
SI_	31	192	1	96	288	4
STR	33	192	6
SI_	33	192	6	96	288	3
HLD	35	192	0	384
HLD	35	192	7	384
BRK	37	0	0
BRK	37	0	7
TAP	37	192	0
TAP	37	288	0
TAP	38	0	1
TAP	38	96	1
TAP	38	192	2
TAP	38	288	2
TAP	39	0	3
TAP	39	0	4
TAP	39	192	4
TAP	39	288	4
TAP	40	0	5
TAP	40	96	5
TAP	40	192	6
TAP	40	192	7
TAP	40	288	6
TAP	40	288	7
TAP	41	0	6
TAP	41	0	7
TAP	41	192	0
TAP	41	192	1
TAP	42	0	0
TAP	42	0	1
TAP	42	192	2
TAP	42	192	3
TAP	43	0	2
TAP	43	0	3
TAP	43	192	4
TAP	43	192	5
TAP	44	0	4
TAP	44	0	5
TAP	44	192	6
TAP	44	288	7
TAP	45	0	6
TAP	45	192	7
TAP	45	288	7
TAP	46	0	6
TAP	46	96	6
TAP	46	192	5
TAP	46	288	5
TAP	47	0	3
TAP	47	0	4
TAP	47	192	3
TAP	47	288	3
TAP	48	0	2
TAP	48	96	2
TAP	48	192	0
TAP	48	192	1
TAP	48	288	0
TAP	48	288	1
TAP	49	0	0
TAP	49	0	1
TAP	49	192	6
TAP	49	192	7
TAP	50	0	6
TAP	50	0	7
TAP	50	192	4
TAP	50	192	5
TAP	51	0	4
TAP	51	0	5
TAP	51	192	2
TAP	51	192	3
TAP	52	0	2
TAP	52	0	3
TAP	52	192	0
TAP	52	192	1
TAP	52	288	0
TAP	52	288	1
BRK	53	0	0
BRK	53	0	1
HLD	53	192	0	288
TAP	55	0	0
TAP	55	96	0
HLD	55	192	7	288
TAP	57	0	7
TAP	57	96	7
TAP	57	192	0
TAP	57	288	0
TAP	58	0	1
TAP	58	96	1
TAP	58	192	2
TAP	58	192	3
TAP	58	288	2
TAP	58	288	3
TAP	59	0	2
TAP	59	0	3
TAP	59	192	4
TAP	59	192	5
TAP	60	0	2
TAP	60	0	3
TAP	60	192	4
TAP	60	288	3
TAP	61	0	4
TAP	61	192	2
TAP	61	192	5
STR	62	192	0
SI_	62	192	0	96	288	4
STR	64	192	7
SI_	64	192	7	96	288	3
STR	66	192	1
SI_	66	192	1	96	288	4
STR	68	192	6
SI_	68	192	6	96	288	3
TAP	70	192	0
TAP	71	0	0
TAP	71	192	1
TAP	71	288	1
TAP	72	0	1
TAP	72	192	2
TAP	73	0	2
HLD	73	192	3	192
TAP	74	192	4
TAP	74	288	4
TAP	75	0	4
TAP	75	0	5
TAP	75	192	3
TAP	75	288	3
TAP	76	0	2
TAP	76	0	3
TAP	76	192	4
TAP	76	288	4
TAP	77	0	3
TAP	77	96	3
TAP	77	192	4
TAP	77	288	4
TAP	78	0	3
TAP	78	0	4
HLD	78	192	5	288
TAP	80	0	5
TAP	80	96	5
HLD	80	192	6	288
TAP	82	0	6
TAP	82	96	6
TAP	82	192	7
TAP	82	288	7
TAP	83	0	7
TAP	83	192	0
TAP	83	288	0
TAP	84	0	0
TAP	84	192	6
TAP	84	192	7
TAP	85	0	0
TAP	85	0	1
TAP	85	192	0
TAP	85	192	7
TAP	85	288	0
TAP	85	288	7
TAP	86	0	1
TAP	86	0	6
STR	86	192	0
SI_	86	192	0	96	288	3
STR	86	192	7
SI_	86	192	7	96	288	4

T_REC_TAP	193
T_REC_BRK	4
T_REC_XTP	0
T_REC_HLD	9
T_REC_XHO	0
T_REC_STR	10
T_REC_BST	0
T_REC_XST	0
T_REC_TTP	0
T_REC_THO	0
T_REC_SLD	10
T_REC_ALL	226
T_NUM_TAP	203
T_NUM_BRK	4
T_NUM_HLD	9
T_NUM_SLD	10
T_NUM_ALL	226
T_JUDGE_TAP	207
T_JUDGE_HLD	50
T_JUDGE_SLD	10
T_JUDGE_ALL	267
TTM_EACHPAIRS	40
TTM_SCR_TAP	101500
TTM_SCR_BRK	10400
TTM_SCR_HLD	9000
TTM_SCR_SLD	15000
TTM_SCR_ALL	135900
TTM_SCR_S	131450
TTM_SCR_SS	135500
TTM_RAT_ACV	10029

