VERSION	0.00.00	1.03.00
FES_MODE	0
BPM_DEF	140.000	140.000	140.000	140.000
MET_DEF	4	4
RESOLUTION	384
CLK_DEF	384
COMPATIBLE_CODE	MA2

BPM	0	0	140.000

STR	1	0	0
SI_	1	0	0	96	72	4
STR	1	72	4
SI_	1	72	4	96	48	1
TAP	1	144	6
STR	1	192	7
SI_	1	192	7	96	72	3
STR	1	264	3
SI_	1	264	3	96	48	6
TAP	1	336	1
TAP	2	0	0
TAP	2	72	2
TAP	2	72	3
TAP	2	144	4
TAP	2	144	5
TAP	2	192	1
TAP	2	192	6
TAP	2	288	0
TAP	2	336	7
HLD	3	0	0	72
HLD	3	72	2	72
TAP	3	144	4
HLD	3	192	7	72
HLD	3	264	5	72
TAP	3	336	3
TAP	4	0	2
TAP	4	0	4
TAP	4	48	0
TAP	4	72	7
TAP	4	144	3
TAP	4	144	5
TAP	4	192	1
TAP	4	192	6
TAP	4	288	3
TAP	4	288	4
STR	5	0	6
SCL	5	0	6	96	72	3
STR	5	72	3
SI_	5	72	3	96	48	7
TAP	5	144	0
STR	5	192	1
SCR	5	192	1	96	72	4
STR	5	264	4
SI_	5	264	4	96	48	0
TAP	5	336	7
TAP	6	0	6
TAP	6	72	4
TAP	6	72	5
TAP	6	144	2
TAP	6	144	3
TAP	6	192	1
TAP	6	192	6
TAP	6	288	7
TAP	6	336	0
HLD	7	0	7	72
HLD	7	72	5	72
TAP	7	144	3
HLD	7	192	0	72
HLD	7	264	2	72
TAP	7	336	4
HLD	8	0	1	240
HLD	8	0	6	240
TAP	8	288	3
TAP	8	312	4
TAP	8	336	3
TAP	8	360	4
STR	9	0	1
SI_	9	0	1	96	48	4
STR	9	48	4
SI_	9	48	4	96	48	0
TAP	9	72	4
TAP	9	120	5
TAP	9	144	5
STR	9	192	6
SI_	9	192	6	96	48	3
STR	9	240	3
SI_	9	240	3	96	48	7
TAP	9	264	3
TAP	9	312	2
TAP	9	336	2
TAP	10	0	1
TAP	10	48	5
TAP	10	72	4
TAP	10	120	2
TAP	10	144	3
TAP	10	192	1
TAP	10	192	6
TAP	10	240	3
TAP	10	264	4
TAP	10	288	3
TAP	10	336	4
TAP	10	336	6
TAP	11	0	1
HLD	11	0	3	72
HLD	11	72	5	72
TAP	11	144	7
HLD	11	192	4	72
TAP	11	192	6
HLD	11	264	2	72
TAP	11	336	0
TAP	12	0	3
TAP	12	0	5
TAP	12	48	7
TAP	12	72	0
TAP	12	144	2
TAP	12	144	4
TAP	12	192	1
TAP	12	192	6
TAP	12	240	4
TAP	12	264	3
TAP	12	288	4
TAP	12	336	0
TAP	12	336	7
STR	13	0	7
SI_	13	0	7	96	48	3
STR	13	48	3
SCR	13	48	3	96	48	6
TAP	13	72	3
TAP	13	120	1
TAP	13	144	1
STR	13	192	0
SI_	13	192	0	96	48	4
STR	13	240	4
SCL	13	240	4	96	48	1
TAP	13	264	4
TAP	13	312	6
TAP	13	336	6
TAP	14	0	7
TAP	14	48	2
TAP	14	72	3
TAP	14	120	5
TAP	14	144	4
TAP	14	192	1
TAP	14	192	6
TAP	14	240	4
TAP	14	264	3
TAP	14	288	4
TAP	14	336	1
TAP	14	336	3
HLD	15	0	4	72
TAP	15	0	6
HLD	15	72	2	72
TAP	15	144	0
TAP	15	192	1
HLD	15	192	3	72
HLD	15	264	5	72
TAP	15	336	7
TAP	16	0	0
TAP	16	0	7
TAP	16	48	1
TAP	16	48	3
TAP	16	96	0
TAP	16	96	7
TAP	16	144	4
TAP	16	144	6
TAP	16	192	0
TAP	16	192	7
TAP	16	288	3
TAP	16	288	4
HLD	17	0	5	48
TAP	17	48	4
HLD	17	96	1	48
TAP	17	144	2
TAP	17	192	0
TAP	17	192	3
TAP	17	240	5
TAP	17	264	4
TAP	17	312	2
TAP	17	336	3
TAP	18	48	4
TAP	18	48	5
TAP	18	96	3
TAP	18	96	6
TAP	18	144	2
TAP	18	144	7
TAP	18	192	1
TAP	18	216	0
TAP	18	240	1
TAP	18	264	0
TAP	18	288	3
TAP	18	312	4
TAP	18	336	3
TAP	18	360	4
HLD	19	0	2	48
TAP	19	48	3
HLD	19	96	6	48
TAP	19	144	5
TAP	19	192	4
TAP	19	192	7
TAP	19	240	2
TAP	19	264	3
TAP	19	312	5
TAP	19	336	4
TAP	20	48	2
TAP	20	48	3
TAP	20	96	1
TAP	20	96	4
TAP	20	144	0
TAP	20	144	5
TAP	20	192	6
TAP	20	216	7
TAP	20	240	6
TAP	20	264	7
TAP	20	288	4
TAP	20	312	3
TAP	20	336	4
TAP	20	360	3
HLD	21	0	5	48
TAP	21	48	4
HLD	21	96	1	48
TAP	21	144	2
TAP	21	192	0
TAP	21	192	3
TAP	21	240	5
TAP	21	264	4
TAP	21	312	2
TAP	21	336	3
TAP	22	48	4
TAP	22	48	5
TAP	22	96	3
TAP	22	96	6
TAP	22	144	2
TAP	22	144	7
TAP	22	192	1
TAP	22	216	0
TAP	22	240	1
TAP	22	264	0
TAP	22	288	3
TAP	22	312	4
TAP	22	336	3
TAP	22	360	4
HLD	23	0	2	48
TAP	23	48	3
HLD	23	96	6	48
TAP	23	144	5
TAP	23	192	4
TAP	23	192	7
TAP	23	240	2
TAP	23	264	3
TAP	23	312	5
TAP	23	336	4
TAP	24	0	0
TAP	24	0	7
TAP	24	48	2
TAP	24	48	3
TAP	24	96	0
TAP	24	96	7
TAP	24	144	4
TAP	24	144	5
TAP	24	192	0
TAP	24	192	7
TAP	24	240	2
TAP	24	240	3
BRK	24	288	0
BRK	24	288	7
HLD	25	0	5	144
TAP	25	48	4
TAP	25	96	3
TAP	25	144	2
HLD	25	168	2	168
TAP	25	240	1
TAP	25	288	0
TAP	25	336	7
HLD	25	360	7	168
TAP	26	48	6
TAP	26	96	5
TAP	26	144	4
HLD	26	168	4	168
TAP	26	240	5
TAP	26	288	6
TAP	26	336	7
HLD	26	360	7	72
TAP	27	48	0
TAP	27	96	3
TAP	27	96	4
TAP	27	144	0
TAP	27	144	7
STR	27	192	3
SI_	27	192	3	96	48	0
STR	27	192	4
SI_	27	192	4	96	48	7
TAP	27	240	1
TAP	27	240	6
TAP	28	48	0
TAP	28	48	7
TAP	28	96	3
TAP	28	96	4
TAP	28	144	0
TAP	28	144	7
STR	28	192	3
SI_	28	192	3	96	48	0
STR	28	192	4
SI_	28	192	4	96	48	7
TAP	28	240	1
TAP	28	240	6
HLD	29	0	2	144
TAP	29	48	3
TAP	29	96	4
TAP	29	144	5
HLD	29	168	5	168
TAP	29	240	6
TAP	29	288	7
TAP	29	336	0
HLD	29	360	0	168
TAP	30	48	1
TAP	30	96	2
TAP	30	144	3
HLD	30	168	3	168
TAP	30	240	2
TAP	30	288	1
TAP	30	336	0
HLD	30	360	0	72
TAP	31	48	7
TAP	31	96	4
TAP	31	96	5
TAP	31	144	0
TAP	31	144	7
STR	31	192	4
SI_	31	192	4	96	48	0
STR	31	192	5
SI_	31	192	5	96	48	1
TAP	31	240	0
TAP	31	240	7
TAP	32	48	0
TAP	32	48	7
TAP	32	96	2
TAP	32	96	3
TAP	32	144	0
TAP	32	144	7
STR	32	192	2
SI_	32	192	2	96	48	6
STR	32	192	3
SI_	32	192	3	96	48	7
TAP	32	240	0
TAP	32	240	7
TAP	33	0	3
TAP	33	48	5
TAP	33	72	4
TAP	33	96	5
TAP	33	144	3
TAP	33	144	6
TAP	33	192	4
TAP	33	240	2
TAP	33	264	3
TAP	33	288	2
TAP	33	336	1
TAP	33	336	4
TAP	34	0	3
TAP	34	48	5
TAP	34	72	4
TAP	34	96	6
TAP	34	144	3
TAP	34	144	7
TAP	34	192	4
TAP	34	240	2
TAP	34	264	3
TAP	34	288	1
TAP	34	336	0
TAP	34	336	4
TAP	35	0	2
TAP	35	0	5
TAP	35	48	0
TAP	35	48	7
TAP	35	96	4
TAP	35	96	5
TAP	35	144	0
TAP	35	144	7
STR	35	192	4
SF_	35	192	4	96	48	0
TAP	35	192	5
TAP	35	240	0
TAP	35	240	7
TAP	36	48	0
TAP	36	48	7
TAP	36	96	2
TAP	36	96	3
TAP	36	144	0
TAP	36	144	7
TAP	36	192	2
STR	36	192	3
SF_	36	192	3	96	48	7
TAP	36	240	0
TAP	36	240	7
TAP	37	0	4
TAP	37	48	6
TAP	37	72	7
TAP	37	96	6
TAP	37	144	0
TAP	37	144	5
TAP	37	192	3
TAP	37	240	1
TAP	37	264	0
TAP	37	288	1
TAP	37	336	2
TAP	37	336	7
TAP	38	0	4
TAP	38	48	6
TAP	38	72	7
TAP	38	96	5
TAP	38	144	0
TAP	38	144	4
TAP	38	192	3
TAP	38	240	1
TAP	38	264	0
TAP	38	288	2
TAP	38	336	3
TAP	38	336	7
TAP	39	0	1
TAP	39	0	6
TAP	39	48	1
TAP	39	48	6
TAP	39	96	0
TAP	39	96	7
TAP	39	144	0
TAP	39	144	7
TAP	39	192	1
TAP	39	192	6
TAP	39	240	1
TAP	39	240	6
TAP	39	288	2
TAP	39	288	5
TAP	39	336	2
TAP	39	336	5
TAP	40	0	3
TAP	40	24	4
TAP	40	48	3
TAP	40	96	0
TAP	40	120	7
TAP	40	168	2
TAP	40	168	5
TAP	40	240	2
TAP	40	240	5
BRK	40	288	0
BRK	40	288	7
HLD	41	0	2	48
TAP	41	0	3
TAP	41	48	7
TAP	41	96	4
HLD	41	96	5	48
TAP	41	144	0
TAP	41	192	2
TAP	41	192	3
TAP	41	240	0
TAP	41	240	5
TAP	41	288	1
TAP	41	288	7
TAP	42	0	4
HLD	42	0	5	48
TAP	42	48	0
HLD	42	96	2	48
TAP	42	96	3
TAP	42	144	7
TAP	42	192	4
TAP	42	192	5
TAP	42	240	2
TAP	42	240	7
TAP	42	288	0
TAP	42	288	6
HLD	43	0	2	48
TAP	43	0	3
TAP	43	48	7
TAP	43	96	4
HLD	43	96	5	48
TAP	43	144	0
HLD	43	192	2	48
TAP	43	192	3
TAP	43	240	7
TAP	43	288	4
HLD	43	288	5	48
TAP	43	336	0
HLD	44	0	1	48
HLD	44	0	3	48
HLD	44	72	4	48
HLD	44	72	6	48
TAP	44	144	2
TAP	44	144	5
TAP	44	192	3
TAP	44	216	4
TAP	44	240	3
TAP	44	288	4
TAP	44	288	5
TAP	44	336	2
TAP	44	336	3
TAP	45	0	4
HLD	45	0	6	48
TAP	45	48	0
HLD	45	96	1	48
TAP	45	96	3
TAP	45	144	7
TAP	45	192	4
TAP	45	192	5
TAP	45	240	2
TAP	45	240	7
TAP	45	288	0
TAP	45	288	6
HLD	46	0	1	48
TAP	46	0	3
TAP	46	48	7
TAP	46	96	4
HLD	46	96	6	48
TAP	46	144	0
TAP	46	192	2
TAP	46	192	3
TAP	46	240	0
TAP	46	240	5
TAP	46	288	1
TAP	46	288	7
TAP	47	0	4
HLD	47	0	6	48
TAP	47	48	0
HLD	47	96	1	48
TAP	47	96	3
TAP	47	144	7
TAP	47	192	4
HLD	47	192	6	48
TAP	47	240	0
HLD	47	288	1	48
TAP	47	288	3
TAP	47	336	7
HLD	48	0	4	48
HLD	48	0	6	48
HLD	48	72	1	48
HLD	48	72	3	48
STR	48	144	0
SI_	48	144	0	96	48	3
STR	48	144	7
SI_	48	144	7	96	48	4
TAP	48	240	0
TAP	48	240	7
TAP	48	336	2
TAP	48	336	5
TAP	49	0	3
TAP	49	0	4
TAP	49	48	3
TAP	49	48	4
TAP	49	96	2
TAP	49	120	3
TAP	49	144	2
TAP	49	192	3
TAP	49	192	4
TAP	49	240	3
TAP	49	240	4
TAP	49	288	5
TAP	49	312	4
TAP	49	336	5
TAP	50	0	3
TAP	50	0	4
TAP	50	48	2
TAP	50	48	3
TAP	50	96	1
TAP	50	120	3
TAP	50	144	1
TAP	50	192	3
TAP	50	192	4
TAP	50	240	4
TAP	50	240	5
TAP	50	288	6
TAP	50	312	4
TAP	50	336	6
TAP	51	0	3
TAP	51	0	4
TAP	51	48	2
TAP	51	48	3
TAP	51	96	4
TAP	51	96	5
TAP	51	144	3
TAP	51	144	4
TAP	51	192	1
TAP	51	192	6
TAP	51	264	0
TAP	51	264	2
TAP	51	336	5
STR	51	336	7
SCL	51	336	7	96	96	0
TAP	52	192	3
TAP	52	192	4
TAP	52	264	0
TAP	52	264	2
TAP	52	336	5
TAP	52	336	7
TAP	53	0	1
TAP	53	0	3
TAP	53	48	3
TAP	53	48	5
TAP	53	96	6
TAP	53	120	7
TAP	53	144	6
TAP	53	192	4
TAP	53	192	6
TAP	53	240	2
TAP	53	240	4
TAP	53	288	1
TAP	53	312	0
TAP	53	336	1
TAP	54	0	3
TAP	54	0	4
TAP	54	48	2
TAP	54	48	5
TAP	54	96	0
TAP	54	120	7
TAP	54	144	0
TAP	54	192	1
TAP	54	192	6
BRK	54	240	3
BRK	54	240	4
TAP	54	288	1
TAP	54	288	7
TAP	54	336	0
TAP	54	336	6
BRK	55	48	3
BRK	55	48	4
TAP	55	96	0
TAP	55	96	1
TAP	55	144	6
TAP	55	144	7
BRK	55	240	3
BRK	55	240	4
TAP	55	288	0
TAP	55	288	2
TAP	55	336	5
TAP	55	336	7
TAP	56	0	1
TAP	56	0	6
TAP	56	48	0
TAP	56	64	1
TAP	56	80	2
TAP	56	96	3
TAP	56	112	4
TAP	56	128	5
TAP	56	144	6
TAP	56	160	7
TAP	56	192	4
TAP	56	208	5
TAP	56	224	6
TAP	56	240	7
TAP	56	256	0
TAP	56	272	1
BRK	56	288	2
STR	57	0	1
SI_	57	0	1	96	48	4
STR	57	0	5
SI_	57	0	5	96	48	0
STR	57	192	2
SI_	57	192	2	96	48	7
STR	57	192	6
SI_	57	192	6	96	48	3
STR	58	0	0
SI_	58	0	0	96	48	2
STR	58	0	7
SI_	58	0	7	96	48	5
TAP	58	192	1
TAP	58	216	1
TAP	58	240	3
TAP	58	264	3
TAP	58	288	2
TAP	58	312	2
TAP	58	336	4
TAP	58	360	4
STR	59	0	2
SV_	59	0	2	96	48	4
STR	59	0	5
SCR	59	0	5	96	48	0
STR	59	192	2
SCL	59	192	2	96	48	7
STR	59	192	5
SV_	59	192	5	96	48	3
TAP	60	0	3
TAP	60	0	4
TAP	60	144	0
TAP	60	168	7
TAP	60	192	1
TAP	60	192	6
TAP	60	264	2
TAP	60	264	3
TAP	60	336	4
TAP	60	336	5
STR	61	0	3
SCL	61	0	3	96	48	0
STR	61	0	6
SUR	61	0	6	96	48	3
STR	61	192	1
SUL	61	192	1	96	48	4
STR	61	192	4
SCR	61	192	4	96	48	7
STR	62	0	0
SI_	62	0	0	96	48	2
STR	62	0	7
SI_	62	0	7	96	48	5
TAP	62	192	3
TAP	62	192	4
TAP	62	288	2
TAP	62	288	5
TAP	62	336	1
TAP	62	336	6
TAP	63	0	0
TAP	63	0	7
TAP	63	96	1
TAP	63	120	1
TAP	63	144	2
TAP	63	168	2
TAP	63	192	3
TAP	63	216	3
TAP	63	240	4
TAP	63	264	4
TAP	63	288	5
TAP	63	312	5
TAP	63	336	6
TAP	63	360	6
STR	64	0	0
SI_	64	0	0	96	48	3
STR	64	0	7
SI_	64	0	7	96	48	4
STR	64	96	0
SCL	64	96	0	96	48	5
STR	64	96	7
SCR	64	96	7	96	48	2
TAP	64	192	0
TAP	64	192	7
TAP	64	288	3
TAP	64	312	4
TAP	64	336	3
TAP	64	360	4
STR	65	0	0
SI_	65	0	0	96	48	4
STR	65	48	4
SLL	65	48	4	96	48	0
TAP	65	72	4
TAP	65	120	5
TAP	65	144	5
STR	65	192	7
SI_	65	192	7	96	48	3
STR	65	240	3
SLR	65	240	3	96	48	7
TAP	65	264	3
TAP	65	312	2
TAP	65	336	2
HLD	66	0	1	48
TAP	66	48	3
HLD	66	72	3	48
TAP	66	120	4
TAP	66	144	4
TAP	66	192	6
TAP	66	216	6
TAP	66	240	4
TAP	66	264	4
TAP	66	288	5
TAP	66	312	5
TAP	66	336	3
TAP	66	360	3
STR	67	0	6
SUR	67	0	6	96	48	3
STR	67	48	3
SUR	67	48	3	96	48	7
TAP	67	72	3
TAP	67	120	2
TAP	67	144	2
STR	67	192	1
SUL	67	192	1	96	48	4
STR	67	240	4
SUL	67	240	4	96	48	0
TAP	67	264	4
TAP	67	312	5
TAP	67	336	5
HLD	68	0	6	48
TAP	68	48	4
HLD	68	72	4	48
TAP	68	120	3
TAP	68	144	3
TAP	68	192	2
TAP	68	192	5
TAP	68	240	3
TAP	68	264	4
TAP	68	288	3
TAP	68	336	2
TAP	68	336	5
TAP	69	0	3
TAP	69	0	4
TAP	69	48	4
TAP	69	48	5
TAP	69	96	2
TAP	69	96	4
TAP	69	144	4
TAP	69	144	6
TAP	69	192	1
TAP	69	192	4
TAP	69	240	4
TAP	69	240	7
TAP	69	288	0
TAP	69	288	4
BRK	69	336	2
BRK	69	336	6
TAP	70	0	3
TAP	70	0	4
TAP	70	48	2
TAP	70	48	3
TAP	70	96	3
TAP	70	96	5
TAP	70	144	1
TAP	70	144	3
TAP	70	192	3
TAP	70	192	6
TAP	70	240	0
TAP	70	240	3
TAP	70	288	3
TAP	70	288	7
BRK	70	336	1
BRK	70	336	5
TAP	71	0	4
TAP	71	0	6
TAP	71	48	1
TAP	71	48	3
TAP	71	96	5
TAP	71	96	7
TAP	71	144	0
TAP	71	144	2
TAP	71	192	2
TAP	71	192	5
TAP	71	240	3
TAP	71	264	3
TAP	71	288	5
TAP	71	312	5
TAP	71	336	2
TAP	71	360	2
STR	72	0	4
SCR	72	0	4	96	48	0
STR	72	96	3
SCL	72	96	3	96	48	7
BST	72	192	5
SSR	72	192	5	96	864	1

T_REC_TAP	630
T_REC_BRK	15
T_REC_XTP	0
T_REC_HLD	64
T_REC_XHO	0
T_REC_STR	59
T_REC_BST	1
T_REC_XST	0
T_REC_TTP	0
T_REC_THO	0
T_REC_SLD	60
T_REC_ALL	829
T_NUM_TAP	689
T_NUM_BRK	16
T_NUM_HLD	64
T_NUM_SLD	60
T_NUM_ALL	829
T_JUDGE_TAP	705
T_JUDGE_HLD	112
T_JUDGE_SLD	60
T_JUDGE_ALL	877
TTM_EACHPAIRS	212
TTM_SCR_TAP	344500
TTM_SCR_BRK	41600
TTM_SCR_HLD	64000
TTM_SCR_SLD	90000
TTM_SCR_ALL	540100
TTM_SCR_S	522350
TTM_SCR_SS	538500
TTM_RAT_ACV	10029

