VERSION	0.00.00	1.03.00
FES_MODE	0
BPM_DEF	140.000	140.000	140.000	140.000
MET_DEF	4	4
RESOLUTION	384
CLK_DEF	384
COMPATIBLE_CODE	MA2

BPM	0	0	140.000

HLD	1	0	2	192
HLD	1	192	3	192
HLD	2	0	4	192
HLD	2	192	5	192
TAP	3	0	6
TAP	3	96	5
TAP	3	192	4
STR	3	288	3
SUR	3	288	3	96	192	6
TAP	5	0	5
TAP	5	96	5
TAP	5	192	4
TAP	5	288	4
TAP	6	0	3
TAP	6	96	3
TAP	6	192	2
TAP	6	288	2
TAP	7	0	1
TAP	7	96	2
TAP	7	192	3
STR	7	288	4
SXL	7	288	4	96	192	7
SXR	7	288	4	96	192	1
BRK	8	288	0
BRK	8	288	6
HLD	9	0	1	72
HLD	9	72	0	72
TAP	9	144	2
HLD	9	192	6	72
HLD	9	264	7	72
TAP	9	336	5
HLD	10	0	2	72
HLD	10	72	3	72
TAP	10	144	1
TAP	10	192	1
TAP	10	288	3
TAP	10	288	4
HLD	11	0	0	96
STR	11	0	7
SI_	11	0	7	96	48	2
STR	11	192	0
SI_	11	192	0	96	48	5
HLD	11	192	7	96
TAP	12	0	1
TAP	12	0	6
STR	12	96	0
SCR	12	96	0	96	96	4
STR	12	96	7
SXR	12	96	7	96	96	5
HLD	13	0	6	72
HLD	13	72	7	72
TAP	13	144	4
HLD	13	192	1	72
HLD	13	264	0	72
TAP	13	336	3
HLD	14	0	5	72
HLD	14	72	4	72
TAP	14	144	7
TAP	14	192	7
TAP	14	288	0
TAP	14	288	6
STR	15	0	4
SI_	15	0	4	96	48	1
HLD	15	0	5	96
HLD	15	192	2	96
STR	15	192	3
SI_	15	192	3	96	48	6
TAP	16	0	0
TAP	16	0	4
TAP	16	96	2
TAP	16	96	6
BRK	16	192	0
BRK	16	192	7
TAP	17	0	1
TAP	17	0	3
TAP	17	96	4
TAP	17	96	6
HLD	17	192	3	96
HLD	17	192	4	96
TAP	18	0	2
TAP	18	48	3
TAP	18	96	2
HLD	18	192	3	96
HLD	18	192	4	96
TAP	19	0	4
TAP	19	0	6
TAP	19	96	1
TAP	19	96	3
HLD	19	192	3	96
HLD	19	192	4	96
TAP	20	0	5
TAP	20	48	4
TAP	20	96	5
HLD	20	192	3	96
HLD	20	192	4	96
TAP	21	0	1
TAP	21	0	3
TAP	21	96	4
TAP	21	96	6
HLD	21	192	3	48
HLD	21	192	4	48
HLD	21	288	3	48
HLD	21	288	4	48
TAP	22	0	2
TAP	22	48	3
TAP	22	96	2
HLD	22	192	3	48
HLD	22	192	4	48
HLD	22	288	3	48
HLD	22	288	4	48
TAP	23	0	4
TAP	23	0	6
TAP	23	96	1
TAP	23	96	3
HLD	23	192	3	48
HLD	23	192	4	48
HLD	23	288	3	48
HLD	23	288	4	48
HLD	24	0	5	288
TAP	24	48	4
TAP	24	96	4
TAP	24	144	4
TAP	24	192	4
TAP	24	240	4
BRK	24	288	0
TAP	25	0	2
TAP	25	48	3
TAP	25	96	2
TAP	25	144	3
TAP	25	192	2
TAP	25	240	3
TAP	25	288	1
TAP	25	336	1
TAP	26	0	5
TAP	26	48	4
TAP	26	96	5
TAP	26	144	4
TAP	26	192	5
TAP	26	240	4
TAP	26	288	6
TAP	27	0	2
TAP	27	0	5
TAP	27	48	3
TAP	27	48	4
TAP	27	96	3
TAP	27	96	4
TAP	27	144	3
TAP	27	144	4
TAP	27	192	3
TAP	27	192	4
TAP	27	240	3
TAP	27	240	4
TAP	27	288	1
TAP	27	288	7
TAP	28	0	2
TAP	28	0	5
TAP	28	48	3
TAP	28	48	4
TAP	28	96	3
TAP	28	96	4
TAP	28	144	3
TAP	28	144	4
TAP	28	192	3
TAP	28	192	4
TAP	28	240	3
TAP	28	240	4
TAP	28	288	0
TAP	28	288	6
TAP	29	0	5
TAP	29	48	4
TAP	29	96	5
TAP	29	144	4
TAP	29	192	5
TAP	29	240	4
TAP	29	288	6
TAP	29	336	6
TAP	30	0	2
TAP	30	48	3
TAP	30	96	2
TAP	30	144	3
TAP	30	192	2
TAP	30	240	3
TAP	30	288	1
TAP	31	0	2
TAP	31	0	5
TAP	31	48	3
TAP	31	48	4
TAP	31	96	3
TAP	31	96	4
TAP	31	144	3
TAP	31	144	4
TAP	31	192	3
TAP	31	192	4
TAP	31	240	3
TAP	31	240	4
TAP	31	288	0
TAP	31	288	6
TAP	32	0	2
TAP	32	0	5
TAP	32	48	3
TAP	32	48	4
TAP	32	96	3
TAP	32	96	4
TAP	32	144	3
TAP	32	144	4
TAP	32	192	3
TAP	32	192	4
TAP	32	240	3
TAP	32	240	4
TAP	32	288	1
TAP	32	288	7
TAP	33	0	5
TAP	33	48	4
HLD	33	96	3	96
TAP	33	192	2
TAP	33	240	3
HLD	33	288	4	96
TAP	34	0	6
TAP	34	48	4
HLD	34	96	3	96
TAP	34	192	1
TAP	34	240	3
TAP	34	288	4
TAP	35	0	2
TAP	35	0	5
TAP	35	48	3
TAP	35	48	4
TAP	35	96	3
TAP	35	96	4
TAP	35	144	3
TAP	35	144	4
TAP	35	192	3
TAP	35	192	4
TAP	35	240	3
TAP	35	240	4
TAP	35	288	1
TAP	35	288	7
TAP	36	0	2
TAP	36	0	5
TAP	36	48	3
TAP	36	48	4
TAP	36	96	3
TAP	36	96	4
TAP	36	144	3
TAP	36	144	4
TAP	36	192	3
TAP	36	192	4
TAP	36	240	3
TAP	36	240	4
TAP	36	288	0
TAP	36	288	6
TAP	37	0	2
TAP	37	48	3
HLD	37	96	4	96
TAP	37	192	5
TAP	37	240	4
HLD	37	288	3	96
TAP	38	0	1
TAP	38	48	3
HLD	38	96	4	96
TAP	38	192	6
TAP	38	240	4
TAP	38	288	3
HLD	39	0	0	96
HLD	39	96	7	96
HLD	39	192	6	96
HLD	39	288	5	96
STR	40	0	4
SF_	40	0	4	96	96	0
BRK	40	288	0
BRK	40	288	7
TAP	41	0	2
TAP	41	0	3
TAP	41	48	2
TAP	41	96	2
TAP	41	96	3
TAP	41	144	2
STR	41	192	1
SI_	41	192	1	96	48	3
STR	41	192	4
SI_	41	192	4	96	48	0
TAP	42	0	0
TAP	42	0	1
TAP	42	48	0
TAP	42	96	0
TAP	42	96	1
TAP	42	144	0
STR	42	192	2
SI_	42	192	2	96	48	0
STR	42	192	7
SI_	42	192	7	96	48	3
TAP	43	0	0
TAP	43	48	1
TAP	43	96	2
TAP	43	96	7
TAP	43	192	7
TAP	43	240	6
TAP	43	288	0
TAP	43	288	5
HLD	44	0	2	72
TAP	44	72	3
STR	44	144	1
SXL	44	144	1	96	48	3
STR	44	144	4
SCR	44	144	4	96	48	7
TAP	45	0	4
TAP	45	0	5
TAP	45	48	5
TAP	45	96	4
TAP	45	96	5
TAP	45	144	5
STR	45	192	3
SI_	45	192	3	96	48	7
STR	45	192	6
SI_	45	192	6	96	48	4
TAP	46	0	6
TAP	46	0	7
TAP	46	48	7
TAP	46	96	6
TAP	46	96	7
TAP	46	144	7
STR	46	192	0
SI_	46	192	0	96	48	4
STR	46	192	5
SI_	46	192	5	96	48	7
TAP	47	0	2
TAP	47	48	3
TAP	47	96	1
TAP	47	96	4
TAP	47	192	5
TAP	47	240	4
TAP	47	288	3
TAP	47	288	6
STR	48	0	0
SXR	48	0	0	96	144	5
STR	48	0	1
SXL	48	0	1	96	144	4
BRK	49	0	1
TAP	49	48	0
TAP	49	96	7
TAP	49	144	6
HLD	49	192	5	72
HLD	49	264	4	72
TAP	49	336	3
HLD	50	0	2	72
HLD	50	72	3	72
STR	50	144	4
SCR	50	144	4	96	96	1
SXR	50	144	4	96	96	2
TAP	51	144	5
HLD	51	192	5	72
TAP	51	264	4
STR	51	336	3
SCL	51	336	3	96	96	7
STR	51	336	6
SUR	51	336	6	96	96	4
TAP	52	192	4
TAP	52	192	6
TAP	52	264	1
TAP	52	264	3
TAP	52	336	0
TAP	52	336	7
TAP	53	0	6
TAP	53	48	5
TAP	53	96	4
TAP	53	144	3
HLD	53	192	2	72
HLD	53	264	1	72
TAP	53	336	0
HLD	54	0	5	72
HLD	54	72	6	72
TAP	54	144	7
STR	54	240	6
SI_	54	240	6	96	48	2
STR	54	240	7
SI_	54	240	7	96	48	3
TAP	54	288	6
TAP	54	288	7
STR	55	48	0
SI_	55	48	0	96	48	4
STR	55	48	1
SI_	55	48	1	96	48	5
TAP	55	96	0
TAP	55	96	1
STR	55	240	2
SXR	55	240	2	96	240	7
STR	55	240	3
SXL	55	240	3	96	240	6
TAP	55	288	2
TAP	55	288	3
BRK	56	288	1
BRK	56	288	6
HLD	57	0	2	144
HLD	57	0	3	144
HLD	57	192	3	144
HLD	57	192	4	144
HLD	58	0	4	144
HLD	58	0	5	144
STR	58	192	3
SI_	58	192	3	96	48	1
STR	58	192	4
SI_	58	192	4	96	48	6
HLD	59	0	6	144
HLD	59	0	7	144
HLD	59	192	0	144
HLD	59	192	7	144
HLD	60	0	0	144
HLD	60	0	1	144
STR	60	192	0
SI_	60	192	0	96	48	2
STR	60	192	7
SI_	60	192	7	96	48	5
HLD	61	0	2	48
HLD	61	0	3	48
HLD	61	96	2	48
HLD	61	96	3	48
HLD	61	192	3	48
HLD	61	192	4	48
HLD	61	288	3	48
HLD	61	288	4	48
HLD	62	0	4	48
HLD	62	0	5	48
HLD	62	96	4	48
HLD	62	96	5	48
STR	62	192	3
SI_	62	192	3	96	48	1
STR	62	192	4
SI_	62	192	4	96	48	6
STR	63	0	0
SI_	63	0	0	96	48	4
HLD	63	0	1	96
HLD	63	192	6	96
STR	63	192	7
SI_	63	192	7	96	48	3
TAP	64	0	2
TAP	64	0	5
TAP	64	96	1
TAP	64	96	6
BST	64	192	0
SI_	64	192	0	96	48	3
BST	64	192	7
SI_	64	192	7	96	48	4
HLD	65	0	1	72
TAP	65	72	2
TAP	65	144	0
TAP	65	144	7
HLD	65	192	6	72
TAP	65	264	5
TAP	65	336	0
TAP	65	336	7
HLD	66	0	2	72
TAP	66	72	3
TAP	66	144	1
TAP	66	144	6
STR	66	192	0
SI_	66	192	0	96	48	4
STR	66	192	7
SI_	66	192	7	96	48	3
HLD	67	0	6	72
HLD	67	72	5	72
TAP	67	144	4
HLD	67	192	1	72
HLD	67	264	2	72
TAP	67	336	3
HLD	68	0	5	72
TAP	68	72	4
TAP	68	144	3
TAP	68	144	6
HLD	68	192	0	96
HLD	68	192	7	96
TAP	69	0	1
TAP	69	48	1
TAP	69	96	6
TAP	69	144	6
TAP	69	192	2
TAP	69	240	2
TAP	69	288	5
TAP	69	336	5
TAP	70	0	3
TAP	70	0	4
TAP	70	48	3
TAP	70	48	4
TAP	70	96	2
TAP	70	96	5
TAP	70	144	2
TAP	70	144	5
TAP	70	192	1
TAP	70	192	6
TAP	70	240	1
TAP	70	240	6
TAP	70	288	0
TAP	70	288	7
TAP	70	336	0
TAP	70	336	7
STR	71	0	1
SI_	71	0	1	96	48	4
STR	71	96	6
SI_	71	96	6	96	48	3
STR	71	192	0
SI_	71	192	0	96	48	3
SI_	71	192	0	96	48	5
BRK	72	0	2
BRK	72	0	6
BRK	72	96	0
BRK	72	96	4
BRK	72	192	1
BRK	72	192	6

T_REC_TAP	301
T_REC_BRK	16
T_REC_XTP	0
T_REC_HLD	97
T_REC_XHO	0
T_REC_STR	43
T_REC_BST	2
T_REC_XST	0
T_REC_TTP	0
T_REC_THO	0
T_REC_SLD	48
T_REC_ALL	507
T_NUM_TAP	344
T_NUM_BRK	18
T_NUM_HLD	97
T_NUM_SLD	48
T_NUM_ALL	507
T_JUDGE_TAP	362
T_JUDGE_HLD	194
T_JUDGE_SLD	48
T_JUDGE_ALL	604
TTM_EACHPAIRS	139
TTM_SCR_TAP	172000
TTM_SCR_BRK	46800
TTM_SCR_HLD	97000
TTM_SCR_SLD	72000
TTM_SCR_ALL	387800
TTM_SCR_S	374450
TTM_SCR_SS	386000
TTM_RAT_ACV	10046

