VERSION	0.00.00	1.03.00
FES_MODE	0
BPM_DEF	140.000	140.000	140.000	140.000
MET_DEF	4	4
RESOLUTION	384
CLK_DEF	384
COMPATIBLE_CODE	MA2

BPM	0	0	140.000

TAP	5	0	1
TAP	5	96	1
TAP	5	192	2
TAP	5	288	2
TAP	6	0	3
TAP	6	96	3
TAP	6	192	4
TAP	6	288	4
TAP	7	0	5
TAP	7	96	5
TAP	7	192	6
TAP	7	288	6
TAP	8	0	0
TAP	8	0	7
TAP	9	0	6
TAP	9	96	5
TAP	9	192	4
TAP	9	288	3
TAP	10	0	2
TAP	10	96	1
TAP	10	192	0
TAP	10	192	7
TAP	11	0	1
TAP	11	96	2
TAP	11	192	3
TAP	11	288	4
TAP	12	0	5
TAP	12	96	6
TAP	12	192	0
TAP	12	192	7
TAP	13	0	0
TAP	13	96	0
TAP	13	192	7
TAP	13	288	7
TAP	14	0	0
TAP	14	96	7
TAP	14	192	1
TAP	14	192	6
TAP	15	0	7
TAP	15	96	7
TAP	15	192	0
TAP	15	288	0
TAP	16	0	0
TAP	16	0	7
TAP	16	96	0
TAP	16	96	7
BRK	16	192	1
BRK	16	192	6
STR	17	0	1
SI_	17	0	1	96	96	4
STR	18	0	6
SI_	18	0	6	96	96	3
STR	19	0	1
SI_	19	0	1	96	120	5
STR	20	0	6
SI_	20	0	6	96	120	2
STR	21	0	0
SI_	21	0	0	96	120	4
STR	22	0	7
SI_	22	0	7	96	120	3
STR	23	0	0
SI_	23	0	0	96	96	3
STR	23	0	7
SI_	23	0	7	96	96	4
STR	24	0	3
SI_	24	0	3	96	96	0
STR	24	0	4
SI_	24	0	4	96	96	7
TAP	25	0	5
TAP	25	96	5
TAP	25	192	4
TAP	25	288	4
TAP	26	0	5
TAP	26	96	4
TAP	26	192	3
TAP	26	192	6
TAP	27	0	4
TAP	27	0	5
TAP	27	96	4
TAP	27	96	5
TAP	27	192	1
TAP	27	192	6
TAP	27	288	1
TAP	27	288	6
TAP	28	0	4
TAP	28	0	5
TAP	28	96	4
TAP	28	96	5
TAP	28	192	1
TAP	28	192	6
TAP	28	288	1
TAP	28	288	6
TAP	29	0	2
TAP	29	96	2
TAP	29	192	3
TAP	29	288	3
TAP	30	0	2
TAP	30	96	3
TAP	30	192	1
TAP	30	192	4
TAP	31	0	2
TAP	31	0	3
TAP	31	96	2
TAP	31	96	3
TAP	31	192	1
TAP	31	192	6
TAP	31	288	1
TAP	31	288	6
TAP	32	0	2
TAP	32	0	3
TAP	32	96	2
TAP	32	96	3
TAP	32	192	1
TAP	32	192	6
TAP	32	288	1
TAP	32	288	6
TAP	33	0	5
TAP	33	96	4
TAP	33	192	5
TAP	33	288	3
TAP	33	288	6
TAP	34	0	2
TAP	34	96	3
TAP	34	192	2
TAP	34	288	1
TAP	34	288	4
TAP	35	0	2
TAP	35	0	3
TAP	35	96	2
TAP	35	96	3
TAP	35	192	0
TAP	35	192	7
TAP	35	288	0
TAP	35	288	7
TAP	36	0	4
TAP	36	0	5
TAP	36	96	4
TAP	36	96	5
TAP	36	192	0
TAP	36	192	7
TAP	36	288	0
TAP	36	288	7
TAP	37	0	2
TAP	37	96	3
TAP	37	192	2
TAP	37	288	1
TAP	37	288	4
TAP	38	0	5
TAP	38	96	4
TAP	38	192	5
TAP	38	288	3
TAP	38	288	6
TAP	39	0	3
TAP	39	0	4
TAP	39	96	2
TAP	39	96	5
TAP	39	192	1
TAP	39	192	6
TAP	39	288	0
TAP	39	288	7
STR	40	0	0
SI_	40	0	0	96	96	3
STR	40	0	7
SI_	40	0	7	96	96	4
TAP	40	288	2
TAP	40	288	5
HLD	41	0	2	96
TAP	41	96	3
HLD	41	192	5	96
TAP	41	288	4
HLD	42	0	1	96
TAP	42	96	2
HLD	42	192	6	96
TAP	42	288	5
HLD	43	0	1	96
TAP	43	96	0
HLD	43	192	6	96
TAP	43	288	7
STR	44	0	1
SCR	44	0	1	96	120	4
HLD	45	0	5	96
TAP	45	96	4
HLD	45	192	2	96
TAP	45	288	3
HLD	46	0	6	96
TAP	46	96	5
HLD	46	192	1	96
TAP	46	288	2
HLD	47	0	6	96
TAP	47	96	7
HLD	47	192	1	96
TAP	47	288	0
STR	48	0	6
SCL	48	0	6	96	120	3
TAP	49	0	2
TAP	49	96	2
TAP	49	96	3
TAP	49	192	5
TAP	49	288	4
TAP	49	288	5
TAP	50	0	2
TAP	50	96	2
TAP	50	96	3
TAP	50	192	5
TAP	50	288	4
TAP	50	288	5
TAP	51	0	2
TAP	51	96	1
TAP	51	96	3
TAP	51	192	5
TAP	51	288	4
TAP	51	288	6
TAP	52	0	3
TAP	52	0	4
TAP	52	96	2
TAP	52	96	5
TAP	52	192	1
TAP	52	192	6
TAP	53	0	1
TAP	53	96	0
TAP	53	96	2
TAP	53	192	6
TAP	53	288	5
TAP	53	288	7
TAP	54	0	1
TAP	54	0	6
TAP	54	96	1
TAP	54	96	6
TAP	54	192	3
TAP	54	192	4
TAP	54	288	2
TAP	54	288	5
TAP	55	0	6
TAP	55	0	7
TAP	55	96	0
TAP	55	96	5
TAP	55	192	0
TAP	55	192	1
TAP	55	288	2
TAP	55	288	7
STR	56	0	3
SI_	56	0	3	96	96	0
STR	56	0	4
SI_	56	0	4	96	96	7
STR	57	0	2
SI_	57	0	2	96	96	7
STR	58	0	5
SI_	58	0	5	96	96	0
STR	59	0	3
SI_	59	0	3	96	96	7
STR	60	0	4
SI_	60	0	4	96	96	0
STR	61	0	0
SCL	61	0	0	96	120	5
STR	61	0	1
SCR	61	0	1	96	120	4
STR	62	0	6
SCL	62	0	6	96	120	3
STR	62	0	7
SCR	62	0	7	96	120	2
STR	63	0	0
SCR	63	0	0	96	120	3
STR	63	0	7
SCL	63	0	7	96	120	4
TAP	64	0	3
TAP	64	0	4
TAP	64	96	2
TAP	64	96	5
BRK	64	192	1
BRK	64	192	6
TAP	65	0	0
TAP	65	0	1
TAP	65	96	2
TAP	65	96	7
TAP	65	192	6
TAP	65	192	7
TAP	65	288	0
TAP	65	288	5
TAP	66	0	3
TAP	66	0	4
TAP	66	96	2
TAP	66	144	2
TAP	66	192	2
TAP	66	192	3
TAP	66	288	1
TAP	66	288	4
TAP	67	0	6
TAP	67	0	7
TAP	67	96	0
TAP	67	96	5
TAP	67	192	0
TAP	67	192	1
TAP	67	288	2
TAP	67	288	7
TAP	68	0	3
TAP	68	0	4
TAP	68	96	5
TAP	68	144	5
TAP	68	192	4
TAP	68	192	5
TAP	68	288	3
TAP	68	288	6
TAP	69	0	1
TAP	69	48	1
TAP	69	96	0
TAP	69	96	1
TAP	69	192	6
TAP	69	240	6
TAP	69	288	6
TAP	69	288	7
TAP	70	0	1
TAP	70	48	1
TAP	70	96	0
TAP	70	96	2
TAP	70	192	6
TAP	70	240	6
TAP	70	288	5
TAP	70	288	7
TAP	71	0	2
TAP	71	0	3
TAP	71	48	2
TAP	71	48	3
TAP	71	96	2
TAP	71	96	3
TAP	71	192	4
TAP	71	192	5
TAP	71	240	4
TAP	71	240	5
TAP	71	288	4
TAP	71	288	5
TAP	72	0	2
TAP	72	0	3
TAP	72	96	4
TAP	72	96	5
TAP	72	192	0
TAP	72	192	7
BRK	72	288	1
BRK	72	288	6

T_REC_TAP	268
T_REC_BRK	6
T_REC_XTP	0
T_REC_HLD	12
T_REC_XHO	0
T_REC_STR	26
T_REC_BST	0
T_REC_XST	0
T_REC_TTP	0
T_REC_THO	0
T_REC_SLD	26
T_REC_ALL	338
T_NUM_TAP	294
T_NUM_BRK	6
T_NUM_HLD	12
T_NUM_SLD	26
T_NUM_ALL	338
T_JUDGE_TAP	300
T_JUDGE_HLD	24
T_JUDGE_SLD	26
T_JUDGE_ALL	350
TTM_EACHPAIRS	99
TTM_SCR_TAP	147000
TTM_SCR_BRK	15600
TTM_SCR_HLD	12000
TTM_SCR_SLD	39000
TTM_SCR_ALL	213600
TTM_SCR_S	206650
TTM_SCR_SS	213000
TTM_RAT_ACV	10028

