VERSION	0.00.00	1.03.00
FES_MODE	0
BPM_DEF	140.000	140.000	140.000	140.000
MET_DEF	4	4
RESOLUTION	384
CLK_DEF	384
COMPATIBLE_CODE	MA2

BPM	0	0	140.000

TAP	1	0	0
TAP	1	192	0
HLD	2	0	1	192
TAP	3	0	2
TAP	3	192	2
TAP	4	0	3
TAP	4	96	4
TAP	4	192	3
TAP	5	0	4
TAP	5	192	4
HLD	6	0	5	192
TAP	7	0	6
TAP	7	192	6
TAP	8	0	7
TAP	8	96	0
BRK	8	192	7
TAP	9	0	7
TAP	9	96	7
TAP	9	192	7
TAP	10	0	6
TAP	10	96	6
TAP	10	192	6
TAP	11	0	4
TAP	11	0	5
TAP	11	192	4
TAP	11	192	5
TAP	12	0	3
TAP	12	96	4
TAP	12	192	3
TAP	13	0	3
TAP	13	96	3
TAP	13	192	3
TAP	14	0	2
TAP	14	96	2
TAP	14	192	2
TAP	15	0	0
TAP	15	0	1
TAP	15	192	0
TAP	15	192	1
TAP	16	0	7
TAP	16	96	0
TAP	16	192	0
TAP	16	192	7
STR	17	0	0
SI_	17	0	0	96	288	3
STR	19	0	7
SI_	19	0	7	96	288	4
HLD	21	0	0	192
HLD	22	0	0	192
HLD	22	0	1	192
HLD	23	0	7	192
HLD	24	0	6	192
HLD	24	0	7	192
TAP	25	0	5
TAP	25	96	5
TAP	25	192	4
TAP	25	288	4
TAP	26	0	3
TAP	26	96	3
TAP	26	192	2
TAP	26	288	2
HLD	27	0	1	192
HLD	28	0	0	192
HLD	28	0	1	192
TAP	29	0	2
TAP	29	96	2
TAP	29	192	3
TAP	29	288	3
TAP	30	0	4
TAP	30	96	4
TAP	30	192	5
TAP	30	288	5
HLD	31	0	6	192
HLD	32	0	6	192
HLD	32	0	7	192
TAP	33	0	0
TAP	33	96	0
TAP	33	192	0
TAP	33	192	1
TAP	34	0	7
TAP	34	96	7
TAP	34	192	6
TAP	34	192	7
HLD	35	0	5	192
HLD	36	0	4	192
HLD	36	0	5	192
TAP	37	0	6
TAP	37	96	6
TAP	37	192	6
TAP	37	192	7
TAP	38	0	1
TAP	38	96	1
TAP	38	192	0
TAP	38	192	1
HLD	39	0	2	192
HLD	40	0	2	192
HLD	40	0	3	192
TAP	41	0	4
TAP	41	96	4
HLD	41	192	4	96
TAP	42	0	3
TAP	42	96	3
HLD	42	192	3	96
TAP	43	0	4
TAP	43	96	4
TAP	43	192	3
TAP	43	288	3
HLD	44	0	2	192
HLD	44	0	5	192
TAP	45	0	5
TAP	45	96	4
HLD	45	192	5	96
TAP	46	0	2
TAP	46	96	3
HLD	46	192	2	96
TAP	47	0	1
TAP	47	96	1
TAP	47	192	0
TAP	47	288	0
HLD	48	0	0	192
HLD	48	0	7	192
STR	49	0	7
SI_	49	0	7	96	288	3
STR	51	0	0
SI_	51	0	0	96	288	4
TAP	53	0	7
TAP	53	192	7
TAP	54	0	6
TAP	54	192	6
TAP	55	0	5
TAP	55	192	5
HLD	56	0	4	192
HLD	56	0	5	192
BRK	57	0	3
TAP	57	192	3
TAP	58	0	2
TAP	58	96	2
TAP	58	192	2
TAP	59	0	1
TAP	59	192	1
TAP	60	0	0
TAP	60	96	7
TAP	60	192	0
TAP	61	0	7
TAP	61	192	7
TAP	62	0	6
TAP	62	96	6
TAP	62	192	6
TAP	63	0	5
TAP	63	192	5
TAP	64	0	3
TAP	64	0	4
TAP	64	96	3
TAP	64	96	4
TAP	64	192	3
TAP	64	192	4
BRK	64	288	3
BRK	64	288	4
TAP	65	0	4
TAP	65	96	4
TAP	65	192	5
TAP	65	288	5
TAP	66	0	6
TAP	66	96	6
TAP	66	192	0
TAP	66	192	7
TAP	67	0	0
TAP	67	0	1
TAP	67	192	6
TAP	67	192	7
TAP	68	0	0
TAP	68	96	7
TAP	68	192	0
TAP	69	0	0
TAP	69	96	0
TAP	69	192	1
TAP	69	288	1
TAP	70	0	2
TAP	70	96	2
TAP	70	192	3
TAP	70	192	4
TAP	71	0	4
TAP	71	0	5
TAP	71	192	2
TAP	71	192	3
TAP	72	0	4
TAP	72	96	3
TAP	72	192	4
TAP	72	288	2
TAP	72	288	5

T_REC_TAP	148
T_REC_BRK	4
T_REC_XTP	0
T_REC_HLD	30
T_REC_XHO	0
T_REC_STR	4
T_REC_BST	0
T_REC_XST	0
T_REC_TTP	0
T_REC_THO	0
T_REC_SLD	4
T_REC_ALL	190
T_NUM_TAP	152
T_NUM_BRK	4
T_NUM_HLD	30
T_NUM_SLD	4
T_NUM_ALL	190
T_JUDGE_TAP	156
T_JUDGE_HLD	112
T_JUDGE_SLD	4
T_JUDGE_ALL	272
TTM_EACHPAIRS	29
TTM_SCR_TAP	76000
TTM_SCR_BRK	10400
TTM_SCR_HLD	30000
TTM_SCR_SLD	6000
TTM_SCR_ALL	122400
TTM_SCR_S	118350
TTM_SCR_SS	122000
TTM_RAT_ACV	10032

