VERSION	0.00.00	1.03.00
FES_MODE	0
BPM_DEF	220.000	220.000	220.000	220.000
MET_DEF	4	4
RESOLUTION	384
CLK_DEF	384
COMPATIBLE_CODE	MA2

BPM	0	0	220.000

TAP	1	256	3
TAP	1	288	4
TAP	2	0	2
TAP	2	0	6
TAP	2	192	3
TAP	2	192	4
TAP	2	256	2
TAP	2	288	3
TAP	3	0	2
TAP	3	0	3
TAP	3	96	3
TAP	3	96	4
TAP	3	160	5
TAP	3	192	4
TAP	3	288	3
TAP	3	288	5
TAP	4	0	3
TAP	4	0	4
TAP	4	96	2
TAP	4	96	4
TAP	4	192	2
TAP	4	192	3
TAP	4	256	2
TAP	4	288	3
TAP	5	0	2
TAP	5	0	4
TAP	5	96	3
TAP	5	96	5
TAP	5	160	5
TAP	5	192	4
TAP	5	288	2
TAP	5	352	2
TAP	6	0	3
TAP	6	96	3
TAP	6	96	4
TAP	6	192	3
TAP	6	192	5
TAP	6	256	5
TAP	6	288	4
TAP	7	0	3
TAP	7	0	5
TAP	7	96	2
TAP	7	96	4
TAP	7	160	2
TAP	7	192	3
TAP	7	288	3
TAP	7	288	4
TAP	8	0	2
HLD	8	0	5	96
HLD	8	96	2	96
HLD	8	192	6	96
HLD	8	288	1	96
TAP	9	0	5
TAP	9	96	5
TAP	9	192	5
TAP	9	256	3
TAP	9	288	4
HLD	10	0	3	96
HLD	10	0	6	96
HLD	10	160	1	96
HLD	10	160	4	96
TAP	10	288	3
TAP	10	288	6
TAP	11	64	7
TAP	11	96	0
TAP	11	160	0
STR	11	192	6
SI_	11	192	6	96	48	3
TAP	11	288	0
HLD	12	0	1	96
HLD	12	0	4	96
HLD	12	160	3	96
HLD	12	160	6	96
TAP	12	288	1
TAP	12	288	4
TAP	13	64	0
TAP	13	96	7
TAP	13	192	1
TAP	13	192	6
TAP	13	288	3
TAP	13	288	4
HLD	14	0	1	96
HLD	14	0	4	96
HLD	14	160	2	96
HLD	14	160	5	96
TAP	14	288	3
TAP	14	288	6
STR	15	96	0
SI_	15	96	0	96	48	4
TAP	15	192	7
TAP	16	0	3
TAP	16	0	4
TAP	16	96	3
TAP	16	96	4
TAP	16	192	2
TAP	16	192	5
TAP	16	288	2
TAP	16	288	5
TAP	17	0	1
TAP	17	0	6
STR	17	96	1
SUR	17	96	1	96	96	6
TAP	17	96	6
BRK	17	192	7
TAP	18	0	3
HLD	18	0	5	288
TAP	18	96	4
TAP	18	192	3
TAP	18	288	4
HLD	19	0	2	288
TAP	19	0	4
TAP	19	96	3
TAP	19	192	4
TAP	19	288	3
TAP	20	0	2
TAP	20	32	3
TAP	20	64	2
TAP	20	96	4
TAP	20	192	5
TAP	20	224	4
TAP	20	256	5
TAP	20	288	3
TAP	21	0	2
TAP	21	32	3
TAP	21	64	2
TAP	21	96	5
TAP	21	128	4
TAP	21	160	5
TAP	21	192	3
TAP	21	288	1
TAP	21	288	6
STR	22	0	3
SI_	22	0	3	96	48	7
TAP	22	0	5
TAP	22	96	6
STR	22	192	4
SI_	22	192	4	96	48	0
TAP	22	192	5
TAP	22	288	7
STR	23	0	3
SI_	23	0	3	96	48	7
TAP	23	0	5
TAP	23	96	6
STR	23	192	4
SI_	23	192	4	96	48	0
TAP	23	192	5
TAP	23	288	7
STR	24	0	3
SI_	24	0	3	96	48	7
TAP	24	0	5
TAP	24	96	6
STR	24	192	4
SI_	24	192	4	96	48	0
TAP	24	192	5
TAP	24	288	7
TAP	25	0	3
TAP	25	0	5
TAP	25	96	2
TAP	25	96	4
TAP	25	192	1
TAP	25	192	5
TAP	26	0	2
STR	26	0	4
SI_	26	0	4	96	48	0
TAP	26	96	1
TAP	26	192	2
STR	26	192	3
SI_	26	192	3	96	48	7
TAP	26	288	0
TAP	27	0	2
STR	27	0	4
SI_	27	0	4	96	48	0
TAP	27	96	1
TAP	27	192	2
STR	27	192	3
SI_	27	192	3	96	48	7
TAP	27	288	0
TAP	28	0	2
STR	28	0	4
SI_	28	0	4	96	48	0
TAP	28	96	1
TAP	28	192	2
STR	28	192	3
SI_	28	192	3	96	48	7
TAP	28	288	0
TAP	29	0	2
TAP	29	0	4
TAP	29	96	3
TAP	29	96	5
TAP	29	192	2
HLD	29	192	6	768
TAP	30	0	3
TAP	30	96	4
TAP	30	192	3
TAP	30	288	5
TAP	31	0	2
TAP	31	96	4
TAP	31	192	3
TAP	31	256	3
TAP	31	288	4
TAP	32	0	0
TAP	32	0	1
TAP	32	96	6
TAP	32	96	7
TAP	32	192	4
TAP	32	192	5
TAP	32	288	2
TAP	32	288	3
TAP	33	0	0
HLD	33	0	1	96
HLD	33	96	3	96
HLD	33	192	4	96
TAP	33	288	6
STR	34	0	6
SI_	34	0	6	96	48	2
STR	34	0	7
SI_	34	0	7	96	48	3
STR	34	192	0
SI_	34	192	0	96	48	4
STR	34	192	1
SI_	34	192	1	96	48	5
TAP	35	0	6
TAP	35	0	7
TAP	35	96	1
TAP	35	96	4
TAP	35	192	0
TAP	35	192	1
TAP	35	288	3
TAP	35	288	6
TAP	36	0	6
TAP	36	0	7
TAP	36	96	0
TAP	36	96	1
TAP	36	192	2
TAP	36	192	3
TAP	36	288	4
TAP	36	288	5
HLD	37	0	6	96
TAP	37	0	7
HLD	37	96	4	96
HLD	37	192	3	96
TAP	37	288	1
STR	38	0	0
SCL	38	0	0	96	96	5
STR	38	0	1
SCR	38	0	1	96	96	4
TAP	38	288	3
TAP	38	288	6
STR	39	0	1
SCR	39	0	1	96	96	4
STR	39	0	4
SCR	39	0	4	96	96	7
TAP	39	288	3
TAP	39	288	6
STR	40	0	2
SI_	40	0	2	96	96	7
TAP	40	0	5
TAP	40	96	4
TAP	40	192	3
TAP	40	288	4
TAP	41	0	2
STR	41	0	5
SI_	41	0	5	96	96	0
TAP	41	96	3
TAP	41	192	4
TAP	41	288	3
TAP	42	0	3
TAP	42	0	4
TAP	42	96	2
TAP	42	96	5
TAP	42	192	1
TAP	42	192	6
STR	42	288	0
SI_	42	288	0	96	48	3
STR	42	288	7
SI_	42	288	7	96	48	4
BRK	43	0	0
BRK	43	0	7
TAP	43	192	1
TAP	43	192	6
STR	44	0	2
SCL	44	0	2	96	96	7
TAP	44	0	5
TAP	44	96	4
TAP	44	192	3
TAP	44	288	4
TAP	45	0	2
STR	45	0	5
SCR	45	0	5	96	96	0
TAP	45	96	3
TAP	45	192	4
TAP	45	288	3
HLD	46	0	3	544
TAP	46	0	4
TAP	46	192	6
TAP	46	352	4
TAP	47	64	4
TAP	47	160	4
TAP	47	256	3
TAP	47	288	4
HLD	48	0	3	192
HLD	48	0	7	192
TAP	48	288	2
TAP	48	288	3
HLD	49	0	0	96
HLD	49	0	6	96
HLD	49	160	1	96
HLD	49	160	7	96
TAP	49	288	0
HLD	50	0	0	192
HLD	50	0	4	192
TAP	50	288	4
TAP	50	288	5
HLD	51	0	1	96
HLD	51	0	7	96
HLD	51	160	0	96
HLD	51	160	6	96
TAP	51	288	7
TAP	52	0	3
TAP	52	0	5
TAP	52	96	3
TAP	52	96	5
TAP	52	192	2
TAP	52	192	4
TAP	52	288	2
TAP	52	288	4
STR	53	0	3
SCL	53	0	3	96	48	0
TAP	53	0	6
TAP	53	192	1
STR	53	192	4
SCR	53	192	4	96	48	7
STR	54	0	3
SCL	54	0	3	96	48	0
TAP	54	0	6
TAP	54	192	1
STR	54	192	4
SCR	54	192	4	96	48	7
STR	55	0	3
SCL	55	0	3	96	192	4
TAP	55	0	6
TAP	56	0	3
TAP	56	0	6
TAP	56	64	5
TAP	56	96	4
TAP	56	160	2
TAP	56	192	3
TAP	56	256	6
TAP	56	288	7
TAP	56	352	1
TAP	57	0	0
TAP	57	64	4
TAP	57	96	3
TAP	57	192	2
TAP	57	192	5
TAP	57	288	3
TAP	57	288	4
TAP	58	0	1
TAP	58	0	4
TAP	58	64	2
TAP	58	96	3
TAP	58	160	5
TAP	58	192	4
TAP	58	256	1
TAP	58	288	0
TAP	58	352	6
TAP	59	0	7
TAP	59	64	3
TAP	59	96	4
TAP	59	192	2
TAP	59	192	5
TAP	59	288	3
TAP	59	288	4
HLD	60	0	0	288
HLD	60	0	5	288
HLD	61	0	2	288
HLD	61	0	7	288
TAP	62	0	0
TAP	62	96	0
STR	62	192	7
SCL	62	192	7	96	192	0
BRK	63	288	0
STR	64	0	2
SCL	64	0	2	96	64	7
HLD	64	0	4	1056
STR	64	192	6
SCR	64	192	6	96	64	1
STR	65	0	2
SCL	65	0	2	96	64	7
STR	65	192	6
SCR	65	192	6	96	64	1
STR	66	0	2
SCL	66	0	2	96	64	7
STR	66	192	6
SCR	66	192	6	96	64	1
TAP	67	0	2
TAP	67	0	4
TAP	67	96	3
TAP	67	96	5
TAP	67	192	1
TAP	67	192	4
TAP	67	288	3
TAP	67	288	6
HLD	68	0	3	1056
STR	68	0	5
SCR	68	0	5	96	64	0
STR	68	192	1
SCL	68	192	1	96	64	6
STR	69	0	5
SCR	69	0	5	96	64	0
STR	69	192	1
SCL	69	192	1	96	64	6
STR	70	0	5
SCR	70	0	5	96	64	0
STR	70	192	1
SCL	70	192	1	96	64	6
TAP	71	0	3
TAP	71	0	5
TAP	71	96	2
TAP	71	96	4
TAP	71	192	1
TAP	71	192	3
TAP	71	288	3
TAP	71	288	4
STR	72	0	0
SI_	72	0	0	96	48	6
TAP	72	0	4
TAP	72	96	5
STR	72	192	0
SI_	72	192	0	96	48	5
TAP	72	192	4
TAP	72	288	3
STR	73	0	0
SI_	73	0	0	96	48	6
TAP	73	0	4
TAP	73	96	5
TAP	73	192	0
TAP	73	192	4
TAP	73	288	6
TAP	74	0	3
STR	74	0	7
SI_	74	0	7	96	48	1
TAP	74	96	2
TAP	74	192	3
STR	74	192	7
SI_	74	192	7	96	48	2
TAP	74	288	4
TAP	75	0	3
STR	75	0	7
SI_	75	0	7	96	48	1
TAP	75	96	2
TAP	75	192	3
TAP	75	192	7
TAP	75	288	2
STR	76	0	5
SCR	76	0	5	96	48	7
TAP	76	96	4
STR	76	192	2
SCL	76	192	2	96	48	0
TAP	76	288	3
STR	77	0	5
SCR	77	0	5	96	48	7
TAP	77	96	4
STR	77	192	2
SCL	77	192	2	96	48	0
TAP	77	288	3
HLD	78	0	5	288
TAP	78	96	2
TAP	78	192	0
STR	78	288	6
SCR	78	288	6	96	192	4
STR	80	0	2
SCL	80	0	2	96	64	7
TAP	80	0	4
TAP	80	96	4
TAP	80	192	4
STR	80	192	6
SCR	80	192	6	96	64	1
TAP	80	288	4
STR	81	0	2
SCL	81	0	2	96	64	7
TAP	81	0	4
TAP	81	96	4
TAP	81	192	4
STR	81	192	6
SCR	81	192	6	96	64	1
TAP	81	288	4
STR	82	0	2
SCL	82	0	2	96	64	7
TAP	82	0	4
TAP	82	96	4
TAP	82	192	4
STR	82	192	6
SCR	82	192	6	96	64	1
TAP	82	288	4
TAP	83	0	2
TAP	83	0	4
TAP	83	96	3
TAP	83	96	5
TAP	83	192	1
TAP	83	192	4
TAP	83	288	3
TAP	83	288	6
TAP	84	0	3
STR	84	0	5
SCR	84	0	5	96	64	0
TAP	84	96	3
STR	84	192	1
SCL	84	192	1	96	64	6
TAP	84	192	3
TAP	84	288	3
TAP	85	0	3
STR	85	0	5
SCR	85	0	5	96	64	0
TAP	85	96	3
STR	85	192	1
SCL	85	192	1	96	64	6
TAP	85	192	3
TAP	85	288	3
TAP	86	0	3
STR	86	0	5
SCR	86	0	5	96	64	0
TAP	86	96	3
STR	86	192	1
SCL	86	192	1	96	64	6
TAP	86	192	3
TAP	86	288	3
TAP	87	0	3
TAP	87	0	5
TAP	87	96	2
TAP	87	96	4
TAP	87	192	1
TAP	87	192	3
TAP	87	288	3
TAP	87	288	4
STR	88	0	0
SI_	88	0	0	96	48	6
TAP	88	0	4
TAP	88	96	5
STR	88	192	0
SI_	88	192	0	96	48	5
TAP	88	192	4
TAP	88	288	3
STR	89	0	0
SI_	89	0	0	96	48	6
TAP	89	0	4
TAP	89	96	5
TAP	89	192	0
TAP	89	192	4
TAP	89	288	6
TAP	90	0	3
STR	90	0	7
SI_	90	0	7	96	48	1
TAP	90	96	2
TAP	90	192	3
STR	90	192	7
SI_	90	192	7	96	48	2
TAP	90	288	4
TAP	91	0	3
STR	91	0	7
SI_	91	0	7	96	48	1
TAP	91	96	2
TAP	91	192	3
TAP	91	192	7
TAP	91	288	2
TAP	92	0	0
TAP	92	0	1
TAP	92	96	2
TAP	92	96	3
TAP	92	192	4
TAP	92	192	5
TAP	92	288	6
TAP	92	288	7
TAP	93	0	0
TAP	93	0	7
TAP	93	96	5
TAP	93	96	6
TAP	93	192	3
TAP	93	192	4
STR	93	288	1
SCL	93	288	1	96	288	6
STR	93	288	2
SCR	93	288	2	96	288	5
HLD	95	0	3	192
TAP	95	0	4
TAP	95	96	4
TAP	95	192	4
TAP	95	256	3
TAP	95	288	4
HLD	96	0	1	96
HLD	96	0	4	96
HLD	96	160	3	96
HLD	96	160	6	96
TAP	96	288	1
TAP	96	288	4
TAP	97	64	0
TAP	97	96	7
TAP	97	160	7
STR	97	192	1
SI_	97	192	1	96	48	4
TAP	97	288	7
HLD	98	0	3	96
HLD	98	0	6	96
HLD	98	160	1	96
HLD	98	160	4	96
TAP	98	288	3
TAP	98	288	6
TAP	99	64	7
TAP	99	96	0
TAP	99	160	0
TAP	99	192	1
TAP	99	192	6
TAP	99	288	3
TAP	99	288	4
HLD	100	0	3	96
HLD	100	0	6	96
HLD	100	160	2	96
HLD	100	160	5	96
TAP	100	288	1
TAP	100	288	4
STR	101	96	7
SI_	101	96	7	96	48	3
TAP	101	192	0
TAP	102	0	3
TAP	102	0	4
TAP	102	96	3
TAP	102	96	4
TAP	102	192	2
TAP	102	192	5
TAP	102	288	2
TAP	102	288	5
TAP	103	0	1
TAP	103	0	6
TAP	103	96	1
STR	103	96	6
SUL	103	96	6	96	96	1
BRK	103	192	0
TAP	104	0	2
STR	104	0	4
SI_	104	0	4	96	48	0
TAP	104	96	1
TAP	104	192	2
STR	104	192	3
SI_	104	192	3	96	48	7
TAP	104	288	0
TAP	105	0	2
STR	105	0	4
SI_	105	0	4	96	48	0
TAP	105	96	1
TAP	105	192	2
STR	105	192	3
SI_	105	192	3	96	48	7
TAP	105	288	0
TAP	106	0	2
STR	106	0	4
SI_	106	0	4	96	48	0
TAP	106	96	1
TAP	106	192	2
STR	106	192	3
SI_	106	192	3	96	48	7
TAP	106	288	0
TAP	107	0	2
TAP	107	0	4
TAP	107	96	3
TAP	107	96	5
TAP	107	192	2
TAP	107	192	6
TAP	107	288	3
TAP	107	288	4
HLD	108	0	0	672
TAP	108	0	4
TAP	108	288	5
TAP	109	96	5
TAP	109	288	5
TAP	110	0	5
TAP	110	32	4
TAP	110	64	5
TAP	110	96	2
TAP	110	128	3
TAP	110	160	2
TAP	110	192	5
TAP	110	224	4
TAP	110	256	5
TAP	110	288	2
TAP	110	320	3
TAP	110	352	2
TAP	111	0	5
TAP	111	32	4
TAP	111	64	5
TAP	111	96	3
BRK	111	192	1
BRK	111	192	6
BRK	111	256	1
BRK	111	256	6

T_REC_TAP	452
T_REC_BRK	9
T_REC_XTP	0
T_REC_HLD	59
T_REC_XHO	0
T_REC_STR	87
T_REC_BST	0
T_REC_XST	0
T_REC_TTP	0
T_REC_THO	0
T_REC_SLD	87
T_REC_ALL	694
T_NUM_TAP	539
T_NUM_BRK	9
T_NUM_HLD	59
T_NUM_SLD	87
T_NUM_ALL	694
T_JUDGE_TAP	548
T_JUDGE_HLD	232
T_JUDGE_SLD	87
T_JUDGE_ALL	867
TTM_EACHPAIRS	195
TTM_SCR_TAP	269500
TTM_SCR_BRK	23400
TTM_SCR_HLD	59000
TTM_SCR_SLD	130500
TTM_SCR_ALL	482400
TTM_SCR_S	467100
TTM_SCR_SS	481500
TTM_RAT_ACV	10018

